osu file format v5

[General]
AudioFilename: Seisen Spectale.mp3
AudioLeadIn: 0
PreviewTime: -1
Countdown: 0
SampleSet: Soft
StackLeniency: 0.7
Mode: 0
LetterboxInBreaks: 1

[Editor]
Bookmarks: 2889,112497
DistanceSpacing: 0.899999976158142
BeatDivisor: 4
GridSize: 16

[Metadata]
Title:Seisen Spectale
Artist:Ceui
Creator:kioukiou
Version:Hard
Source:Valkyrie Complex
Tags:Valkyrie Complex

[Difficulty]
HPDrainRate:7
CircleSize:5
OverallDifficulty:7
SliderMultiplier:1.4
SliderTickRate:1

[Events]
//Background and Video events
0,0,"01.jpg"
//Break Periods
2,100344,111597
//Storyboard Layer 0 (Background)
//Storyboard Layer 1 (Fail)
//Storyboard Layer 2 (Pass)
//Storyboard Layer 3 (Foreground)
//Storyboard Sound Samples
//Background Colour Transformations
3,100,163,162,255

[TimingPoints]
537,392.156862745098,4,2,1,75,1,0
15438,-100,4,2,1,80,0,0
67595,-100,4,2,1,90,0,0
96909,-100,4,2,1,70,0,0
97105,-100,4,2,1,75,0,0
97497,-100,4,2,1,70,0,0
97693,-100,4,2,1,75,0,0
111909,-100,4,2,1,80,0,0
152301,-100,4,2,1,90,0,0
181615,-100,4,2,1,70,0,0
181811,-100,4,2,1,75,0,0
182203,-100,4,2,1,70,0,0
182399,-100,4,2,1,75,0,0

[Colours]
Combo1 : 249,149,0
Combo2 : 128,255,255
Combo3 : 255,255,255
Combo4 : 0,145,72

[HitObjects]
256,32,2889,1,0
256,80,3674,1,2
256,136,4458,1,0
256,192,5242,1,2
32,192,6027,5,2
480,192,6811,1,2
256,192,7595,1,8
256,360,9164,5,0
256,304,9948,1,2
256,248,10733,1,0
256,192,11517,1,2
256,192,12301,12,4,15438
256,48,16027,5,0
128,48,16419,1,0
128,48,16615,2,0,B|48:48,2,70,0|0|2
256,184,17595,1,0
384,184,17987,1,0
384,184,18184,2,0,B|472:184,2,70,0|0|2
256,320,19164,5,0
128,320,19556,1,0
128,320,19752,2,0,B|80:256|136:184,2,140,2|0|0
64,320,20733,2,0,B|208:320,1,140
260,292,21321,1,2
206,258,21517,1,0
264,232,21713,2,0,B|416:232,1,140,2|0
408,168,22301,5,0
408,168,22497,2,0,B|408:96,2,70
344,168,23086,1,0
344,168,23282,2,0,B|200:168,1,140,2|0
200,104,23870,1,0
144,136,24066,1,0
144,200,24262,1,0
200,232,24458,2,0,B|352:232,2,140,0|2|0
144,264,25438,5,0
16,264,25831,1,0
16,136,26223,1,0
16,136,26419,2,0,B|16:64,2,70
80,136,27007,2,0,B|152:112|232:144,1,140
216,200,27595,1,0
216,263,27791,6,0,B|282:290|354:266,1,140
352,200,28380,2,0,B|440:200,2,70
352,136,28968,2,0,B|200:136,1,140
152,136,29556,1,2
152,136,29654,1,2
152,136,29752,2,0,B|72:136,2,70,2|0|2
192,184,30340,5,0
192,184,30537,2,0,B|272:184,2,70,2|0|2
144,224,31125,2,0,B|96:288|144:360,1,140,4|0
80,352,31713,2,0,B|240:352,1,140
224,288,32301,1,0
224,160,32693,1,0
352,160,33086,1,0
288,160,33282,5,2
288,288,33674,1,2
160,288,34066,5,0
160,288,34262,2,0,B|160:360,2,70
160,224,34850,2,0,B|160:72,1,140
216,56,35438,1,0
272,88,35635,2,0,B|272:248,2,140,0|2|2
384,144,36811,5,0
440,112,37007,1,0
496,144,37203,1,0
440,176,37399,2,0,B|440:328,1,140,4|0
384,352,37987,2,0,B|384:192,2,140
320,352,38968,6,0,B|232:352,1,70,0|2
272,288,39360,2,0,B|184:288,1,70,0|2
224,224,39752,2,0,B|136:224,2,70,0|2|0
288,224,40340,5,0
352,224,40537,2,0,B|424:224,2,70,4|0|0
320,168,41125,2,0,B|248:128|176:176,1,140
184,232,41713,1,2
184,232,41909,2,0,B|184:80,1,140,2|2
120,96,42497,1,0
152,40,42693,1,2
216,40,42889,1,0
248,96,43086,1,2
184,92,43282,6,0,B|184:232,1,140,0|4
312,232,44066,1,0
248,232,44262,2,0,B|248:304,2,70
280,176,44850,1,0
280,176,45046,2,0,B|424:176,1,140
464,128,45635,1,2
464,128,45733,1,2
464,128,45831,2,0,B|464:48,2,70,2|2|2
400,128,46419,5,0
336,128,46615,1,0
272,128,46811,2,0,B|112:128,1,140,4|0
88,176,47399,1,0
128,224,47595,2,0,B|272:224,2,140
128,352,48772,1,0
128,352,48968,2,0,B|56:352,2,70
192,352,49556,1,0
192,352,49752,2,0,B|336:352,1,140
376,304,50340,5,0
336,256,50536,2,0,B|192:256,1,140
200,192,51125,1,0
200,128,51321,1,2
200,128,51419,1,2
200,128,51517,1,2
200,64,51713,2,0,B|128:64,2,70,0|0|2
264,64,52301,1,0
264,64,52497,1,2
264,64,52693,2,0,B|424:64,2,140,4|8|0
264,128,53674,5,0
264,256,54066,2,0,B|208:312,2,70
328,256,54654,1,0
296,200,54850,1,0
296,200,55046,2,0,B|224:168|144:200,1,140
160,128,55635,1,0
160,128,55831,2,0,B|160:272,2,140
96,128,56811,5,0
224,128,57203,1,0
224,64,57399,2,0,B|144:64,2,70
280,96,57987,1,0
280,96,58184,2,0,B|440:96,1,140
424,160,58772,1,2
360,160,58968,1,0
232,160,59360,6,0,B|144:160,2,70,4|0|0
296,160,59948,2,0,B|296:304,1,140
238,327,60536,1,0
238,327,60733,2,0,B|263:375|340:375|354:318,1,140,4|0
296,300,61321,2,0,B|296:160,2,140
360,304,62301,5,0
360,304,62497,2,0,B|448:304|464:224,1,140,8|0
408,192,63086,1,0
408,192,63282,1,0
463,160,63478,2,0,B|448:85|360:85,1,140
336,144,64066,2,0,B|336:240,2,70
296,88,64654,2,0,B|221:104|221:192,1,140
256,192,65242,12,0,67203
256,32,67987,5,0
208,112,68282,1,0
304,112,68576,1,0
256,152,68772,2,0,B|256:296,1,140,4|2
193,292,69360,6,0,B|105:292,2,70
256,292,69948,2,0,B|402:292,1,140,2|0
400,200,70635,1,0
400,200,70733,2,0,B|344:144|256:144,1,140,2|0
208,144,71321,5,0
208,144,71517,2,0,B|128:144,2,70,2|0|0
208,208,72105,1,0
208,208,72301,1,2
272,208,72497,2,0,B|328:280|256:360,1,140
210,339,73086,1,2
210,339,73282,2,0,B|138:339,2,70
273,337,73870,2,0,B|416:336,1,140,2|0
408,208,74654,6,0,B|384:120|312:120,1,140,2|4
256,88,75242,1,0
256,88,75438,2,0,B|256:16,2,70,2|0|0
200,120,76027,1,0
200,120,76223,2,0,B|130:120|106:208,1,140,2|0
104,272,76811,1,0
104,272,76909,1,0
104,272,77007,2,0,B|16:272,2,70,2|0|0
168,272,77595,5,0
168,272,77791,2,0,B|232:328|320:256,1,140,2|0
296,208,78380,1,0
296,208,78576,2,0,B|224:152|144:224,1,140,2|0
104,208,79164,1,0
104,208,79360,2,0,B|8:208,2,70,2|0|0
136,152,79948,1,0
136,88,80144,1,2
136,88,80242,1,0
136,88,80340,1,0
200,88,80537,6,0,B|200:16,2,70,0|0|2
200,152,81125,1,0
200,152,81321,2,0,B|200:304,1,140,0|2
256,320,81909,1,0
312,296,82105,2,0,B|312:136,1,140,0|2
258,122,82693,1,0
258,122,82889,1,0
194,123,83086,1,0
194,123,83184,1,0
194,123,83282,2,0,B|49:123,1,140,2|8
54,185,83870,5,0
53,247,84066,1,2
53,247,84262,2,0,B|-8:307,2,70
112,216,84850,1,2
112,216,85046,2,0,B|264:216,1,140
256,152,85635,1,2
312,184,85831,1,0
312,248,86027,1,0
256,280,86223,1,0
252,216,86419,2,0,B|112:216,1,140,2|0
48,216,87007,1,0
48,216,87203,1,2
48,152,87399,5,0
48,152,87497,1,0
48,152,87595,2,0,B|112:112|184:120,1,140,8|2
244,122,88184,1,0
244,122,88380,2,0,B|328:122,2,70,0|0|2
208,176,88968,1,0
208,176,89164,2,0,B|144:216|72:208,1,140,0|2
72,272,89752,5,0
72,272,89948,2,0,B|160:272,1,70
344,272,90340,2,0,B|264:272,1,70,2|0
72,208,90733,2,0,B|152:208,1,70,8|0
344,208,91125,2,0,B|248:208,1,70,2|0
200,104,91517,5,0
200,104,91713,2,0,B|200:32,2,70,0|2|0
200,168,92301,2,0,B|200:328,1,140,0|2
262,308,92889,1,0
326,308,93086,1,0
294,252,93282,1,0
294,252,93478,2,0,B|294:92,2,140,2|8|2
356,254,94458,5,0
356,254,94654,1,0
356,254,94850,2,0,B|428:254,2,70,0|2|0
292,254,95438,2,0,B|116:254,2,140,0|2|0
244,134,96615,5,0
180,134,96811,1,0
212,78,97007,1,4
276,78,97203,1,0
308,134,97399,1,0
244,134,97595,2,0,B|244:286,2,140,4|0|8
256,192,98968,12,4,100144
152,40,112497,6,0,B|72:40,2,70,0|4|0
216,40,113086,1,0
216,40,113282,2,0,B|368:40,1,140
400,88,113870,1,0
360,136,114066,2,0,B|208:136,2,140,0|2|2
360,264,115242,5,2
304,296,115438,1,0
248,264,115635,1,0
192,296,115831,2,0,B|192:376,2,70,4|0|0
136,264,116419,2,0,B|88:192|152:128,1,140
80,136,117007,1,0
80,136,117203,2,0,B|240:136,1,140
280,136,117791,1,0
344,136,117987,1,2
344,136,118086,1,2
344,136,118184,2,0,B|408:72,2,70,2|0|0
312,192,118772,6,0,B|168:192,1,140,0|0
128,240,119360,2,0,B|56:240,2,70
176,280,119948,2,0,B|352:280,1,140
360,232,120537,1,0
424,232,120733,1,2
424,232,120831,1,2
424,232,120929,1,2
400,176,121125,2,0,B|400:104,2,70,0|0|0
336,176,121713,5,0
280,144,121909,1,0
224,176,122105,2,0,B|80:176,1,140,4|0
40,224,122693,1,0
80,272,122889,2,0,B|224:272,2,140
80,336,123870,1,0
80,336,124066,2,0,B|8:336,2,70
144,336,124654,1,0
208,336,124850,1,0
208,336,125046,6,0,B|280:336,2,70,0|4|0
208,272,125635,1,0
208,208,125831,1,0
208,208,125929,1,0
208,208,126027,1,0
144,208,126223,2,0,B|64:208|64:104,1,140
128,112,126811,1,0
128,112,127007,2,0,B|128:24,2,70,2|0|2
384,272,127791,6,0,B|384:360,2,70
384,208,128380,2,0,B|296:208|360:128|272:128,1,140,4|0
224,128,128968,2,0,B|216:80|160:72,2,70
224,192,129556,1,0
224,192,129752,2,0,B|224:288|120:288,1,140
80,288,130340,1,0
80,224,130537,1,2
80,224,130635,1,2
80,224,130733,2,0,B|80:152,2,70,2|2|0
144,224,131321,5,2
144,224,131517,2,0,B|288:224,1,140,4|0
328,176,132105,1,0
328,176,132301,1,0
288,128,132497,1,2
288,128,132595,1,2
288,128,132693,2,0,B|216:88|152:128,2,140,2|0|0
352,112,133674,6,0,B|408:56,2,70
352,176,134262,1,2
352,176,134458,2,0,B|352:336,1,140
288,320,135046,1,0
224,320,135242,1,2
224,320,135340,1,2
224,320,135438,1,2
160,320,135635,1,2
160,320,135831,1,0
160,320,136027,2,0,B|72:312|48:232,1,140,2|0
56,176,136615,5,0
56,176,136811,2,0,B|0:120,2,70
120,168,137399,2,0,B|208:168|232:256,1,140,0|8
288,240,137987,5,0
352,240,138184,1,0
320,184,138380,1,0
320,184,138478,1,0
320,184,138576,1,0
256,184,138772,2,0,B|168:184,2,70
288,128,139360,2,0,B|288:48,2,70
224,128,139948,5,2
224,128,140046,1,2
224,128,140144,1,2
160,128,140340,2,0,B|72:128,1,70,2|0
112,184,140733,2,0,B|184:184,1,70,0|2
152,240,141125,2,0,B|72:240,1,70,0|2
112,296,141517,2,0,B|256:296,1,140,2|0
304,256,142105,1,0
256,208,142301,2,0,B|104:208,2,140,0|0|0
304,168,143282,5,2
304,168,143478,1,2
368,168,143674,2,0,B|448:152|448:56,1,140,0|4
384,72,144262,5,0
384,72,144458,2,0,B|384:0,2,70
320,72,145046,1,0
256,72,145242,1,0
192,72,145438,2,0,B|136:144|208:216,1,140,4|0
256,200,146027,1,0
319,199,146223,2,0,B|377:255|321:327,2,140
256,200,147203,6,0,B|96:200,1,140,8|0
112,136,147791,1,0
56,168,147987,1,0
56,232,148184,1,0
112,264,148380,1,0
116,200,148576,2,0,B|256:200,1,140
256,264,149164,1,0
256,264,149360,2,0,B|256:336,2,70
256,192,149948,12,0,151909
256,360,152693,5,0
208,280,152987,1,0
304,280,153282,1,0
256,240,153478,2,0,B|256:96,1,140,4|2
192,104,154066,1,0
192,104,154164,1,0
192,104,154262,1,0
128,104,154458,1,0
128,104,154654,2,0,B|56:104,2,70,2|0|0
120,200,155340,5,0
120,200,155438,2,0,B|176:256|256:248,1,140,2|0
248,184,156027,1,0
248,184,156223,2,0,B|248:112,2,70,2|0|4
248,312,157007,1,2
312,312,157203,1,0
312,312,157301,1,0
312,312,157399,2,0,B|360:248|304:176,1,140,0|2
248,184,157987,1,0
248,184,158184,2,0,B|408:184,1,140,0|2
448,184,158772,1,0
448,184,158870,1,0
448,184,158968,2,0,B|520:184,2,70,0|0|2
416,128,159556,5,0
416,128,159752,2,0,B|272:128,1,140,8|2
216,128,160340,2,0,B|160:72,2,70
256,176,160929,1,2
296,224,161125,2,0,B|352:280,2,70
232,224,161713,1,2
232,224,161909,2,0,B|80:224,1,140
67,163,162497,2,0,B|16:192|16:256|64:280,2,140,2|0|2
92,224,163478,2,0,B|232:224,1,140
296,224,164066,5,8
296,224,164262,1,0
360,224,164458,1,0
360,224,164556,1,0
360,224,164654,2,0,B|432:224,2,70,0|2|0
328,280,165242,6,0,B|304:360|208:336,1,140,0|2
256,272,165831,1,0
185,264,166027,2,0,B|209:186|295:207,1,140,0|2
296,144,166615,5,0
232,144,166811,1,0
232,144,166909,1,0
232,144,167007,2,0,B|232:72,2,70,0|2|0
168,144,167595,2,0,B|88:176|104:272,1,140,0|2
168,256,168184,5,0
168,256,168380,2,0,B|168:336,2,70,0|0|2
216,216,168968,1,0
216,216,169164,2,0,B|216:64,1,140,8|2
152,80,169752,1,0
184,24,169948,1,0
248,24,170144,1,0
280,80,170340,1,2
216,76,170536,2,0,B|216:216,1,140
216,280,171125,5,2
216,344,171321,2,0,B|216:384,2,35
272,312,171713,1,0
272,312,171909,1,2
336,312,172105,1,0
336,312,172203,1,0
336,312,172301,2,0,B|408:272|384:192,2,140,8|2|0
304,256,173282,6,0,B|304:184,2,70,0|2|0
240,256,173870,2,0,B|88:256,1,140,0|2
56,208,174458,1,0
104,168,174654,2,0,B|256:168,1,140,0|2
288,216,175242,5,0
288,216,175438,2,0,B|360:168|360:96,1,140,8|2
320,48,176027,1,0
320,48,176125,1,0
320,48,176223,1,0
256,64,176419,2,0,B|176:64,2,70,0|2|0
256,64,177007,2,0,B|184:112|184:184,1,140,0|2
248,176,177595,1,0
312,176,177791,1,0
376,176,177987,2,0,B|416:256|368:320,1,140
440,312,178576,6,0,B|280:312,1,140,8|2
256,264,179164,1,0
216,312,179360,2,0,B|64:312,2,140,0|2|0
256,192,180536,5,2
256,192,180929,1,0
128,192,181321,5,0
128,128,181517,1,0
72,160,181713,1,4
72,224,181909,1,0
128,256,182105,1,0
128,192,182301,2,0,B|280:192,2,140,4|0|8
256,192,183674,12,4,184850
