osu file format v12

[General]
AudioFilename: VC.mp3
AudioLeadIn: 0
PreviewTime: 69505
Countdown: 0
SampleSet: Normal
StackLeniency: 0.7
Mode: 1
LetterboxInBreaks: 0

[Editor]
DistanceSpacing: 1.2
BeatDivisor: 4
GridSize: 0

[Metadata]
Title:Seisen Spectale (Short Ver.)
TitleUnicode:聖戦スペクタル (Short Ver.)
Artist:Ceui
ArtistUnicode:Ceui
Creator:NewRulerNA
Version:Taiko Oni
Source:Valkyrie Complex
Tags:circus visual novel opening
BeatmapID:189170
BeatmapSetID:64230

[Difficulty]
HPDrainRate:5
CircleSize:5
OverallDifficulty:5
ApproachRate:10
SliderMultiplier:1.4
SliderTickRate:1

[Events]
//Background and Video events
0,0,"taiko.jpg",0,0
//Break Periods
//Storyboard Layer 0 (Background)
Sprite,Background,Centre,"taiko.jpg",320,240 F,0,0,,0
Sprite,Background,Centre,"taiko.jpg",320,435 S,0,0,125074,0.4685212
//Storyboard Layer 1 (Fail)
//Storyboard Layer 2 (Pass)
//Storyboard Layer 3 (Foreground)
//Storyboard Sound Samples
//Background Colour Transformations
3,100,0,0,0

[TimingPoints]
-200,392.156862745098,4,1,0,60,1,0
-100,-200,4,1,0,50,0,0
17054,-100,4,1,0,60,0,0
70387,-100,4,1,0,60,0,1
101759,-100,4,1,0,60,0,0
103328,-133.333333333333,4,1,0,60,0,0

[Colours]
Combo1 : 0,255,255
Combo2 : 255,128,64
Combo3 : 0,255,255
Combo4 : 255,128,64

[HitObjects]
0,0,4505,1,0,0:0:0:0:
512,0,5290,5,8,0:0:0:0:
512,0,5682,1,8,0:0:0:0:
0,0,6074,5,0,0:0:0:0:
512,0,6858,5,8,0:0:0:0:
512,0,7250,1,8,0:0:0:0:
0,0,7643,5,0,0:0:0:0:
512,0,8427,1,8,0:0:0:0:
0,0,8819,5,0,0:0:0:0:
512,0,9211,5,8,0:0:0:0:
0,0,9800,5,0,0:0:0:0:
512,0,9996,5,8,0:0:0:0:
512,0,10388,1,8,0:0:0:0:
0,0,10780,5,0,0:0:0:0:
0,0,11368,5,0,0:0:0:0:
512,0,11564,5,8,0:0:0:0:
0,0,12349,5,0,0:0:0:0:
512,0,12741,5,8,0:0:0:0:
0,0,13133,5,0,0:0:0:0:
0,384,13917,5,12,0:0:0:0:
0,0,17054,1,0,0:0:0:0:
0,0,17250,1,0,0:0:0:0:
0,0,17349,1,0,0:0:0:0:
512,0,17447,5,8,0:0:0:0:
0,0,17643,5,0,0:0:0:0:
512,0,18035,5,8,0:0:0:0:
0,0,18231,5,0,0:0:0:0:
0,0,18329,1,0,0:0:0:0:
512,0,18427,5,8,0:0:0:0:
0,0,18525,5,0,0:0:0:0:
512,0,18623,5,8,0:0:0:0:
512,0,19015,1,8,0:0:0:0:
0,0,19113,1,0,0:0:0:0:
0,0,19211,1,0,0:0:0:0:
0,0,19309,1,0,0:0:0:0:
512,0,19407,5,8,0:0:0:0:
0,0,19505,5,0,0:0:0:0:
0,0,19603,1,0,0:0:0:0:
0,0,19701,1,0,0:0:0:0:
512,0,19800,5,8,0:0:0:0:
0,0,19898,5,0,0:0:0:0:
512,0,19996,5,8,0:0:0:0:
0,0,20192,5,0,0:0:0:0:
0,0,20388,1,0,0:0:0:0:
0,0,20486,1,0,0:0:0:0:
512,0,20584,5,8,0:0:0:0:
0,0,20780,1,0,0:0:0:0:
512,0,21172,5,8,0:0:0:0:
0,0,21368,5,0,0:0:0:0:
0,0,21466,1,0,0:0:0:0:
0,0,21564,1,0,0:0:0:0:
0,0,21662,1,0,0:0:0:0:
512,0,21760,5,8,0:0:0:0:
512,0,21956,1,8,0:0:0:0:
512,0,22054,1,8,0:0:0:0:
512,0,22152,5,0,0:0:0:0:
512,0,22250,5,8,0:0:0:0:
512,0,22349,5,0,0:0:0:0:
512,0,22447,1,0,0:0:0:0:
0,0,22545,5,8,0:0:0:0:
512,0,22643,1,8,0:0:0:0:
0,0,22741,1,0,0:0:0:0:
512,0,22839,1,8,0:0:0:0:
0,0,22937,5,8,0:0:0:0:
512,0,23035,5,8,0:0:0:0:
0,0,23133,5,0,0:0:0:0:
512,0,23231,5,8,0:0:0:0:
0,0,23329,5,0,0:0:0:0:
0,0,23525,1,0,0:0:0:0:
0,0,23624,1,0,0:0:0:0:
512,0,23722,5,8,0:0:0:0:
0,0,23918,5,0,0:0:0:0:
512,0,24310,5,8,0:0:0:0:
0,0,24506,5,0,0:0:0:0:
0,0,24604,1,0,0:0:0:0:
512,0,24702,5,8,0:0:0:0:
0,0,24800,5,0,0:0:0:0:
512,0,24898,5,8,0:0:0:0:
0,0,25290,5,0,0:0:0:0:
0,0,25486,1,0,0:0:0:0:
512,0,25584,5,8,0:0:0:0:
512,0,25682,1,8,0:0:0:0:
0,0,25780,5,0,0:0:0:0:
0,0,25878,1,0,0:0:0:0:
512,0,25976,5,8,0:0:0:0:
0,0,26074,5,0,0:0:0:0:
0,0,26172,1,0,0:0:0:0:
512,0,26270,5,8,0:0:0:0:
0,0,26368,1,0,0:0:0:0:
0,0,26466,1,0,0:0:0:0:
0,0,26662,1,0,0:0:0:0:
0,0,26761,1,0,0:0:0:0:
512,0,26859,5,8,0:0:0:0:
0,0,27055,5,0,0:0:0:0:
512,0,27447,5,8,0:0:0:0:
0,0,27643,5,0,0:0:0:0:
0,0,27741,1,0,0:0:0:0:
512,0,27839,5,8,0:0:0:0:
512,0,28231,1,8,0:0:0:0:
0,0,28329,5,0,0:0:0:0:
0,0,28427,1,0,0:0:0:0:
512,0,28525,5,8,0:0:0:0:
0,0,28623,5,0,0:0:0:0:
0,0,28721,1,0,0:0:0:0:
512,0,28819,5,8,0:0:0:0:
0,0,28917,5,0,0:0:0:0:
0,0,29015,1,0,0:0:0:0:
0,0,29113,1,0,0:0:0:0:
512,0,29211,5,8,0:0:0:0:
0,0,29407,5,0,0:0:0:0:
0,0,29603,1,0,0:0:0:0:
512,0,29799,5,8,0:0:0:0:
0,0,29996,5,0,0:0:0:0:
512,0,30192,5,8,0:0:0:0:
512,0,30584,1,8,0:0:0:0:
512,0,30780,1,8,0:0:0:0:
0,0,30976,5,0,0:0:0:0:
0,0,31074,1,0,0:0:0:0:
512,0,31172,5,8,0:0:0:0:
0,0,31368,5,0,0:0:0:0:
512,0,31564,5,8,0:0:0:0:
512,0,31760,1,8,0:0:0:0:
0,0,32152,5,0,0:0:0:0:
0,0,32349,1,0,0:0:0:0:
512,0,32545,5,8,0:0:0:0:
0,0,32643,5,0,0:0:0:0:
0,0,32741,5,0,0:0:0:0:
0,0,32937,5,0,0:0:0:0:
512,0,33133,5,8,0:0:0:0:
512,0,33329,5,8,0:0:0:0:
512,0,33721,1,8,0:0:0:0:
512,0,33917,1,0,0:0:0:0:
0,0,34113,5,0,0:0:0:0:
0,0,34211,1,0,0:0:0:0:
512,0,34309,5,8,0:0:0:0:
0,0,34505,5,0,0:0:0:0:
512,0,34701,5,8,0:0:0:0:
512,0,34898,1,8,0:0:0:0:
512,0,35290,1,8,0:0:0:0:
512,0,35682,5,8,0:0:0:0:
0,0,35878,5,0,0:0:0:0:
0,0,36074,5,0,0:0:0:0:
0,0,36270,1,0,0:0:0:0:
512,0,36466,5,8,0:0:0:0:
0,0,36858,5,0,0:0:0:0:
512,0,37250,5,8,0:0:0:0:
0,0,37643,5,0,0:0:0:0:
0,0,38035,1,8,0:0:0:0:
512,0,38231,5,0,0:0:0:0:
0,0,38427,5,0,0:0:0:0:
512,0,38525,5,8,0:0:0:0:
512,0,38623,1,8,0:0:0:0:
512,0,38819,1,8,0:0:0:0:
0,0,39015,5,0,0:0:0:0:
0,0,39211,1,0,0:0:0:0:
0,0,39309,1,0,0:0:0:0:
512,0,39407,5,8,0:0:0:0:
0,0,39603,5,0,0:0:0:0:
512,0,39996,5,8,0:0:0:0:
0,0,40192,1,0,0:0:0:0:
0,0,40388,5,0,0:0:0:0:
0,0,40780,1,0,0:0:0:0:
0,0,40976,1,0,0:0:0:0:
512,0,41172,5,8,0:0:0:0:
0,0,41368,5,0,0:0:0:0:
512,0,41564,5,8,0:0:0:0:
0,0,41662,1,0,0:0:0:0:
512,0,41760,1,8,0:0:0:0:
0,0,41956,5,0,0:0:0:0:
0,0,42152,1,0,0:0:0:0:
512,0,42349,5,8,0:0:0:0:
0,0,42545,5,0,0:0:0:0:
512,0,42741,5,8,0:0:0:0:
0,0,43133,5,0,0:0:0:0:
0,0,43231,1,0,0:0:0:0:
0,0,43329,1,8,0:0:0:0:
512,0,43525,5,8,0:0:0:0:
0,0,43721,5,0,0:0:0:0:
512,0,43917,5,8,0:0:0:0:
512,0,44113,1,8,0:0:0:0:
512,0,44309,1,0,0:0:0:0:
0,0,44701,5,0,0:0:0:0:
512,0,44898,5,8,0:0:0:0:
512,0,45094,1,8,0:0:0:0:
0,0,45290,5,0,0:0:0:0:
0,0,45388,1,0,0:0:0:0:
512,0,45486,5,8,0:0:0:0:
512,0,45682,1,8,0:0:0:0:
0,0,45878,5,0,0:0:0:0:
512,0,46270,5,0,0:0:0:0:
0,0,46368,5,0,0:0:0:0:
0,0,46466,5,8,0:0:0:0:
0,0,46662,1,8,0:0:0:0:
0,0,46858,5,0,0:0:0:0:
512,0,47054,5,8,0:0:0:0:
0,0,47250,1,8,0:0:0:0:
512,0,47447,1,8,0:0:0:0:
0,0,47545,1,8,0:0:0:0:
0,0,47643,1,0,0:0:0:0:
0,0,47839,1,0,0:0:0:0:
512,0,48035,5,8,0:0:0:0:
0,0,48133,1,0,0:0:0:0:
512,0,48231,5,8,0:0:0:0:
0,0,48427,1,0,0:0:0:0:
0,0,48623,5,8,0:0:0:0:
0,0,48721,1,8,0:0:0:0:
512,0,48819,5,0,0:0:0:0:
512,0,49015,1,0,0:0:0:0:
512,0,49407,5,8,0:0:0:0:
0,0,49603,5,0,0:0:0:0:
0,0,49701,1,0,0:0:0:0:
512,0,49799,5,8,0:0:0:0:
0,0,49996,5,0,0:0:0:0:
0,0,50192,5,8,0:0:0:0:
0,0,50290,1,8,0:0:0:0:
512,0,50388,5,0,0:0:0:0:
0,0,50584,5,0,0:0:0:0:
0,0,50976,5,8,0:0:0:0:
0,0,51172,5,0,0:0:0:0:
512,0,51368,5,8,0:0:0:0:
512,0,51466,1,8,0:0:0:0:
0,0,51564,5,0,0:0:0:0:
0,0,51760,5,0,0:0:0:0:
0,0,51858,1,0,0:0:0:0:
512,0,51956,5,8,0:0:0:0:
512,0,52152,1,8,0:0:0:0:
0,0,52545,5,0,0:0:0:0:
0,0,52643,1,0,0:0:0:0:
512,0,52741,5,8,0:0:0:0:
512,0,52937,1,8,0:0:0:0:
0,0,53329,5,0,0:0:0:0:
0,0,53427,1,0,0:0:0:0:
512,0,53525,5,8,0:0:0:0:
0,0,53623,5,0,0:0:0:0:
512,0,53721,5,8,0:0:0:0:
0,0,53819,5,0,0:0:0:0:
512,0,53917,5,8,0:0:0:0:
512,0,54015,1,8,0:0:0:0:
0,0,54113,5,0,0:0:0:0:
0,0,54211,1,0,0:0:0:0:
512,0,54309,1,8,0:0:0:0:
512,0,54407,1,8,0:0:0:0:
0,0,54505,5,0,0:0:0:0:
0,0,54603,1,0,0:0:0:0:
0,0,54701,1,0,0:0:0:0:
0,0,54898,1,0,0:0:0:0:
0,0,54996,1,0,0:0:0:0:
512,0,55094,5,8,0:0:0:0:
512,0,55290,1,8,0:0:0:0:
0,0,55682,5,0,0:0:0:0:
512,0,55878,5,8,0:0:0:0:
512,0,56074,1,8,0:0:0:0:
512,0,56172,1,8,0:0:0:0:
0,0,56270,5,0,0:0:0:0:
0,0,56466,1,0,0:0:0:0:
512,0,56662,5,8,0:0:0:0:
512,0,56858,1,8,0:0:0:0:
0,0,56956,5,0,0:0:0:0:
512,0,57054,5,8,0:0:0:0:
0,0,57250,5,0,0:0:0:0:
512,0,57447,5,8,0:0:0:0:
512,0,57643,1,8,0:0:0:0:
0,0,57839,5,0,0:0:0:0:
0,0,58035,1,0,0:0:0:0:
0,0,58133,1,0,0:0:0:0:
512,0,58231,5,8,0:0:0:0:
0,0,58427,5,0,0:0:0:0:
512,0,58623,5,8,0:0:0:0:
0,0,58819,5,0,0:0:0:0:
0,0,59015,5,0,0:0:0:0:
512,0,59211,5,8,0:0:0:0:
0,0,59407,1,0,0:0:0:0:
512,0,59603,5,8,0:0:0:0:
512,0,59799,1,8,0:0:0:0:
0,0,59898,1,0,0:0:0:0:
512,0,59996,5,8,0:0:0:0:
0,0,60192,1,0,0:0:0:0:
512,0,60388,5,0,0:0:0:0:
512,0,60584,1,8,0:0:0:0:
0,0,60976,5,8,0:0:0:0:
0,0,61172,1,0,0:0:0:0:
512,0,61368,5,8,0:0:0:0:
0,0,61564,5,0,0:0:0:0:
512,0,61956,5,8,0:0:0:0:
0,0,62152,5,0,0:0:0:0:
512,0,62349,5,8,0:0:0:0:
0,0,62447,1,8,0:0:0:0:
0,0,62545,5,0,0:0:0:0:
512,0,62741,5,8,0:0:0:0:
0,0,62937,5,0,0:0:0:0:
0,0,63035,1,0,0:0:0:0:
512,0,63133,5,8,0:0:0:0:
512,0,63231,1,8,0:0:0:0:
0,0,63329,5,0,0:0:0:0:
512,0,63525,5,8,0:0:0:0:
0,0,63721,5,0,0:0:0:0:
0,0,63917,1,8,0:0:0:0:
0,0,64015,1,0,0:0:0:0:
512,0,64113,5,8,0:0:0:0:
0,0,64309,1,0,0:0:0:0:
512,0,64505,5,8,0:0:0:0:
512,0,64701,1,0,0:0:0:0:
512,0,65094,5,8,0:0:0:0:
0,0,65290,5,0,0:0:0:0:
512,0,65486,5,8,0:0:0:0:
0,0,65584,1,0,0:0:0:0:
512,0,65682,5,8,0:0:0:0:
0,0,65878,5,0,0:0:0:0:
512,0,66074,1,8,0:0:0:0:
0,0,66270,5,0,0:0:0:0:
512,0,66662,5,8,0:0:0:0:
0,0,66858,5,0,0:0:0:0:
512,0,67054,5,8,0:0:0:0:
0,0,67250,5,0,0:0:0:0:
0,0,67349,1,0,0:0:0:0:
0,0,67447,1,0,0:0:0:0:
512,0,67643,5,8,0:0:0:0:
512,0,67839,1,8,0:0:0:0:
0,0,68035,5,0,0:0:0:0:
0,0,68133,1,0,0:0:0:0:
0,0,68231,1,0,0:0:0:0:
512,0,68427,5,8,0:0:0:0:
512,0,68623,1,8,0:0:0:0:
0,0,68819,5,0,0:0:0:0:
0,0,68917,1,0,0:0:0:0:
0,0,69015,1,0,0:0:0:0:
512,0,69113,1,0,0:0:0:0:
512,0,69211,5,8,0:0:0:0:
512,0,69407,1,8,0:0:0:0:
0,0,69603,5,0,0:0:0:0:
0,0,69898,1,0,0:0:0:0:
512,0,70192,5,8,0:0:0:0:
0,382,70388,5,4,0:0:0:0:
512,0,70584,5,8,0:0:0:0:
512,0,70682,1,8,0:0:0:0:
512,0,70780,1,8,0:0:0:0:
0,0,70976,5,0,0:0:0:0:
512,0,71074,5,8,0:0:0:0:
512,0,71270,5,8,0:0:0:0:
0,0,71368,5,0,0:0:0:0:
512,0,71564,1,8,0:0:0:0:
512,0,71760,1,8,0:0:0:0:
0,0,71956,5,0,0:0:0:0:
0,0,72054,1,0,0:0:0:0:
0,0,72152,1,0,0:0:0:0:
0,0,72250,1,0,0:0:0:0:
512,0,72349,5,8,0:0:0:0:
512,0,72741,1,8,0:0:0:0:
0,0,72839,5,0,0:0:0:0:
0,0,73035,5,0,0:0:0:0:
512,0,73133,5,8,0:0:0:0:
0,0,73329,1,0,0:0:0:0:
512,0,73525,5,8,0:0:0:0:
0,0,73721,5,0,0:0:0:0:
0,0,73819,1,0,0:0:0:0:
512,0,73917,5,8,0:0:0:0:
512,0,74113,1,0,0:0:0:0:
0,0,74211,5,0,0:0:0:0:
512,0,74309,5,0,0:0:0:0:
0,0,74505,1,0,0:0:0:0:
512,0,74701,5,8,0:0:0:0:
512,0,74898,5,8,0:0:0:0:
0,0,74996,5,0,0:0:0:0:
512,0,75094,5,8,0:0:0:0:
512,0,75290,1,8,0:0:0:0:
0,0,75388,5,0,0:0:0:0:
0,0,75486,1,0,0:0:0:0:
0,0,75584,1,0,0:0:0:0:
512,0,75682,5,8,0:0:0:0:
0,0,75780,5,0,0:0:0:0:
512,0,75878,5,8,0:0:0:0:
0,0,75976,5,0,0:0:0:0:
512,0,76074,5,8,0:0:0:0:
0,0,76172,5,0,0:0:0:0:
512,0,76270,5,8,0:0:0:0:
512,384,76662,1,12,0:0:0:0:
0,0,76858,5,0,0:0:0:0:
0,0,76956,1,0,0:0:0:0:
512,0,77054,5,8,0:0:0:0:
0,0,77250,5,0,0:0:0:0:
512,0,77349,5,8,0:0:0:0:
0,0,77447,5,0,0:0:0:0:
0,0,77643,1,0,0:0:0:0:
0,0,77741,1,0,0:0:0:0:
512,0,77839,5,8,0:0:0:0:
0,0,78035,5,0,0:0:0:0:
0,0,78231,1,0,0:0:0:0:
512,0,78427,5,0,0:0:0:0:
512,0,78525,5,0,0:0:0:0:
512,0,78623,1,0,0:0:0:0:
512,0,78819,1,8,0:0:0:0:
0,0,79015,5,8,0:0:0:0:
512,0,79407,5,0,0:0:0:0:
0,380,79800,5,12,0:0:0:0:
0,0,80192,1,0,0:0:0:0:
512,384,80388,5,12,0:0:0:0:
0,0,80780,5,0,0:0:0:0:
512,384,80976,5,12,0:0:0:0:
0,0,81172,5,0,0:0:0:0:
0,0,81270,1,0,0:0:0:0:
512,0,81368,5,8,0:0:0:0:
0,0,81564,5,0,0:0:0:0:
0,0,81662,1,0,0:0:0:0:
512,0,81760,5,8,0:0:0:0:
0,0,81956,1,0,0:0:0:0:
0,0,82054,1,0,0:0:0:0:
0,0,82152,1,0,0:0:0:0:
0,0,82349,5,0,0:0:0:0:
512,0,82545,5,8,0:0:0:0:
512,0,82741,1,8,0:0:0:0:
0,0,82937,5,0,0:0:0:0:
512,0,83133,5,8,0:0:0:0:
0,0,83329,5,0,0:0:0:0:
0,0,83525,5,0,0:0:0:0:
512,0,83623,5,8,0:0:0:0:
512,0,83819,5,8,0:0:0:0:
0,0,83917,5,0,0:0:0:0:
512,0,84113,1,8,0:0:0:0:
512,0,84309,5,0,0:0:0:0:
512,0,84505,5,8,0:0:0:0:
0,0,84603,5,0,0:0:0:0:
0,0,84701,1,0,0:0:0:0:
512,0,84898,5,8,0:0:0:0:
0,0,85290,5,0,0:0:0:0:
0,0,85584,1,0,0:0:0:0:
512,0,85878,5,8,0:0:0:0:
0,0,86074,5,0,0:0:0:0:
0,0,86172,1,0,0:0:0:0:
512,0,86270,5,8,0:0:0:0:
0,0,86466,5,0,0:0:0:0:
512,0,86662,5,8,0:0:0:0:
512,0,87054,1,8,0:0:0:0:
0,0,87447,5,8,0:0:0:0:
0,0,87545,1,0,0:0:0:0:
512,0,87643,5,8,0:0:0:0:
512,0,87839,1,8,0:0:0:0:
0,0,88035,5,0,0:0:0:0:
0,0,88231,1,0,0:0:0:0:
512,0,88427,5,8,0:0:0:0:
0,0,88623,5,0,0:0:0:0:
512,0,88819,5,8,0:0:0:0:
512,0,89015,1,8,0:0:0:0:
0,0,89113,5,0,0:0:0:0:
512,0,89211,5,8,0:0:0:0:
0,0,89309,5,0,0:0:0:0:
0,0,89407,1,0,0:0:0:0:
512,0,89603,5,8,0:0:0:0:
0,0,89800,5,0,0:0:0:0:
0,0,89996,1,0,0:0:0:0:
512,0,90192,5,8,0:0:0:0:
0,0,90290,5,0,0:0:0:0:
512,0,90388,5,8,0:0:0:0:
0,0,90486,5,0,0:0:0:0:
512,0,90584,5,8,0:0:0:0:
0,384,90780,5,4,0:0:0:0:
0,384,91172,1,4,0:0:0:0:
512,384,91368,5,12,0:0:0:0:
512,384,91760,1,12,0:0:0:0:
0,0,91956,5,0,0:0:0:0:
512,0,92152,1,8,0:0:0:0:
0,0,92250,5,0,0:0:0:0:
512,0,92348,5,8,0:0:0:0:
0,0,92446,5,0,0:0:0:0:
0,0,92544,1,0,0:0:0:0:
512,0,92741,5,8,0:0:0:0:
0,0,92937,1,0,0:0:0:0:
0,0,93133,5,0,0:0:0:0:
512,0,93329,5,8,0:0:0:0:
0,0,93427,5,0,0:0:0:0:
512,0,93525,5,8,0:0:0:0:
0,0,93623,5,0,0:0:0:0:
512,0,93721,5,8,0:0:0:0:
512,384,93917,1,12,0:0:0:0:
512,384,94309,1,12,0:0:0:0:
0,384,94505,5,4,0:0:0:0:
512,384,94898,5,12,0:0:0:0:
0,0,95094,5,0,0:0:0:0:
512,0,95290,5,8,0:0:0:0:
0,384,95486,5,4,0:0:0:0:
0,0,95878,1,0,0:0:0:0:
512,384,96074,5,12,0:0:0:0:
0,0,96466,5,0,0:0:0:0:
512,384,96662,5,12,0:0:0:0:
0,0,97447,5,0,0:0:0:0:
512,0,97839,5,8,0:0:0:0:
0,0,98231,5,0,0:0:0:0:
512,0,98427,5,8,0:0:0:0:
0,0,98623,5,0,0:0:0:0:
0,0,98819,1,0,0:0:0:0:
512,0,99015,5,8,0:0:0:0:
0,0,99211,5,0,0:0:0:0:
512,0,99603,5,8,0:0:0:0:
0,0,99996,5,0,0:0:0:0:
0,0,100584,1,0,0:0:0:0:
512,0,100976,5,8,0:0:0:0:
0,0,101368,5,0,0:0:0:0:
0,0,101760,1,0,0:0:0:0:
512,0,103329,5,8,0:0:0:0:
0,0,104898,5,0,0:0:0:0:
512,0,105682,5,8,0:0:0:0:
0,0,106466,5,0,0:0:0:0:
0,0,106858,1,0,0:0:0:0:
512,0,107250,5,8,0:0:0:0:
0,0,108035,5,0,0:0:0:0:
512,0,108819,5,8,0:0:0:0:
0,0,109603,5,8,0:0:0:0:
0,0,109996,1,0,0:0:0:0:
512,0,110388,5,0,0:0:0:0:
512,0,110780,1,8,0:0:0:0:
0,0,111172,5,0,0:0:0:0:
512,0,112741,5,8,0:0:0:0:
0,384,114309,5,4,0:0:0:0:
