osu file format v9

[General]
AudioFilename: Seisen Spectale.mp3
AudioLeadIn: 0
PreviewTime: 67987
Countdown: 0
SampleSet: Soft
StackLeniency: 0.5
Mode: 0
LetterboxInBreaks: 0

[Editor]
Bookmarks: 7301,27791,107399,172301,197301,237791,256811
DistanceSpacing: 1
BeatDivisor: 8
GridSize: 4

[Metadata]
Title:Seisen Spectale
Artist:Ceui
Creator:Arusha Shuna
Version:Collab
Source:Valkyrie Complex
Tags:sallad4ever nivalis vanmonky collab

[Difficulty]
HPDrainRate:7
CircleSize:4
OverallDifficulty:8
ApproachRate:8
SliderMultiplier:2
SliderTickRate:2

[Events]
//Background and Video events
0,0,"valkyriecomplex.jpg"
//Break Periods
2,106618,111793
2,197598,202922
//Storyboard Layer 0 (Background)
Sprite,Background,Centre,"SB\White.jpg",320,240 C,0,1,,0,0,0 F,0,106418,107202,0,1 F,0,112300,,0 M,0,197595,,320,240 F,0,197595,198182,0,1 F,0,202889,,0
//Storyboard Layer 1 (Fail)
//Storyboard Layer 2 (Pass)
//Storyboard Layer 3 (Foreground)
Sprite,Foreground,Centre,"SB\asd.png",320,238 M,0,197595,,321,245 S,1,197595,,0.7696,0.5392001 R,0,197595,202889,0.1535999,-1.7664 F,0,197791,198182,0,1 F,0,202105,202497,1,0
Sprite,Foreground,Centre,"SB\White.jpg",320,240 F,0,202105,202889,0,1 F,0,203282,203674,1,0
Sprite,Foreground,Centre,"SB\Nivalis.png",320,240 F,0,197790,,0 F,0,197790,198182,0,1 M,0,197791,,320,244 S,0,197791,,0.8975998 F,0,202105,202497,1,0
Sprite,Foreground,Centre,"SB\AShuna.png",320,240 M,0,9164,,324,245 S,0,9164,,0.7567996 F,0,9164,9948,0,1 F,0,12301,12304,0,1 F,0,12304,13089,1,0
Sprite,Foreground,Centre,"SB\asd.png",320,240 M,0,106811,,321,245 S,1,106811,,0.7696,0.5392001 F,0,107202,107594,0,1 R,0,107202,111125,0.1791994,-1.7664 F,0,110733,111125,1,0
Sprite,Foreground,Centre,"SB\Sallad.png",320,240 M,0,106811,,323,248 S,0,106811,,0.8975998 F,0,107202,107594,0,1 F,0,110733,111125,1,0
Sprite,Foreground,Centre,"SB\White.jpg",320,240 F,0,110733,111125,0,1 F,0,112301,112693,1,0
//Storyboard Sound Samples
//Background Colour Transformations
3,100,163,162,255

[TimingPoints]
1320,392.156862745098,4,2,1,100,1,0
52889,-100,4,2,1,100,0,0
62007,-100,4,2,2,100,0,0
62203,-100,4,2,1,100,0,0
65242,-200,4,2,1,100,0,0
67202,-200,4,2,1,0,0,0
67595,-100,4,2,1,100,0,0
68772,-100,4,2,1,100,0,1
100144,-100,4,2,1,100,0,0
112693,-100,4,2,1,80,0,0
125144,-100,4,2,1,80,0,0
151908,-100,4,2,2,100,0,0
152693,-100,4,2,1,70,0,0
153478,-100,4,2,1,79,0,1
184458,-100,4,2,1,90,0,0
209948,-100,4,2,1,25,0,0
212497,-100,4,2,1,45,0,0
212791,-100,4,2,1,55,0,0
213184,-100,4,2,1,65,0,0
213574,-100,4,2,1,75,0,0
213967,-100,4,2,1,100,0,0
216125,-100,4,2,1,61,0,0
216321,-100,4,2,1,100,0,0
219262,-100,4,2,1,61,0,0
219556,-100,4,2,1,100,0,0
225046,-100,4,2,1,81,0,0
225340,-100,4,2,1,60,0,0
225536,-100,4,1,1,61,0,0
225733,-100,4,2,1,100,0,0
227203,-100,4,1,1,61,0,0
227301,-100,4,2,1,100,0,0
228674,-100,4,1,1,60,0,0
228870,-100,4,2,1,100,0,0
230046,-100,4,1,1,61,0,0
230242,-100,4,2,1,100,0,0
231811,-100,4,1,1,60,0,0
232007,-100,4,2,1,100,0,0
234948,-100,4,1,1,61,0,0
235144,-100,4,2,1,100,0,0
235536,-100,4,1,1,61,0,0
235733,-100,4,2,1,100,0,0
237595,-100,4,2,1,80,0,0
237889,-100,4,2,1,51,0,0
238086,-100,4,1,1,59,0,0
238184,-100,4,1,1,61,0,1
238282,-100,4,2,1,100,0,1
241223,-100,4,1,1,60,0,1
241419,-100,4,2,1,100,0,1
244360,-100,4,1,1,61,0,1
244556,-100,4,2,1,100,0,1
247497,-100,4,1,1,60,0,1
247693,-100,4,2,1,100,0,1
248086,-100,4,1,1,60,0,1
248282,-100,4,2,1,100,0,1
248674,-100,4,1,1,60,0,1
248870,-100,4,2,1,100,0,1
249262,-100,4,2,1,61,0,1
249458,-100,4,2,1,79,0,1
249556,-100,4,2,1,100,0,1
249654,-100,4,2,1,79,0,1
249752,-100,4,2,1,61,0,1
249850,-100,4,2,1,100,0,1
250144,-100,4,2,1,79,0,1
250438,-100,4,2,1,51,0,1
250635,-100,4,1,1,59,0,1
250831,-100,4,2,1,100,0,1
252203,-100,4,1,1,62,0,1
252399,-100,4,2,1,100,0,1
253772,-100,4,1,1,61,0,1
253968,-100,4,2,1,100,0,1
254360,-100,4,1,1,61,0,1
254556,-100,4,2,1,100,0,1
255242,-100,4,1,1,61,0,1
255536,-100,4,2,1,100,0,1
256125,-100,4,2,1,81,0,1
256419,-100,4,2,1,61,0,1
256713,-100,4,2,1,39,0,1
256958,-100,4,2,1,39,0,1
257007,-100,4,2,1,100,0,1
257301,-100,4,2,1,79,0,1
257693,-100,4,2,1,51,0,1
257889,-100,4,2,1,100,0,1
263282,-100,4,1,1,61,0,1
263478,-100,4,2,1,100,0,1
263870,-100,4,1,1,61,0,1
264066,-100,4,2,1,100,0,1
266321,-100,4,2,1,51,0,1
266517,-100,4,2,1,100,0,1
266909,-100,4,2,1,52,0,1
267203,-100,4,2,1,100,0,1
267791,-100,4,2,1,53,0,1
267987,-100,4,2,1,100,0,1
269556,-100,4,2,1,100,0,0
275731,-100,4,1,1,59,0,0
276520,-100,4,2,1,100,0,0
277595,-100,4,2,1,81,0,0
277987,-100,4,2,1,61,0,0
278380,-100,4,2,1,39,0,0
278772,-100,4,2,1,21,0,0
279360,-200,4,2,1,28,0,0
279948,-200,4,2,1,38,0,0
280340,-200,4,2,1,48,0,0
280927,-200,4,2,1,58,0,0
281319,-200,4,2,1,68,0,0
281712,-200,4,2,1,58,0,0
282104,-200,4,2,1,48,0,0

[Colours]
Combo1 : 105,153,241
Combo2 : 13,192,213
Combo3 : 18,94,235
SliderBorder : 255,255,74

[HitObjects]
256,192,12300,12,4,15437
168,104,15829,5,2
256,64,16025,2,0,B|336:72|352:160,1,100,0|2
272,192,16418,1,0
336,268,16614,2,0,B|336:320|256:320,1,100,2|0
168,280,17006,1,0
72,72,17398,5,2
80,64,17496,1,0
88,56,17594,1,0
96,48,17692,1,0
104,40,17790,1,2
112,48,17888,1,0
120,56,17986,1,0
128,64,18084,1,0
136,72,18182,1,2
144,64,18280,1,0
152,56,18378,1,0
160,48,18476,1,0
168,40,18574,6,0,B|296:48|288:176|224:200,1,200,4|0
177,144,19163,2,0,B|144:168|160:304|296:272,1,200,2|0
335,347,19751,1,2
406,276,19947,1,0
335,205,20143,6,0,B|344:128|264:112,1,100,0|0
279,124,20437,1,0
263,132,20535,1,2
253,143,20633,1,0
240,152,20731,1,0
225,147,20829,1,0
214,135,20927,1,2
204,124,21025,1,0
188,119,21123,1,0
170,120,21221,1,0
156,130,21320,2,2,B|132:186,4,50,2|0|2|0|4
256,304,22104,5,0
320,232,22300,2,0,B|360:168|312:112|312:112|336:24,1,200,2|0
181,43,22888,2,0,B|200:112|200:112|152:168|192:232,1,200,2|0
256,176,23476,1,0
184,248,23672,5,2
189,262,23770,1,0
199,272,23869,1,0
210,281,23967,1,0
223,287,24065,1,2
237,290,24163,1,0
251,291,24261,1,0
266,291,24359,1,0
280,288,24457,1,2
293,282,24555,1,0
304,273,24653,1,0
314,263,24751,1,0
319,249,24849,1,4
304,152,25045,5,0
208,152,25241,1,0
256,64,25437,1,2
256,264,25829,1,0
256,360,26025,5,0
168,312,26221,2,2,B|96:216|224:200|152:88,1,200
344,312,27006,2,2,B|416:216|288:200|360:88,1,200,2|0
256,72,27594,1,2
232,168,27790,5,0
184,256,27986,1,0
88,280,28182,1,0
160,352,28378,2,0,B|256:360|299:295|272:200,1,200
376,251,28967,2,0,B|367:166|316:119|218:152,1,200
144,120,29555,5,0
144,120,29653,1,2
144,120,29751,2,0,B|96:176|104:256|160:312,1,200,2|2
240,352,30339,1,0
240,256,30535,1,2
328,304,30731,1,0
328,208,30927,1,0
240,152,31123,6,0,B|312:80|432:80,1,200
496,144,31712,1,0
496,240,31908,1,0
421,303,32104,2,0,B|312:304|240:232,1,200
144,144,32692,5,0
56,192,32888,1,0
144,240,33084,1,0
232,192,33280,2,0,B|456:192,1,200,2|2
296,344,34065,5,0
216,288,34261,1,0
184,192,34457,1,0
216,96,34653,1,0
296,40,34849,1,0
304,240,35241,2,0,L|368:240|416:272|496:272,1,200,2|0
304,144,36025,2,0,L|368:144|416:112|496:112,1,200,2|0
144,72,36810,5,0
96,160,37006,1,0
144,248,37202,1,0
160,248,37300,1,0
176,248,37398,2,0,B|264:248|272:152|384:160,1,200,2|0
451,160,37986,1,2
248,144,38378,5,0
152,112,38574,1,0
80,184,38770,2,0,B|40:264|104:336|208:312,1,200
272,328,39359,1,0
356,264,39555,5,2
376,168,39751,1,0
336,72,39947,2,2,B|200:24|88:88|56:176,1,300,2|0
312,336,40927,5,8
240,272,41123,2,0,B|200:192|280:120|368:168,1,200
336,256,41712,2,0,B|160:112,1,200,8|0
64,224,42398,1,0
64,224,42496,1,8
96,320,42692,2,0,B|168:288|184:176|96:136,1,200
88,56,43280,6,0,B|200:56|256:208,1,200,8|0
280,256,43869,1,0
280,256,43967,1,0
280,256,44065,2,0,B|408:256,1,100,8|0
496,184,44457,2,0,B|376:184,1,100,2|0
336,104,44849,1,8
236,104,45045,1,0
72,296,45437,5,0
88,296,45535,1,0
104,296,45633,1,8
192,256,45829,1,0
248,176,46025,1,2
192,96,46221,1,0
136,176,46418,1,8
192,256,46614,1,0
280,296,46810,6,0,B|360:304|408:208|328:152,1,200,0|8
256,208,47398,2,0,B|187:161|235:65|315:73,1,200
339,162,47986,1,8
256,208,48182,1,0
232,296,48378,6,0,B|152:304|104:208|184:152,1,200,0|8
256,208,48967,2,0,B|324:161|276:65|196:73,1,200
173,162,49555,1,8
256,208,49751,1,0
256,304,49947,1,0
128,224,50241,5,0
128,224,50339,2,0,B|144:152|72:112,1,100,8|0
384,224,50927,5,0
384,224,51025,1,0
384,224,51123,2,0,B|368:152|440:112,1,100,8|0
256,296,51712,5,0
256,281,51810,1,0
256,266,51908,1,8
256,251,52006,1,0
256,236,52104,1,0
256,221,52202,1,0
256,206,52300,1,2
256,191,52398,1,0
256,176,52496,1,0
256,161,52594,1,0
256,146,52692,1,8
256,131,52790,1,0
256,116,52888,1,0
256,101,52986,1,0
256,86,53084,5,4
168,40,53280,1,0
88,96,53476,1,2
96,192,53672,2,0,B|152:296|280:248,1,200
288,152,54261,1,2
192,176,54457,2,0,B|144:288|264:360,2,200
197,165,55339,5,0
203,155,55437,1,2
168,56,55633,1,0
264,24,55829,1,2
304,120,56025,1,0
203,155,56221,6,0,B|-24:155,1,200,0|2
72,232,56810,2,0,B|72:344,2,100
72,136,57398,1,2
143,65,57594,1,0
152,64,57692,1,0
160,64,57790,1,0
256,96,57986,5,2
352,64,58182,1,2
440,112,58378,2,0,B|480:208|440:280|336:312|280:272,1,300,2|0
285,275,59359,5,4
191,238,59555,1,0
208,336,59751,1,0
285,275,59947,2,0,B|285:55,1,200
192,32,60535,1,0
104,72,60731,2,0,B|104:272,1,200,2|0
192,320,61319,1,0
192,224,61516,2,0,B|192:112,2,100
408,192,62300,5,0
349,274,62496,2,0,B|285:252|280:117|369:107,1,200
162,111,63084,2,0,B|224:128|227:252|163:274,1,200
104,192,63672,1,0
163,112,63869,1,0
256,56,64065,6,0,B|248:160|168:264,1,200,0|0
256,56,64653,2,0,B|264:160|344:264,1,200,0|0
256,192,65241,12,0,67202
256,48,67986,5,0
88,304,68280,1,0
424,304,68574,1,0
256,192,68770,6,0,B|136:160|168:40,1,200,4|8
344,41,69359,2,0,B|376:160|256:192,1,200
256,88,69947,2,0,B|256:336,1,200,8|0
64,232,70633,5,0
64,232,70731,2,0,B|96:216|96:160|48:144,1,100,8|0
128,80,71123,1,0
256,320,71418,1,0
384,80,71712,1,0
432,168,71908,6,0,B|384:288|256:328,1,200,0|8
296,208,72496,2,0,B|208:280|88:280,1,200
40,208,73084,1,8
40,112,73280,2,0,B|120:40|232:96,1,200
232,96,73770,5,0
240,104,73869,1,8
246,112,73967,1,0
250,121,74065,1,0
249,131,74163,1,0
246,141,74261,1,2
242,150,74359,1,0
240,160,74457,1,0
240,170,74555,1,0
242,180,74653,5,8
344,352,75045,2,0,B|448:304|424:160|392:168,1,200,4|8
368,64,75633,2,0,B|288:136|336:256,1,200
256,312,76221,1,8
160,320,76418,1,0
88,248,76614,2,0,B|64:160|168:80|224:120,1,200,0|8
296,120,77202,1,0
392,160,77398,6,0,B|296:256,1,100
120,160,77790,2,0,B|216:256,1,100,8|0
256,32,78182,2,0,B|256:256,1,200,0|8
176,288,78770,1,0
256,344,78967,1,0
336,288,79163,1,0
256,232,79359,2,0,B|256:32,1,200,8|0
256,32,80045,1,0
256,32,80143,1,8
205,118,80339,5,0
309,118,80535,1,0
168,40,80829,1,0
344,40,81123,1,0
256,144,81320,6,0,B|256:320,1,150,4|0
256,294,81712,1,8
352,248,81908,2,0,B|256:192|160:248,1,200
80,304,82496,1,8
432,304,82888,1,0
256,48,83182,1,0
256,48,83280,1,8
192,128,83476,6,0,B|184:192|96:200,1,100
320,128,83869,2,0,B|328:192|416:200,1,100,0|8
256,328,84261,1,0
176,272,84457,2,0,B|215:200|312:200|352:298,1,200,0|8
440,272,85045,2,0,B|400:168|288:136,1,200
72,272,85829,2,0,B|112:168|224:136,1,200,0|2
368,72,86418,6,0,B|468:72,2,100,2|0|2
144,72,87006,2,0,B|44:72,2,100,0|2|0
256,240,87594,6,0,B|208:272|120:232,1,100,4|0
256,240,87986,2,0,B|304:272|392:232,1,100
256,240,88378,2,0,B|256:24,1,200,0|2
256,40,88967,1,0
168,80,89163,6,0,B|48:80,1,100,2|0
344,136,89555,2,0,B|464:136,1,100,0|2
168,208,89947,2,0,B|48:208,1,100,0|2
344,264,90339,2,0,B|464:264,1,100,0|2
256,344,90731,5,2
256,344,91123,1,0
256,344,91516,1,0
192,264,91712,5,0
168,168,91908,1,2
208,80,92104,1,0
304,56,92300,2,0,B|432:96|424:208,1,200,2|0
328,176,92888,2,0,B|360:304|232:356,1,200,2|0
159,311,93476,5,0
151,303,93574,1,0
143,295,93672,1,0
135,287,93770,1,0
127,278,93869,6,0,B|79:158|167:70,1,200,2|0
360,89,94457,2,0,B|427:171|383:278,1,200,2|0
207,258,95045,2,2,B|111:190|255:-54|399:190|303:258,1,400
256,193,96221,1,0
256,193,96614,1,0
136,48,97006,5,4
232,72,97202,1,0
288,152,97398,1,0
264,248,97594,2,0,B|184:336|72:280,2,200,2|0|2
416,120,98967,5,0
256,240,99359,1,0
96,120,99751,1,0
256,240,100143,6,0,B|232:136|128:72,1,200,4|0
128,184,100731,2,0,B|80:248,2,50,0|0|0
168,272,101123,1,0
112,352,101320,1,2
256,240,101712,6,0,B|280:136|384:72,1,200
384,184,102300,2,0,B|432:248,2,50
344,272,102692,1,0
400,352,102888,1,2
256,192,103280,12,4,106418
256,192,112692,21,4
200,272,112888,1,0
312,272,113084,1,0
328,176,113280,2,0,B|312:112|256:108|200:112|184:176,2,200,2|0|0
312,272,114261,1,0
200,272,114457,6,0,B|192:344|255:353|320:344|312:272,1,200,2|0
256,192,115045,1,0
256,96,115241,1,2
168,48,115437,2,0,B|216:8,2,50,0|0|2
96,120,115829,2,0,B|40:152|32:216,2,100,4|0|0
160,192,116418,2,0,B|208:232|256:192|304:152|352:192,1,200,2|0
348,189,117006,1,0
416,264,117202,6,2,B|480:304,2,50,0|2|0
344,336,117594,1,2
144,336,117986,2,0,B|88:320|40:344,1,100,2|0
144,336,118378,2,0,B|200:352|248:328,2,100,2|0|0
168,240,118967,5,4
256,192,119163,1,0
344,240,119359,1,0
328,136,119555,2,0,B|312:72|256:68|200:72|184:136,2,200,2|0|0
344,240,120535,5,0
344,240,120731,1,2
184,360,121123,1,0
256,296,121320,1,2
184,360,121516,1,0
112,296,121712,1,2
32,240,121908,1,0
68,159,122104,6,0,B|116:199|164:159|212:119|260:159,1,200,4|0
257,156,122692,2,0,B|305:196|353:156|401:116|449:156,1,200,2|0
446,153,123280,1,0
488,240,123476,2,0,B|424:256|400:232|400:232|352:264|288:256,1,200,2|0
297,256,124065,1,0
344,344,124261,2,0,B|256:360|216:328|200:280|208:248,1,200,2|0
208,248,124849,1,2
256,160,125045,1,0
256,64,125241,6,0,B|196:47|148:82,2,100,4|0|8
344,120,125829,2,0,B|384:168|344:216|304:264|344:312,1,200,0|0
342,308,126418,1,8
256,368,126614,2,0,B|168:368|168:288|56:288,1,200
77,289,127202,1,8
48,192,127398,2,0,B|0:160,2,50,0|0|2
112,120,127790,5,0
184,192,127986,1,8
256,120,128182,1,2
328,192,128378,2,0,B|369:255|425:276,1,100,4|0
398,262,128770,1,8
464,192,128967,2,0,B|423:129|367:108,1,100,4|0
394,122,129359,1,0
328,48,129555,1,8
328,48,129751,1,0
256,216,130143,6,0,B|256:280,2,50,0|0|8
256,120,130535,1,0
184,48,130731,1,8
120,120,130927,1,0
48,192,131123,1,8
48,192,131320,1,2
64,288,131516,22,0,B|160:337|256:288,1,200,4|8
256,288,132104,2,0,B|352:337|448:288,1,200,0|0
448,288,132692,1,8
488,192,132888,1,2
448,96,133084,6,0,B|352:47|256:96,1,200,4|8
256,96,133672,2,0,B|160:47|64:96,1,200
65,95,134261,1,8
32,192,134457,2,0,B|16:256,2,50,0|0|2
32,192,134849,1,0
128,208,135045,1,8
80,296,135241,1,4
80,296,135633,5,0
128,208,135829,1,8
160,304,136025,2,0,B|256:353|352:304,1,200,4|2
384,208,136614,1,8
432,296,136810,1,2
480,208,137006,1,8
432,120,137202,1,2
336,112,137398,2,8,B|336:40,4,50,8|0|0|0|4
256,168,137986,5,0
176,112,138182,1,2
176,112,138378,2,0,B|112:120|88:176,1,100,4|0
80,264,138770,1,0
80,264,138967,1,2
80,264,139163,2,0,B|128:304|176:264|224:224|272:264,1,200,4|0
336,336,139751,1,0
400,264,139947,6,0,B|472:288,2,50,0|0|2
352,176,140339,1,0
264,128,140535,2,0,B|208:128|176:80,1,100,2|0
128,168,140927,2,0,B|96:112|32:120,2,100,2|0|0
53,234,141516,2,0,B|101:322|229:298,1,200
317,266,142104,1,2
246,190,142300,2,0,B|296:152|365:158|398:189|411:231,1,200,4|0
389,341,142888,2,0,B|340:378|271:372|238:341|225:299,1,200,4|0
124,288,143476,1,2
120,192,143672,2,0,B|48:192,2,50,2|2|2
200,128,144065,5,4
120,64,144261,1,0
200,128,144457,1,0
280,64,144653,2,0,B|392:40|480:88,1,200,2|2
475,85,145241,1,0
512,184,145437,2,0,B|464:224|416:184|368:144|320:184,1,200,2|0
368,272,146025,2,0,B|336:314|257:299,1,100,2|0
202,235,146418,2,0,B|234:193|313:208,1,100,2|0
277,302,146810,2,0,B|245:344|166:329,1,100,2|0
103,278,147202,6,0,B|54:182|103:86,1,200,4|2
180,28,147790,2,0,B|228:-12|276:28|324:68|372:28,2,200,0|2|0
252,108,148770,2,0,B|308:140|364:116,2,100,2|0|0
260,276,149359,2,0,B|204:244|148:268,2,100,2|0|0
256,192,149947,12,10,151908
256,80,152692,5,2
256,304,152986,1,2
256,80,153280,1,2
160,192,153476,2,0,B|112:216|48:184,2,100,4|0|8
256,192,154065,2,0,B|304:152|352:192|400:232|448:192,1,200,0|0
444,194,154653,1,8
504,120,154849,1,2
408,88,155045,2,0,B|360:64|288:72,1,100,4|0
408,296,155437,2,0,B|360:320|288:312,1,100,8|0
256,240,155829,6,0,B|280:192|256:144,1,100
168,192,156221,1,8
88,256,156418,1,0
160,336,156614,2,0,B|256:385|352:336,1,200,4|8
256,288,157202,2,0,B|216:240|256:192|296:144|256:96,1,200,2|2
258,99,157790,1,8
352,200,157986,2,0,B|304:240|256:200|208:160|160:200,1,200,4|0
104,272,158574,2,0,B|128:320|192:336,1,100,8|0
408,112,158967,2,0,B|384:64|320:48,1,100,2|0
220,160,159359,2,0,B|300:232,1,100,8|0
404,292,159751,6,0,B|452:268|500:292,2,100,4|2|8
308,324,160339,2,0,B|204:364|84:324,1,200
92,236,160927,2,0,B|35:248|15:310,1,100,8|2
172,212,161320,2,0,B|268:180|316:60,1,200,4|8
209,76,161908,2,0,B|251:178|346:212,1,200,0|0
346,212,162496,1,8
416,144,162692,1,2
472,224,162888,6,0,B|472:288|408:320,2,100,4|0|8
416,144,163476,2,0,B|374:96|321:128|267:160|226:113,1,200,4|2
168,40,164065,2,0,B|112:16|64:40,1,100,8|2
112,144,164457,1,0
56,232,164653,2,0,B|16:296,2,50,0|0|8
160,232,165045,5,2
112,144,165241,1,2
256,344,165535,1,2
400,144,165829,1,2
256,240,166025,6,0,B|256:128,2,100,4|0|8
176,290,166614,2,0,B|192:354|320:354|336:290,1,200
335,290,167202,1,8
368,200,167398,1,2
376,104,167594,2,0,B|376:48|336:8,1,100
136,104,167986,2,0,B|136:48|176:8,1,100,8|0
208,168,168378,6,0,B|256:192|304:168,2,100,2|0|8
160,256,168967,1,2
160,256,169163,2,0,B|256:305|352:256,1,200,4|8
424,320,169751,2,0,B|320:360,1,100,2|0
88,320,170143,2,0,B|192:360,1,100,2|8
256,280,170535,2,0,B|256:176,1,100,2|0
256,88,170927,1,2
328,32,171123,2,0,B|380:124|319:196|256:197|193:196|132:124|184:32,1,400,8|8
184,32,172104,1,0
184,32,172300,1,4
104,216,172692,6,0,B|120:272|181:278,1,100,2|0
408,216,173084,2,0,B|392:272|331:278,1,100,0|0
256,224,173476,1,2
256,128,173672,1,0
344,88,173869,2,0,B|312:37|200:37|168:88,1,200,4|0
120,176,174457,1,2
160,264,174653,1,0
256,232,174849,1,0
352,264,175045,1,2
392,176,175241,1,0
344,88,175437,6,0,B|232:88,1,100,4|0
352,264,175829,2,0,B|464:264,1,100,2|0
392,176,176221,2,0,B|280:176,1,100
400,352,176614,6,0,B|504:352,1,100,2|0
352,264,177006,2,0,B|304:224|256:264|208:304|160:264,1,200,4|2
90,335,177594,2,0,B|37:277|55:195|135:167,1,200
208,120,178182,1,2
304,120,178378,1,0
422,335,178574,6,0,B|475:277|457:195|377:167,1,200,4|0
352,264,179163,2,0,B|304:224|256:264|208:304|160:264,1,200,4|2
176,160,179751,2,0,B|128:80|176:-26|336:-26|384:80|336:160,1,400,4|2
336,160,180927,1,0
256,344,181319,5,2
208,256,181516,1,0
304,256,181712,1,2
176,160,181908,1,0
336,160,182104,1,2
128,72,182300,1,2
384,72,182692,1,2
128,72,183084,1,0
256,344,183672,5,4
256,344,184065,1,0
256,344,184457,1,0
384,192,184849,5,0
384,192,185045,2,0,B|352:144|272:128,1,100,0|2
208,104,185437,2,0,B|184:40,2,50,0|0|0
120,144,185829,2,0,B|80:192|104:256,1,100,2|0
168,312,186221,1,0
168,312,186418,2,0,B|208:264|184:208,1,100,2|0
120,144,186810,1,0
208,104,187006,2,0,B|256:64|304:104|352:144|400:104,1,200,2|2
352,16,187594,1,0
448,32,187790,1,2
488,120,187986,1,4
432,200,188182,6,0,B|480:232,2,50,0|0|2
396,108,188574,2,0,B|334:116|331:179|329:241|267:250,1,200,2|0
256,152,189163,2,0,B|194:160|191:223|189:285|127:294,1,200,2|0
131,293,189751,1,2
48,240,189947,6,0,B|24:192|48:144,1,100,2|0
463,143,190339,2,0,B|488:192|464:240,1,100,2|0
256,252,190731,2,0,B|256:140,1,100,2|0
256,48,191123,5,4
160,48,191319,1,0
96,120,191516,1,2
136,208,191712,2,0,B|100:252|40:240,1,100,2|0
64,336,192104,1,0
64,336,192300,1,2
64,336,192496,2,0,B|168:384|264:320,1,200,0|0
256,224,193084,1,2
255,326,193280,6,0,B|346:381|449:336,1,200,0|0
472,240,193869,2,0,B|512:192,2,50,2|0|0
376,224,194261,2,0,B|344:120,1,100,4|0
346,128,194653,1,2
280,200,194849,2,0,B|248:96,1,100,4|0
250,104,195241,1,0
176,176,195437,1,2
176,176,195633,1,0
256,192,195731,12,0,197398
256,192,203672,6,0,B|360:248|456:184,1,200,0|2
424,288,204260,2,0,B|480:184|416:88,2,200,0|2|0
344,344,205240,1,0
248,344,205436,2,0,B|240:240|344:264|336:160,1,200,2|0
336,72,206025,2,2,B|320:40|296:32,2,50
432,72,206417,6,0,B|482:134|408:230|313:161,1,200,0|0
256,240,207005,1,0
80,72,207201,2,0,B|30:134|104:230|199:161,1,200,2|0
168,72,207789,2,0,B|256:8|256:152|360:72,1,200,2|0
432,32,208378,2,0,B|504:176|336:176|464:336,1,300,2|2
448,314,209554,1,0
256,192,209946,12,2,212299
44,316,212593,5,2
192,288,212887,1,2
272,348,213084,2,0,B|385:398|439:285,1,200
412,192,213672,1,4
256,68,214065,2,0,B|256:168,1,100,0|4
256,168,214456,5,0
200,8,214652,1,2
340,104,214848,1,0
172,104,215044,1,0
312,8,215240,1,0
256,168,215437,5,2
0,312,215731,1,2
512,312,216025,1,0
448,232,216221,6,2,B|390:276|422:355,1,100,4|0
320,288,216613,2,0,B|324:348|260:388|192:348|196:284,2,200,2|0|2
256,212,217593,1,0
256,12,217985,1,0
256,12,218182,1,0
336,72,218378,6,0,B|332:128|372:184|372:184,1,100,2|0
392,260,218770,2,0,B|365:315|299:310|299:310,1,100,0|2
212,312,219162,1,0
128,368,219359,2,0,B|20:332|28:200,1,200
32,112,219946,1,2
320,192,220534,5,0
320,192,220927,1,0
192,192,221711,5,0
192,192,222103,1,0
256,192,222495,12,0,224652
256,56,224848,5,2
88,304,225142,1,2
424,304,225436,1,2
384,208,225633,6,0,B|368:256|320:312,1,100,4|0
288,208,226025,2,0,B|248:240|180:266,1,100,2|0
208,152,226417,2,0,B|152:160|85:148,1,100,0|0
160,64,226809,2,0,B|104:40|56:0,2,100,2|0|4
256,80,227397,5,0
352,56,227593,1,2
312,152,227789,1,0
408,152,227985,1,0
352,240,228182,1,0
448,272,228378,1,2
368,336,228574,1,0
456,384,228770,1,4
256,224,229162,5,2
256,224,229358,1,0
56,384,229750,1,0
56,384,230142,1,4
256,32,230534,1,0
256,136,230731,2,0,B|152:143|129:228|145:348|242:347|320:336|349:292|345:213|345:213,1,400,0|0
360,152,231711,1,2
344,56,231907,2,0,B|409:50|434:89|473:111|448:204,1,200,4|2
404,272,232496,6,0,B|364:308|300:312,1,100
220,344,232888,2,0,B|184:304|180:240,1,100,0|2
148,160,233280,2,0,B|188:124|252:120,1,100
328,80,233672,2,0,B|364:120|368:184,1,100,0|2
280,220,234065,1,0
280,220,234261,1,0
280,220,234457,1,0
112,328,234848,5,0
40,260,235044,2,0,B|-16:116|-16:276|56:100|48:92,1,150,4|0
52,80,235436,1,8
124,148,235633,2,0,B|192:308,1,175,4|0
256,192,236221,12,2,237397
256,344,237691,5,2
256,344,237985,1,2
256,240,238182,2,0,B|248:184|268:96|256:24,1,200,4|2
176,96,238770,2,0,B|208:146|259:176|320:142|344:71,1,200,0|0
408,160,239358,5,2
256,240,239554,1,0
104,160,239750,1,0
256,32,240142,1,2
208,367,240534,6,0,B|214:298|308:301|300:377,2,150
136,296,241319,2,0,B|136:232|136:232|175:203|205:143|135:87,1,200,4|2
376,296,241907,2,0,B|376:232|376:232|337:203|307:143|377:87,1,200,0|0
256,72,242495,1,2
256,168,242691,2,0,B|240:184|240:184|272:216|272:216|240:240|240:240|272:264|272:264|240:288|240:288|272:312|272:312|240:336|240:336|261:373,1,300,0|2
141,347,243476,5,0
100,223,243672,1,0
58,347,243868,1,0
162,275,244064,1,2
37,275,244260,1,0
32,176,244456,6,0,B|160:112|72:0|72:0,1,200,4|2
0,72,245044,2,0,B|120:136|224:48,1,200,0|0
256,144,245633,1,2
256,144,245829,1,0
512,72,246025,2,0,B|392:136|288:48,1,200,0|2
328,176,246613,5,0
256,248,246809,1,0
184,176,247005,1,0
120,256,247201,1,2
160,344,247397,1,0
256,376,247593,1,4
352,344,247789,1,0
392,256,247985,1,2
328,176,248182,6,0,B|316:120|256:96|192:124|184:176,1,200,4|0
256,248,248770,2,0,B|264:204|248:88|256:24,1,200,4|0
160,64,249358,2,10,B|120:32,4,50,2|2|2|2|2
80,120,249946,5,2
32,264,250240,1,2
160,336,250534,1,2
160,336,250731,6,0,B|242:267|260:378|347:292,1,200,4|2
160,48,251319,2,0,B|242:116|260:5|347:91,1,200
256,144,251907,1,2
344,192,252103,1,0
256,240,252299,1,4
168,288,252495,5,0
256,336,252691,1,2
344,288,252887,1,0
256,240,253084,5,0
168,192,253280,1,0
72,192,253476,1,2
72,192,253672,1,0
168,192,253868,2,0,B|256:116|256:263|345:190,1,200,4|0
392,104,254456,2,0,B|474:192|384:296,2,200,4|0|4
256,256,255633,1,0
256,160,255829,6,2,B|264:136|288:116,3,50
332,140,256221,2,2,B|350:123|381:117,3,50
404,164,256614,2,2,B|428:158|458:169,3,50
472,216,257005,1,8
352,376,257397,1,8
160,320,257789,1,8
160,320,257985,2,0,B|160:280|200:280|200:280|200:224,1,100
352,320,258378,2,0,B|352:280|312:280|312:280|312:224,1,100,0|2
256,48,258966,5,0
185,118,259162,1,2
368,192,259554,1,0
256,336,259946,1,0
192,272,260142,6,0,B|156:308|156:308|88:344,1,100,0|0
336,256,260535,2,0,B|372:292|372:292|408:360,1,100,2|2
320,112,260927,2,0,B|356:76|356:76|424:40,1,100,0|0
176,128,261319,2,0,B|140:92|140:92|104:24,1,100,2|2
72,140,261711,2,0,B|16:284|176:284|176:284,1,200
232,344,262299,2,0,B|336:344,2,100
240,248,262887,5,2
328,192,263084,2,0,B|368:144|448:160,1,100,0|4
216,152,263672,2,0,B|168:104|184:24,1,100,0|4
240,248,264260,1,0
256,192,264456,12,0,265633
256,80,266025,5,0
168,264,266417,1,4
208,352,266613,1,0
304,352,266809,1,0
344,264,267006,1,4
456,96,267397,2,0,B|512:192|392:192|480:320,1,200,0|4
256,192,268378,5,0
56,96,268770,2,2,B|0:192|120:192|32:320,1,200
248,320,269554,5,2
408,200,269946,1,0
264,64,270338,1,2
104,184,270731,1,0
176,368,271123,6,0,B|192:320|176:256,1,100,2|0
256,208,271515,2,0,B|256:320,1,100
336,368,271907,2,0,B|320:320|336:256,2,100,2|0|0
424,88,272691,5,2
296,240,273084,1,0
168,88,273476,1,2
40,240,273868,1,0
168,88,274260,6,0,B|64:40,1,100,2|0
208,176,274652,2,0,B|136:272,1,100
304,176,275044,2,0,B|368:264,1,100,2|0
344,88,275436,2,4,B|448:40,2,100,0|0|4
256,336,276613,5,2
136,72,277397,1,2
104,269,277789,1,2
282,359,278182,1,2
423,218,278574,1,2
333,40,278966,1,2
136,72,279750,5,2
232,72,280142,1,2
272,160,280534,2,0,B|304:184|304:240|240:280|188:208|188:208|129:280|82:248|36:198|96:136,1,400,2|8
