osu file format v12

[General]
AudioFilename: Ceui - Last Inferno (TV Size).mp3
AudioLeadIn: 0
PreviewTime: 54966
Countdown: 0
SampleSet: Normal
StackLeniency: 0.4
Mode: 0
LetterboxInBreaks: 0
EpilepsyWarning: 1
WidescreenStoryboard: 1

[Editor]
DistanceSpacing: 1.2
BeatDivisor: 4
GridSize: 32
TimelineZoom: 1.3

[Metadata]
Title:Last Inferno (TV Size)
TitleUnicode:Last Inferno (TV Size)
Artist:Ceui
ArtistUnicode:Ceui
Creator:Chloe
Version:Last Inferno
Source:伝説の勇者の伝説
Tags:The Legend of the Legendary Heroes Densetsu no Yuusha no Densetsu Awaken liangv587 lkx_Shore The_Epic_Backstabber Sun Rainbow
BeatmapID:307607
BeatmapSetID:119887

[Difficulty]
HPDrainRate:7
CircleSize:4
OverallDifficulty:7
ApproachRate:8
SliderMultiplier:1.6
SliderTickRate:1

[Events]
//Background and Video events
0,0,"BG.jpg",0,0
//Break Periods
//Storyboard Layer 0 (Background)
//Storyboard Layer 1 (Fail)
//Storyboard Layer 2 (Pass)
//Storyboard Layer 3 (Foreground)
//Storyboard Sound Samples
//Background Colour Transformations
3,100,163,162,255

[TimingPoints]
14959,357.142857142857,4,1,1,55,1,0
17816,-100,4,1,1,45,0,0
17905,-100,4,1,1,55,0,0
19244,-100,4,1,1,45,0,0
19334,-100,4,1,1,55,0,0
20673,-100,4,1,1,45,0,0
20762,-100,4,1,1,55,0,0
22280,-100,4,2,1,40,0,0
23530,-200,4,2,1,20,0,0
32816,-200,4,2,1,30,0,0
33173,-200,4,2,1,25,0,0
33530,-200,4,2,1,20,0,0
33887,-200,4,2,1,15,0,0
34244,-200,4,2,0,20,0,0
34601,-100,4,2,1,30,0,0
34958,-100,4,2,1,30,0,0
44244,-100,4,1,1,30,0,0
44958,-100,4,1,1,20,0,0
45673,-100,4,1,1,10,0,0
45851,-100,4,1,1,45,0,0
46387,-100,4,1,1,55,0,0
53530,-100,4,1,1,80,0,0
53768,-100,4,1,1,65,0,0
54244,-100,4,1,1,55,0,0
54333,-100,4,1,1,35,0,0
54423,-100,4,1,1,25,0,0
54512,-100,4,1,1,20,0,0
54601,-100,4,1,1,15,0,0
54958,-100,4,1,1,60,0,1
65673,-100,4,1,1,50,0,0
65851,-100,4,1,1,40,0,0
66030,-100,4,1,1,30,0,0
66387,-100,4,1,1,60,0,1
73530,-100,4,1,2,50,0,0
73798,-100,4,1,2,45,0,0
74066,-100,4,1,2,40,0,0
74333,-100,4,2,1,50,0,0
74869,-100,4,3,1,35,0,0
74958,-100,4,1,1,60,0,1
76298,-100,4,3,1,35,0,1
76387,-100,4,1,1,60,0,1
81030,-100,4,1,1,30,0,1
81208,-100,4,1,1,20,0,1
81387,-100,4,1,1,10,0,1
81744,-100,4,1,1,60,0,1
84958,-100,4,1,1,60,0,0
84958,-100,4,1,1,45,0,0
85137,-100,4,1,1,60,0,0
85226,-100,4,2,1,25,0,0
85851,-100,4,2,1,35,0,0
86030,-100,4,1,1,50,0,0
87101,-100,4,1,1,30,0,0
87816,-100,4,1,1,20,0,0
88530,-100,4,1,1,10,0,0
89244,-100,4,2,1,5,0,0

[Colours]
Combo1 : 27,230,245
Combo2 : 158,194,243
Combo3 : 237,221,143
Combo4 : 254,180,222

[HitObjects]
258,295,14959,5,0,0:0:0:0:
437,232,15137,1,0,0:0:0:0:
353,278,15316,5,8,0:0:0:0:
437,232,15494,1,0,0:0:0:0:
495,156,15673,2,0,P|492:116|482:77,1,80,0|0,0:0|0:0,0:0:0:0:
299,177,16030,2,0,P|289:215|286:255,1,80,8|0,0:0|0:0,0:0:0:0:
314,347,16387,5,0,0:0:0:0:
156,236,16566,1,0,0:0:0:0:
206,154,16744,2,0,P|216:116|219:76,1,80,8|0,0:0|0:0,0:0:0:0:
63,255,17101,2,0,P|70:294|89:329,1,80
178,366,17459,1,8,0:0:0:0:
86,161,17637,1,0,0:0:0:0:
175,197,17816,6,0,P|249:211|347:191,1,160,4|8,0:0|0:0,0:0:0:0:
420,161,18351,1,0,0:0:0:0:
420,161,18530,1,4,0:0:0:0:
231,116,18887,1,8,0:0:0:0:
175,197,19066,1,0,0:0:0:0:
205,23,19244,6,0,P|303:10|385:26,1,160,4|8,0:0|0:0,0:0:0:0:
446,66,19780,1,0,0:0:0:0:
332,201,19959,5,2,0:2:0:0:
320,217,20048,1,0,0:0:0:0:
312,235,20137,1,0,0:2:0:0:
307,254,20226,1,0,0:0:0:0:
307,274,20316,1,2,0:2:0:0:
310,293,20405,1,0,0:0:0:0:
317,311,20494,1,0,0:0:0:0:
402,266,20673,5,4,0:0:0:0:
278,137,20851,1,0,0:0:0:0:
123,229,21030,2,0,P|177:230|223:197,1,80,8|0,0:0|0:0,0:0:0:0:
150,137,21387,5,0,0:0:0:0:
317,311,21566,1,0,0:0:0:0:
150,137,21744,1,8,0:0:0:0:
150,137,22101,6,0,L|248:137,1,80,0|2,0:0|0:0,0:0:0:0:
254,137,22369,1,0,0:0:0:0:
278,137,22459,1,0,0:0:0:0:
422,137,22637,2,2,P|363:192|353:286,1,160,0|2,1:2|0:0,0:0:0:0:
439,300,23173,1,2,0:0:0:0:
439,300,23351,1,0,0:0:0:0:
439,300,23530,5,2,0:1:0:0:
256,88,24780,5,2,0:0:0:0:
256,88,24959,2,0,L|222:128,2,40,0|0|0,0:0|0:0|0:0,0:0:0:0:
13,146,25851,5,2,0:0:0:0:
66,233,26030,1,0,0:0:0:0:
66,233,26209,1,0,0:0:0:0:
66,233,26387,2,0,P|104:224|142:236,1,80,2|0,0:0|0:0,0:0:0:0:
260,308,26923,2,0,P|222:317|184:306,1,80,2|0,0:0|0:0,0:0:0:0:
224,236,27459,2,0,B|272:220|308:244|308:244|336:224,2,120,2|0|0,0:0|0:0|0:0,0:0:0:0:
144,87,28887,5,0,2:0:0:0:
183,158,29066,1,0,0:0:0:0:
261,139,29244,1,2,0:1:0:0:
261,139,30316,2,0,L|312:122,1,40,2|0,0:0|0:0,0:0:0:0:
418,22,31208,5,0,0:0:0:0:
366,82,31387,2,0,P|392:111|426:133,1,80,2|2,0:0|0:0,0:0:0:0:
420,213,31923,2,0,P|388:249|372:285,1,80,2|0,0:0|0:0,0:0:0:0:
437,326,32458,1,2,0:0:0:0:
256,192,32637,12,0,34244,0:0:0:0:
315,195,34601,5,4,0:1:0:0:
425,155,34780,1,0,0:0:0:0:
388,226,34958,2,0,P|384:265|398:302,1,80,2|0,0:1|0:0,0:0:0:0:
425,155,35316,2,0,B|378:151|359:124|359:124|323:107|277:124,1,160,2|0,0:0|0:0,0:0:0:0:
201,148,35851,1,2,0:0:0:0:
201,148,36208,5,2,0:0:0:0:
139,200,36387,2,0,B|157:215|157:215|138:254|138:254|120:294|138:345,1,160,0|0,0:0|0:0,0:0:0:0:
205,301,36923,1,2,0:0:0:0:
255,363,37101,1,0,0:0:0:0:
305,300,37280,2,0,P|341:271|391:264,2,80,2|2|0,0:0|0:0|0:0,0:0:0:0:
377,343,37816,6,0,P|394:272|360:164,1,160,2|0,0:0|0:0,0:0:0:0:
321,129,38351,1,0,0:0:0:0:
248,162,38530,1,2,0:0:0:0:
302,220,38708,1,0,0:0:0:0:
375,98,38887,6,0,B|325:99|290:126|290:126|279:93|240:81,1,160,2|0,0:0|0:0,0:0:0:0:
148,186,39423,2,0,P|187:179|219:156,1,80,2|0,0:0|0:0,0:0:0:0:
159,107,39779,1,0,0:0:0:0:
166,27,39958,2,0,P|126:34|94:57,1,80,2|0,0:0|0:0,0:0:0:0:
159,107,40316,5,2,0:0:0:0:
219,156,40494,1,0,0:0:0:0:
294,129,40673,2,0,P|372:118|450:136,1,160,2|0,2:1|0:0,0:0:0:0:
265,305,41208,1,0,0:0:0:0:
265,305,41387,6,0,P|169:315|95:292,1,160,2|0,0:0|0:0,0:0:0:0:
74,208,41923,2,0,P|129:205|172:222,1,80,2|0,0:0|0:0,0:0:0:0:
240,173,42280,2,0,P|217:142|183:121,1,80,2|0,0:0|0:0,0:0:0:0:
281,261,42637,5,0,0:0:0:0:
373,276,42816,2,0,P|417:243|437:195,1,80,2|0,0:0|0:0,0:0:0:0:
353,194,43173,1,2,0:0:0:0:
353,194,43351,2,0,B|435:194|435:194|472:205|532:196,1,160,2|0,0:0|0:0,0:0:0:0:
373,276,43887,5,2,0:0:0:0:
256,192,43976,12,2,45673,3:0:0:0:
270,218,45851,5,2,0:3:0:0:
256,192,46030,1,0,0:0:0:0:
245,165,46208,1,2,3:0:0:0:
234,139,46387,2,0,B|273:155|309:144|309:144|345:133|391:151,1,160,4|8,0:0|0:0,0:0:0:0:
435,237,46923,1,0,0:0:0:0:
312,305,47101,2,0,P|317:266|339:233,1,80,0|0,0:3|0:0,0:0:0:0:
435,237,47458,5,8,0:0:0:0:
312,305,47637,1,0,0:0:0:0:
186,241,47816,1,2,0:2:0:0:
186,241,48173,5,8,0:0:0:0:
186,241,48351,2,0,B|195:201|195:201|181:161,1,80,2|0,0:2|0:0,0:0:0:0:
106,292,48708,2,0,P|134:320|171:335,1,80,2|8,0:2|0:0,0:0:0:0:
186,241,49066,1,0,0:0:0:0:
186,241,49155,1,0,0:0:0:0:
186,241,49244,5,0,0:0:0:0:
267,333,49423,1,0,0:0:0:0:
342,273,49601,2,0,B|389:298|433:275|433:275|502:283,1,160,8|0,0:0|0:0,0:0:0:0:
412,85,50137,5,0,0:0:0:0:
418,92,50226,1,0,0:0:0:0:
424,99,50316,2,0,L|503:108,1,80,8|0,0:0|0:0,0:0:0:0:
389,189,50673,2,0,P|331:128|350:37,1,160,0|8,0:0|0:0,0:0:0:0:
389,189,51208,2,0,L|309:189,1,80
155,174,51566,2,0,P|181:203|218:218,1,80,0|8,0:0|0:0,0:0:0:0:
234,123,51923,1,0,0:0:0:0:
281,40,52101,6,0,P|358:23|436:39,1,160,4|0,0:0|0:0,0:0:0:0:
402,212,52637,2,0,L|331:174,1,80,2|0,0:2|0:0,0:0:0:0:
456,133,52994,2,0,P|414:198|422:276,1,160,2|0,0:2|0:0,0:0:0:0:
483,351,53530,5,4,0:0:0:0:
256,384,53768,5,0,0:0:0:0:
29,351,54006,6,0,L|131:320,1,106.666666666667,0|4,0:2|0:0,0:0:0:0:
150,314,54333,1,0,0:0:0:0:
169,308,54423,1,0,0:0:0:0:
188,302,54512,1,0,0:0:0:0:
207,296,54601,5,0,0:0:0:0:
244,282,54691,1,0,0:0:0:0:
273,255,54780,1,0,0:0:0:0:
276,215,54869,1,0,0:0:0:0:
251,184,54958,6,0,P|201:155|180:100,1,120,4|0,0:0|0:0,0:0:0:0:
180,100,55316,1,8,0:0:0:0:
207,8,55494,1,0,0:0:0:0:
347,163,55673,2,0,P|346:222|312:270,1,120
311,269,56030,2,0,P|279:247|240:238,1,80,8|0,0:0|0:0,0:0:0:0:
348,359,56387,6,0,P|386:334|404:271,1,80
280,107,56744,2,0,P|314:178|386:209,1,160,8|0,0:0|0:0,0:0:0:0:
376,113,57280,1,0,0:0:0:0:
189,141,57458,2,0,P|191:181|139:252,1,120,8|0,0:0|0:0,0:0:0:0:
149,246,57816,6,0,P|89:256|36:301,2,120,2|2|0,0:2|0:2|0:0,0:0:0:0:
149,246,58708,1,0,0:0:0:0:
189,141,58887,1,8,0:0:0:0:
94,166,59066,2,0,P|145:227|253:222,1,160,0|0,0:0|0:0,0:0:0:0:
260,226,59512,5,0,0:0:0:0:
298,217,59601,2,0,L|390:200,1,80,8|0,0:0|0:0,0:0:0:0:
467,232,59958,2,0,P|432:280|376:298,1,120
376,298,60316,1,8,0:0:0:0:
260,226,60494,1,0,0:0:0:0:
131,270,60673,6,0,P|110:296|74:313,1,40,4|0,0:0|0:0,0:0:0:0:
65,239,60851,2,0,P|33:216|13:182,1,80,0|0,0:0|0:0,0:0:0:0:
161,23,61208,5,0,0:0:0:0:
125,41,61298,1,0,0:0:0:0:
101,73,61387,2,0,P|93:112|98:152,1,80,2|0,0:2|0:0,0:0:0:0:
201,236,61744,2,0,P|208:196|203:157,1,80,8|0,0:0|0:0,0:0:0:0:
274,0,62101,2,0,P|267:38|272:78,1,80,2|0,0:2|0:0,0:0:0:0:
357,211,62458,2,0,P|364:171|359:132,1,80,8|0,0:0|0:0,0:0:0:0:
318,300,62816,5,0,0:0:0:0:
357,308,62905,1,0,0:0:0:0:
396,300,62994,1,0,0:0:0:0:
357,212,63173,1,8,0:0:0:0:
298,136,63351,1,0,0:0:0:0:
357,212,63530,6,0,P|325:283|259:327,1,160,4|8,0:0|0:0,0:0:0:0:
184,265,64066,2,0,P|103:272|33:235,1,160,4|0,0:0|0:0,0:0:0:0:
75,150,64601,2,0,P|50:112|49:55,1,80,8|0,0:0|0:2,0:0:0:0:
141,74,64958,2,0,P|157:24|196:-7,1,80,0|0,0:0|0:0,0:0:0:0:
245,72,65316,2,0,P|280:50|343:44,1,80,8|0,0:0|0:2,0:0:0:0:
471,154,65673,5,0,0:0:0:0:
473,194,65762,1,0,0:0:0:0:
466,234,65851,1,0,0:0:0:0:
446,269,65940,1,0,0:0:0:0:
415,296,66030,2,0,P|378:311|339:318,1,80,8|0,0:0|0:0,0:0:0:0:
254,190,66387,6,0,P|196:186|145:216,1,120,4|0,0:0|0:0,0:0:0:0:
145,216,66744,1,8,0:0:0:0:
218,281,66923,1,0,0:0:0:0:
337,143,67101,2,0,P|401:114|428:63,1,120
425,73,67458,2,0,L|522:92,1,80,8|0,0:0|0:0,0:0:0:0:
471,181,67816,6,0,P|451:215|418:236,1,80,0|0,0:0|0:0,0:0:0:0:
381,146,68173,2,0,P|289:133|237:180,1,160,8|0,0:0|0:0,0:0:0:0:
323,223,68709,1,0,0:0:0:0:
147,139,68887,2,0,P|121:185|65:198,1,80,8|0,0:0|0:0,0:0:0:0:
58,188,69155,1,0,0:0:0:0:
27,162,69244,6,0,P|19:245|60:315,1,160,4|8,0:0|0:0,0:0:0:0:
149,330,69780,2,0,P|189:354|248:358,1,80
217,262,70137,1,0,0:2:0:0:
408,221,70316,1,8,0:0:0:0:
282,73,70494,1,0,0:0:0:0:
350,149,70673,6,0,P|319:200|324:259,1,120
345,292,71030,2,0,P|308:281|265:285,1,80,8|0,0:0|0:0,0:0:0:0:
179,66,71387,2,0,P|191:124|234:166,1,120
234,166,71744,1,8,0:0:0:0:
282,73,71923,1,0,0:0:0:0:
130,157,72101,6,0,P|101:182|79:242,2,80,4|0|8,0:0|0:0|0:0,0:0:0:0:
176,244,72637,2,0,P|234:263|311:226,1,120
316,217,72994,5,2,0:2:0:0:
234,166,73173,1,8,0:0:0:0:
234,166,73351,1,0,0:0:0:0:
329,38,73530,6,0,L|316:116,1,80,2|0,0:1|0:0,0:0:0:0:
416,33,73798,2,0,L|404:112,1,80,2|0,0:1|0:0,0:0:0:0:
504,28,74066,2,0,L|491:106,1,80,2|0,0:1|3:0,0:0:0:0:
512,141,74333,1,0,0:2:0:0:
512,141,74423,1,0,0:2:0:0:
428,202,74601,5,0,0:0:0:0:
498,278,74780,2,0,L|546:264,1,40,2|0,3:2|0:0,0:0:0:0:
328,173,74958,6,0,P|240:207|189:273,1,160,4|8,0:0|0:0,0:0:0:0:
114,318,75494,2,0,P|96:280|96:224,1,80
262,337,75851,1,0,0:0:0:0:
196,254,76030,2,0,P|203:196|239:149,1,120,8|0,0:0|0:0,0:0:0:0:
273,127,76387,6,0,L|197:103,1,80,4|0,0:0|0:0,0:0:0:0:
184,302,76744,2,0,L|260:326,1,80,12|0,0:0|0:0,0:0:0:0:
489,149,77101,2,0,L|413:125,1,80,4|0,0:0|0:0,0:0:0:0:
400,324,77458,2,0,L|476:348,1,80,12|0,0:0|0:0,0:0:0:0:
283,191,77816,6,0,L|206:166,1,80,4|0,0:0|0:0,0:0:0:0:
169,154,78083,1,0,0:0:0:0:
131,141,78173,2,0,P|197:83|280:69,1,160,8|0,0:0|0:0,0:0:0:0:
367,87,78708,1,0,0:0:0:0:
459,133,78887,1,8,0:0:0:0:
459,133,79244,6,0,L|402:227,1,80,4|0,0:0|0:0,0:0:0:0:
272,352,79601,2,0,L|314:284,1,80,12|0,0:0|0:0,0:0:0:0:
312,56,79958,2,0,L|271:125,1,80,4|0,0:0|0:0,0:0:0:0:
120,267,80316,2,0,L|161:198,1,80,12|0,0:0|0:0,0:0:0:0:
160,198,80583,1,0,0:0:0:0:
160,198,80673,1,4,0:0:0:0:
256,192,80851,12,0,81744,0:0:0:0:
116,151,81923,5,0,0:0:0:0:
116,151,82101,2,0,L|175:248,1,80,4|0,0:0|0:0,0:0:0:0:
316,340,82458,2,0,L|275:272,1,80,12|0,0:0|0:0,0:0:0:0:
243,41,82816,2,0,L|285:110,1,80,4|0,0:0|0:0,0:0:0:0:
445,255,83173,6,0,L|403:186,1,80,12|0,0:0|0:0,0:0:0:0:
383,152,83441,1,0,0:0:0:0:
362,118,83530,2,0,P|302:169|226:193,1,160,4|8,0:0|0:0,0:0:0:0:
122,179,84066,1,2,0:2:0:0:
122,179,84423,6,0,P|199:209|296:206,1,160,2|0,0:2|0:0,0:0:0:0:
363,118,84958,1,6,0:0:0:0:
327,23,85137,5,2,0:2:0:0:
310,32,85226,1,0,0:0:0:0:
294,43,85316,1,0,0:0:0:0:
281,58,85405,1,0,0:0:0:0:
271,76,85494,1,0,0:0:0:0:
264,95,85583,1,0,0:0:0:0:
261,115,85673,1,0,0:0:0:0:
263,135,85762,1,0,0:0:0:0:
269,155,85851,1,0,0:0:0:0:
278,174,85941,1,0,0:0:0:0:
291,190,86030,6,0,P|329:215|405:211,1,120,2|0,2:2|2:0,0:0:0:0:
401,212,86387,1,0,0:2:0:0:
363,118,86744,1,2,2:0:0:0:
363,118,86923,1,4,2:0:0:0:
256,192,87101,12,0,89244,0:1:0:0:
