osu file format v14

[General]
AudioFilename: Kaze no Naka no Primrose.mp3
AudioLeadIn: 0
PreviewTime: 50511
Countdown: 0
SampleSet: Soft
StackLeniency: 0.2
Mode: 0
LetterboxInBreaks: 0
WidescreenStoryboard: 0

[Editor]
Bookmarks: 4184,12679,29670,38166,50909,67900,84891,91263
DistanceSpacing: 1.3
BeatDivisor: 4
GridSize: 4
TimelineZoom: 1

[Metadata]
Title:Kaze no Naka no Primrose
TitleUnicode:風のなかのプリムローズ
Artist:Ceui
ArtistUnicode:Ceui
Creator:lit120
Version:Easy
Source:恋と選挙とチョコレート
Tags:Koi to Senkyo to Chocolate ending sprite -hakurei- lasse
BeatmapID:1109358
BeatmapSetID:522355

[Difficulty]
HPDrainRate:2
CircleSize:3
OverallDifficulty:2
ApproachRate:2
SliderMultiplier:0.9
SliderTickRate:1

[Events]
//Background and Video events
0,0,"bg.jpg",0,0
Video,3300,"Chocolate.avi"
//Break Periods
//Storyboard Layer 0 (Background)
//Storyboard Layer 1 (Fail)
//Storyboard Layer 2 (Pass)
//Storyboard Layer 3 (Foreground)
//Storyboard Sound Samples

[TimingPoints]
4184,530.973451327434,4,2,1,50,1,0
29670,-100,4,2,1,60,0,0
50909,-100,4,2,1,75,0,1
84891,-100,4,2,1,75,0,0
93254,-100,4,2,1,5,0,0

[Colours]
Combo1 : 184,196,196
Combo2 : 203,237,117
Combo3 : 192,124,90
Combo4 : 255,218,217

[HitObjects]
300,117,4184,6,0,P|238:92|176:113,1,135,2|2,0:0|0:0,0:0:0:0:
115,192,5511,2,0,L|103:256,1,45,2|0,0:0|0:0,0:0:0:0:
105,335,6307,2,0,P|172:327|251:342,1,135,2|2,0:0|0:0,0:0:0:0:
337,344,7635,2,0,L|381:310,1,45
411,225,8431,6,0,B|397:135|397:135|340:88,1,135,2|2,0:0|0:0,0:0:0:0:
265,92,9759,2,0,L|203:97,1,45,2|2,0:0|0:0,0:0:0:0:
139,38,10555,2,0,P|121:93|199:192,1,180,2|2,0:0|0:0,0:0:0:0:
363,106,12679,6,0,P|437:106|484:143,2,135,2|2|0,0:0|0:0|0:0,0:0:0:0:
402,199,14803,2,0,B|385:288|385:288|351:328,1,135,2|2,0:0|0:0,0:0:0:0:
259,344,16130,1,2,0:0:0:0:
109,339,16927,6,0,P|46:315|12:259,2,135,2|2|0,0:0|0:0|0:0,0:0:0:0:
109,239,19051,2,0,B|124:150|124:150|166:104,1,135,2|2,0:0|0:0,0:0:0:0:
247,85,20378,2,0,L|291:82,1,45,2|0,0:0|0:0,0:0:0:0:
357,8,21175,6,0,P|388:67|378:133,2,135,2|2|0,0:0|0:0|0:0,0:0:0:0:
292,82,23299,2,0,P|280:148|311:206,2,135,2|2|2,0:0|0:0|0:0,0:0:0:0:
377,132,25422,6,0,P|409:213|366:289,1,180,2|2,0:0|0:0,0:0:0:0:
168,298,27546,2,0,P|124:222|156:141,1,180,2|2,0:0|0:0,0:0:0:0:
321,33,29670,6,0,P|409:34|468:98,1,180,0|0,3:0|0:0,0:0:0:0:
501,192,31263,1,8,0:0:0:0:
468,285,31794,2,0,P|409:349|321:350,1,180,0|0,3:0|0:0,0:0:0:0:
256,276,33387,1,8,0:0:0:0:
190,201,33918,6,0,P|124:195|70:232,1,135,0|0,3:0|3:0,0:0:0:0:
58,329,35245,1,0,0:0:0:0:
156,341,35776,2,0,B|246:341|246:341|309:307,1,135,0|8,3:0|0:0,0:0:0:0:
350,244,37104,2,0,L|353:154,1,90,0|8,0:0|0:0,0:0:0:0:
305,66,38166,6,0,P|371:56|428:89,2,135,4|0|8,3:2|3:0|0:0,0:0:0:0:
206,66,40290,2,0,P|140:56|83:89,2,135,0|0|8,3:0|3:0|0:0,0:0:0:0:
256,151,42414,6,0,L|256:286,1,135,0|0,3:0|3:0,0:0:0:0:
176,344,43741,2,0,L|100:337,1,45,0|8,3:0|0:0,0:0:0:0:
53,278,44537,2,0,P|29:216|48:152,2,135,2|0|8,3:2|3:0|0:0,0:0:0:0:
128,213,46661,6,0,B|217:200|217:200|272:208,1,135,4|0,3:2|3:0,0:0:0:0:
351,247,47989,2,0,L|389:270,1,45,2|10,3:2|0:0,0:0:0:0:
415,365,48785,2,0,P|467:327|468:215,1,180,0|8,3:0|0:0,0:0:0:0:
408,141,50378,1,8,0:0:0:0:
323,88,50909,6,0,P|257:75|192:93,2,135,4|0|8,3:2|3:0|0:0,0:0:0:0:
320,189,53033,2,0,P|255:206|189:194,1,135,0|2,3:0|0:0,0:0:0:0:
103,142,54360,2,0,P|95:162|91:184,1,45,0|8,3:0|0:0,0:0:0:0:
95,283,55157,6,0,P|140:333|205:348,1,135,0|0,3:0|0:0,0:0:0:0:
306,348,56484,2,0,L|361:314,1,45,0|8,3:0|0:0,0:0:0:0:
399,242,57281,2,0,P|406:175|373:117,2,135,0|2|8,3:0|0:0|0:0,0:0:0:0:
311,195,59405,6,0,B|267:189|267:189|222:196,1,90,0|8,3:0|0:0,0:0:0:0:
140,252,60467,2,0,P|124:210|127:165,1,90,0|8,3:0|0:0,0:0:0:0:
157,71,61529,2,0,P|216:40|281:55,2,135,0|2|8,3:0|0:0|0:0,0:0:0:0:
229,140,63653,6,0,P|247:203|234:293,1,135,0|0,3:0|0:0,0:0:0:0:
163,332,64980,2,0,L|104:325,1,45,0|8,3:0|0:0,0:0:0:0:
33,275,65776,2,0,P|21:208|33:142,2,135,8|8|8,0:0|0:0|0:0,0:0:0:0:
122,231,67900,6,0,P|133:164|122:98,2,135,4|0|8,3:2|3:0|0:0,0:0:0:0:
32,274,70024,2,0,P|80:320|146:327,1,135,0|0,3:0|3:0,0:0:0:0:
233,279,71352,2,0,L|256:241,1,45,0|8,3:0|0:0,0:0:0:0:
307,157,72148,6,0,P|372:142|436:160,2,135,0|0|8,3:0|0:0|0:0,0:0:0:0:
205,157,74272,2,0,P|139:142|75:160,2,135,0|0|8,3:0|0:0|0:0,0:0:0:0:
256,241,76396,6,0,P|270:307|157:343,1,180,2|2,3:2|3:2,0:0:0:0:
94,313,77989,1,8,0:0:0:0:
73,216,78520,2,0,B|77:170|77:170|99:132,1,90,2|8,3:2|0:0,0:0:0:0:
192,97,79582,2,0,P|236:98|281:96,1,90,2|8,3:2|0:0,0:0:0:0:
334,12,80644,6,0,P|379:86|350:168,1,180,2|2,3:2|3:2,0:0:0:0:
256,192,82237,1,8,0:0:0:0:
161,215,82768,2,0,P|132:297|177:371,1,180,4|2,3:2|0:0,0:0:0:0:
370,326,84891,6,0,P|391:240|367:155,1,180,4|0,3:2|0:0,0:0:0:0:
287,97,86484,1,8,0:0:0:0:
192,68,87015,2,0,B|147:70|147:70|90:91,1,90,0|8,3:0|0:0,0:0:0:0:
77,180,88077,2,0,L|80:273,1,90,0|8,0:0|0:0,0:0:0:0:
136,351,89139,6,0,P|240:348|268:326,2,135,4|4|8,3:2|3:2|0:0,0:0:0:0:
256,192,91263,12,0,93254,0:0:0:0:
