osu file format v11

[General]
AudioFilename: Kaze no Naka no Primrose.mp3
AudioLeadIn: 0
PreviewTime: 50378
Countdown: 0
SampleSet: Soft
StackLeniency: 0.4
Mode: 0
LetterboxInBreaks: 0

[Editor]
Bookmarks: 93729
DistanceSpacing: 1.2
BeatDivisor: 4
GridSize: 4

[Metadata]
Title:Kaze no Naka no Primrose (TV Size)
TitleUnicode:Kaze no Naka no Primrose (TV Size)
Artist:Ceui
ArtistUnicode:Ceui
Creator:Guy
Version:Hard
Source:Koi to Senkyo to Chocolate
Tags:ending maaagic sprite frostmourne love election annabel
BeatmapID:172208
BeatmapSetID:57051

[Difficulty]
HPDrainRate:6
CircleSize:4
OverallDifficulty:6
ApproachRate:7
SliderMultiplier:1.4
SliderTickRate:1

[Events]
//Background and Video events
0,0,"BG.jpg"
Video,4177,"video.avi"
//Break Periods
//Storyboard Layer 0 (Background)
//Storyboard Layer 1 (Fail)
//Storyboard Layer 2 (Pass)
//Storyboard Layer 3 (Foreground)
//Storyboard Sound Samples
//Background Colour Transformations
3,100,163,162,255

[TimingPoints]
4184,530.973451327434,4,2,1,55,1,0
29670,-100,4,2,1,40,0,0
38166,-100,4,2,1,65,0,0
46529,-100,4,2,1,45,0,0
46794,-100,4,2,1,70,0,0
48254,-100,4,2,1,75,0,0
48785,-100,4,2,1,80,0,0
49316,-100,4,2,1,83,0,0
49847,-100,4,2,1,86,0,0
50909,-100,4,2,1,90,0,1
84891,-100,4,2,1,70,0,0
91263,-100,4,2,1,50,0,0
91794,-100,4,2,1,40,0,0
92325,-100,4,2,1,30,0,0
92458,-100,4,2,1,20,0,0
92591,-100,4,2,1,15,0,0
92723,-100,4,2,1,10,0,0
92856,-100,4,2,1,5,0,0

[Colours]
Combo1 : 150,75,75
Combo2 : 185,0,185
Combo3 : 0,138,69

[HitObjects]
72,200,4184,2,0,B|100:176|136:180,1,70,2|0,0:0|0:0,0:0:0
216,196,4715,1,8,0:0:0
239,276,4981,2,0,B|275:267|303:234|304:196|295:164,1,140,2|0,0:0|0:0,0:0:0
228,112,5777,1,8,0:0:0
228,112,6043,1,0,0:0:0
306,82,6308,6,0,B|341:73|376:96,1,70,2|0,0:0|0:0,0:0:0
436,148,6839,1,8,0:0:0
432,231,7105,2,0,B|424:264|400:292|356:298|320:287,1,140,2|0,0:0|0:0,0:0:0
246,244,7901,1,8,0:0:0
317,198,8167,5,0,0:0:0
285,170,8299,1,0,0:0:0
244,160,8432,1,2,0:0:0
171,203,8698,1,0,0:0:0
171,203,8963,1,8,0:0:0
98,160,9228,6,0,B|111:80|190:60,1,140,2|0,0:0|0:0,0:0:0
268,50,10025,1,8,0:0:0
345,83,10290,1,0,0:0:0
256,192,10556,12,0,12149,0:0:0
104,296,12680,6,0,B|176:320|240:276,1,140,2|8,0:0|0:0,0:0:0
148,216,13476,1,0,0:0:0
160,184,13609,2,0,B|180:128|232:108,1,105,2|0,0:0|0:0,0:0:0
312,100,14273,1,8,0:0:0
448,200,14804,6,0,B|424:276|340:288,1,140,2|8,0:0|0:0,0:0:0
244,260,15600,1,0,0:0:0
236,228,15733,2,0,B|208:172|152:172,1,105,2|0,0:0|0:0,0:0:0
72,196,16397,1,8,0:0:0
128,36,16928,6,0,B|204:24|264:80,1,140,2|8,0:0|0:0,0:0:0
336,108,17724,2,0,B|376:116|404:96,2,70,0|2|0,0:0|0:0|0:0,0:0:0
268,160,18521,2,0,B|252:196|219:208,1,70,8|0,0:0|0:0,0:0:0
188,132,19052,6,0,B|168:116|116:116|80:152|76:184,1,140,2|8,0:0|0:0,0:0:0
84,264,19848,2,0,B|120:328|196:344,1,140
280,340,20644,1,8,0:0:0
388,192,21175,6,0,B|384:120|324:72,1,140,2|8,0:0|0:0,0:0:0
232,44,21972,1,0,0:0:0
200,48,22105,2,0,B|144:48|108:92,1,105,2|0,0:0|0:0,0:0:0
76,168,22768,1,8,0:0:0
156,316,23299,6,0,B|188:328|228:328,1,70,2|0,0:0|0:0,0:0:0
356,256,23830,2,0,B|324:268|284:268,1,70,8|0,0:0|0:0,0:0:0
256,240,24228,2,0,B|256:132,1,105,2|0,0:0|0:0,0:0:0
308,68,24892,1,8,0:0:0
388,96,25158,1,0,0:0:0
396,180,25423,6,0,B|400:240|384:296,1,116.666666666667,2|8,0:0|0:0,0:0:0
260,316,26220,1,0,0:0:0
188,272,26485,2,0,B|136:220|52:224,1,140,2|8,0:0|0:0,0:0:0
18,150,27282,1,0,0:0:0
80,92,27547,5,2,0:0:0
172,144,27813,1,0,0:0:0
256,80,28078,1,2,0:0:0
340,144,28344,1,0,0:0:0
432,92,28609,2,0,B|456:120|444:168,1,70,2|0,0:0|0:0,0:0:0
388,220,29140,2,0,B|352:236|316:220,1,70,2|0,0:0|0:0,0:0:0
256,168,29671,5,4,0:0:0
220,92,29936,1,0,0:0:0
136,76,30202,1,8,0:0:0
80,140,30467,1,0,0:0:0
92,224,30733,2,0,B|100:264|144:280,1,70,2|0,0:0|0:0,0:0:0
220,280,31264,2,0,B|292:280,1,70,8|0,0:0|0:0,0:0:0
368,252,31795,5,2,0:0:0
432,196,32060,1,0,0:0:0
452,276,32326,1,8,0:0:0
432,196,32591,1,0,0:0:0
440,112,32857,2,0,B|400:108|371:137,1,70,2|0,0:0|0:0,0:0:0
308,184,33388,2,0,B|276:204|232:196,1,70,8|0,0:0|0:0,0:0:0
176,140,33919,6,0,B|152:120|104:120|68:156|64:188,1,140,2|8,0:0|0:0,0:0:0
100,260,34715,1,0,0:0:0
100,260,34981,2,0,B|124:280|172:280|208:244|211:215,1,140,2|8,0:0|0:0,0:0:0
256,144,35777,6,0,B|312:92|400:112,1,140,2|0,0:0|0:0,0:0:0
432,180,36574,2,0,B|444:220|412:252,1,70,8|0,0:0|0:0,0:0:0
360,304,37105,1,2,0:0:0
280,332,37370,1,0,0:0:0
196,316,37636,1,8,0:0:0
136,256,37901,1,0,0:0:0
144,172,38166,6,0,P|80:192|52:268,1,140,4|8,0:0|0:0,0:0:0
84,336,38963,1,0,0:0:0
116,324,39096,2,0,P|168:312|220:312,1,105
304,328,39759,1,8,0:0:0
380,292,40025,1,0,0:0:0
392,208,40290,6,0,B|440:148|424:64,1,140,2|8,0:0|0:0,0:0:0
332,120,41087,2,0,B|324:80|300:56,1,70,0|2,0:0|0:0,0:0:0
236,124,41618,2,0,B|200:104|168:108,1,70,0|8,0:0|0:0,0:0:0
92,136,42149,1,0,0:0:0
64,216,42414,6,0,B|100:284|176:296,1,140,2|8,0:0|0:0,0:0:0
256,312,43211,1,0,0:0:0
339,295,43476,2,0,B|412:284|448:216,1,140,2|8,0:0|0:0,0:0:0
444,132,44273,1,0,0:0:0
332,112,44538,6,0,B|332:68|376:44,1,70,2|0,0:0|0:0,0:0:0
256,144,45069,2,0,B|256:216,1,70,8|0,0:0|0:0,0:0:0
180,112,45600,2,0,B|180:68|136:44,1,70,2|0,0:0|0:0,0:0:0
68,132,46131,1,8,0:0:0
324,244,46662,5,4,0:0:0
204,284,46928,1,0,0:0:0
204,284,47060,2,0,B|144:288|100:248,1,105,8|8,0:0|0:0,0:0:0
40,172,47724,1,8,0:0:0
108,92,47990,1,2,0:0:0
40,172,48255,1,8,0:0:0
108,92,48521,1,2,0:0:0
156,188,48786,5,8,0:0:0
204,284,49052,1,8,0:0:0
306,306,49317,1,8,0:0:0
403,266,49582,1,8,0:0:0
424,164,49848,1,8,0:0:0
424,120,49981,1,8,0:0:0
396,88,50113,1,8,0:0:0
304,36,50379,2,0,B|268:28|236:44,1,70,8|8,0:0|0:0,0:0:0
152,108,50910,6,0,B|88:156|108:252,1,140,4|8,0:0|0:0,0:0:0
168,316,51706,2,0,B|232:268|212:172,1,140,2|0,0:0|0:0,0:0:0
240,112,52503,2,0,B|268:84|308:92,1,70,8|0,0:0|0:0,0:0:0
384,132,53034,6,0,B|408:160|404:200,1,70,2|0,0:0|0:0,0:0:0
392,236,53432,1,0,0:0:0
368,268,53565,2,0,B|316:320|236:300,1,140,8|2,0:0|0:0,0:0:0
160,268,54361,1,0,0:0:0
228,220,54627,1,8,0:0:0
160,268,54892,1,0,0:0:0
152,184,55158,6,0,B|132:100|216:56,1,140,2|8,0:0|0:0,0:0:0
300,24,55954,2,0,B|320:108|236:152,1,140,2|0,0:0|0:0,0:0:0
168,168,56751,2,0,B|132:184|124:224,1,70,8|0,0:0|0:0,0:0:0
140,304,57282,6,0,B|168:332|216:324,1,70,2|0,0:0|0:0,0:0:0
248,320,57680,2,0,B|288:300|316:304,1,70,2|0,0:0|0:0,0:0:0
356,304,58078,2,0,B|416:256|396:172,1,140,10|0,0:0|0:0,0:0:0
364,100,58875,1,8,0:0:0
296,52,59140,5,0,0:0:0
256,40,59273,1,0,0:0:0
216,52,59405,2,0,B|140:80|132:168,1,140,2|8,0:0|0:0,0:0:0
200,208,60202,2,0,B|180:236|140:256|92:240|64:212,1,140,2|0,0:0|0:0,0:0:0
44,144,60998,2,0,B|40:104|64:72,1,70,8|0,0:0|0:0,0:0:0
140,52,61529,6,0,B|288:52,1,140,2|8,0:0|0:0,0:0:0
360,76,62326,2,0,B|364:116|340:148,1,70,0|2,0:0|0:0,0:0:0
256,140,62857,1,0,0:0:0
188,192,63122,1,8,0:0:0
204,276,63388,1,0,0:0:0
280,316,63653,6,0,B|356:324|412:268,1,140,2|8,0:0|0:0,0:0:0
448,176,64450,2,0,B|372:168|320:220,1,140,2|0,0:0|0:0,0:0:0
240,244,65246,1,8,0:0:0
156,236,65512,1,0,0:0:0
96,176,65777,5,2,0:0:0
92,92,66043,1,2,0:0:0
92,92,66175,1,2,0:0:0
232,40,66574,2,0,B|268:20|348:40|376:116|360:160,1,210,2|8,0:0|0:0,0:0:0
308,224,67636,1,0,0:0:0
264,296,67901,6,0,B|228:288|204:248|208:196|236:176,1,140,4|8,0:0|0:0,0:0:0
308,224,68698,2,0,B|329:209|333:157|309:117|273:109,1,140,2|0,0:0|0:0,0:0:0
192,100,69494,2,0,B|152:104|128:80,1,70,8|0,0:0|0:0,0:0:0
96,108,69892,1,0,0:0:0
84,148,70025,6,0,B|52:212|84:284,1,140,2|8,0:0|0:0,0:0:0
160,320,70821,2,0,B|232:348|308:316,1,140,2|0,0:0|0:0,0:0:0
364,268,71618,1,8,0:0:0
364,268,71883,1,0,0:0:0
444,296,72149,6,0,B|453:265|451:224|412:190|378:189,1,140,2|8,0:0|0:0,0:0:0
364,268,72945,2,0,B|333:267|294:233|292:192|301:161,1,140,2|0,0:0|0:0,0:0:0
368,108,73742,1,8,0:0:0
292,76,74007,1,0,0:0:0
224,124,74273,6,0,B|192:168|140:184,1,105,2|0,0:0|0:0,0:0:0
100,184,74804,2,0,B|100:108,1,70,8|0,0:0|0:0,0:0:0
176,252,75600,5,0,0:0:0
236,192,75866,1,8,0:0:0
180,132,76131,1,0,0:0:0
236,68,76397,6,0,B|308:48|368:96,1,140,2|8,0:0|0:0,0:0:0
396,176,77193,1,0,0:0:0
388,216,77326,1,0,0:0:0
368,256,77459,2,0,B|308:304|236:284,1,140,2|8,0:0|0:0,0:0:0
160,252,78255,1,0,0:0:0
104,188,78521,5,2,0:0:0
148,116,78786,1,0,0:0:0
212,168,79052,1,8,0:0:0
256,96,79317,1,0,0:0:0
300,168,79582,1,2,0:0:0
364,116,79848,1,0,0:0:0
408,188,80113,1,8,0:0:0
396,272,80379,1,0,0:0:0
323,309,80644,6,0,B|256:351|189:308,1,140,2|8,0:0|0:0,0:0:0
188,224,81441,1,0,0:0:0
188,224,81574,1,0,0:0:0
188,224,81706,2,0,B|256:182|322:225,1,140,2|8,0:0|0:0,0:0:0
396,272,82503,5,0,0:0:0
412,232,82636,1,0,0:0:0
420,192,82768,2,0,B|424:116|376:60,1,140,2|0,0:0|0:0,0:0:0
212,32,83830,2,0,B|156:36|116:72,1,105,2|0,0:0|0:0,0:0:0
96,196,84627,1,0,0:0:0
160,256,84892,6,0,B|180:292|220:296,1,70,2|0,0:0|0:0,0:0:0
297,295,85423,2,0,B|332:292|352:256,1,70,8|0,0:0|0:0,0:0:0
356,172,85954,1,2,0:0:0
297,111,86220,1,0,0:0:0
215,111,86485,1,8,0:0:0
156,172,86751,1,0,0:0:0
72,172,87016,6,0,B|60:88|144:52,1,140,2|8,0:0|0:0,0:0:0
187,121,87813,2,0,B|256:140|325:121,1,140,2|0,0:0|0:0,0:0:0
379,57,88609,2,0,B|452:88|440:172,1,140,8|2,0:0|0:0,0:0:0
412,248,89405,5,0,0:0:0
336,280,89671,1,8,0:0:0
276,220,89936,1,0,0:0:0
260,136,90202,1,2,0:0:0
180,112,90467,1,0,0:0:0
128,180,90733,2,0,B|104:208|60:208,1,70,8|0,0:0|0:0,0:0:0
256,192,91263,12,0,92856,0:0:0
