osu file format v14

[General]
AudioFilename: opto.mp3
AudioLeadIn: 0
PreviewTime: 174063
Countdown: 0
SampleSet: Soft
StackLeniency: 0.5
Mode: 0
LetterboxInBreaks: 0
WidescreenStoryboard: 0

[Editor]
Bookmarks: 11649,22683,44752,69580,91649,102683,124752,149580,171649,174407,196476,210269,232338,254407
DistanceSpacing: 1.2
BeatDivisor: 4
GridSize: 16
TimelineZoom: 1.7

[Metadata]
Title:Ima, Arukidasu Kimi e.
TitleUnicode:今、歩き出す君へ。
Artist:Ceui
ArtistUnicode:Ceui
Creator:Shad0w1and
Version:Pata-Mon's Insane
Source:いますぐお兄ちゃんに妹だっていいたい!
Tags:fairys Nichiyouki nich95 CelsiusLK Pata-Mon
BeatmapID:1000473
BeatmapSetID:422600

[Difficulty]
HPDrainRate:6
CircleSize:3.8
OverallDifficulty:7
ApproachRate:8.5
SliderMultiplier:3
SliderTickRate:1

[Events]
//Background and Video events
0,0,"BG2.jpg",0,0
Video,0,"opto.flv"
//Break Periods
2,91849,102008
//Storyboard Layer 0 (Background)
//Storyboard Layer 1 (Fail)
//Storyboard Layer 2 (Pass)
//Storyboard Layer 3 (Foreground)
//Storyboard Sound Samples

[TimingPoints]
-2144,689.655172413793,4,2,1,40,1,0
614,-166.666666666667,4,3,1,40,0,0
11649,-100,4,2,1,80,0,0
12683,-133.333333333333,4,2,1,80,0,0
13718,-100,4,2,1,80,0,0
15442,-133.333333333333,4,2,1,80,0,0
16476,-100,4,2,1,80,0,0
19924,-133.333333333333,4,2,1,80,0,0
22683,-133.333333333333,4,2,1,60,0,0
33718,-100,4,2,1,60,0,0
44752,-100,4,2,1,70,0,0
64063,-100,4,2,1,80,0,0
68200,-100,4,2,1,60,0,0
69235,-100,4,2,1,80,0,0
69580,-83.3333333333333,4,2,1,100,0,1
90269,-166.666666666667,4,2,1,100,0,1
91304,-100,4,2,1,100,0,1
91649,-100,4,2,1,60,0,0
124752,-100,4,2,1,70,0,0
144063,-100,4,2,1,80,0,0
149580,-83.3333333333333,4,2,1,100,0,1
170269,-200,4,2,1,100,0,1
171649,-100,4,2,1,100,0,0
173890,-125,4,2,1,100,0,0
174407,-83.3333333333333,4,2,1,100,0,1
184924,-125,4,2,1,100,0,1
185442,-83.3333333333333,4,2,1,100,0,1
193718,-83.3333333333333,4,2,1,100,0,0
196476,-83.3333333333333,4,2,1,100,0,1
207511,-125,4,2,1,100,0,0
208545,-166.666666666667,4,2,1,100,0,0
209580,-166.666666666667,4,2,1,5,0,0
210269,-166.666666666667,4,3,1,50,0,0
221304,-100,4,2,1,60,0,0
226821,-83.3333333333333,4,2,1,80,0,0
232338,-83.3333333333333,4,2,1,100,0,1
253028,-166.666666666667,4,2,1,100,0,1
254235,-166.666666666667,4,2,1,5,0,1
254407,-166.666666666667,4,3,1,50,0,0
264407,-166.666666666667,4,3,1,50,0,0
265442,-166.666666666667,4,3,1,35,0,0
266821,-166.666666666667,4,3,1,30,0,0
268200,-166.666666666667,4,3,1,25,0,0
269580,-166.666666666667,4,3,1,20,0,0
270959,-166.666666666667,4,3,1,15,0,0
272338,-166.666666666667,4,3,1,10,0,0
273718,-166.666666666667,4,3,1,5,0,0

[Colours]
Combo1 : 248,252,86
Combo2 : 128,255,166
Combo3 : 119,181,255
Combo4 : 245,84,108

[HitObjects]
341,32,614,6,0,L|335:121,1,89.9999972534181,2|0,0:0|0:0,0:0:0:0:
462,290,1304,1,0,0:0:0:0:
457,209,1476,1,0,0:0:0:0:
452,128,1649,1,0,0:0:0:0:
249,79,1993,6,0,L|243:168,1,89.9999972534181,2|0,0:0|0:0,0:0:0:0:
370,337,2683,1,0,0:0:0:0:
365,256,2855,1,0,0:0:0:0:
360,175,3028,1,0,0:0:0:0:
157,126,3373,6,0,L|151:215,1,89.9999972534181,2|0,0:0|0:0,0:0:0:0:
278,384,4062,1,0,0:0:0:0:
273,303,4235,1,0,0:0:0:0:
268,222,4407,1,0,0:0:0:0:
65,173,4752,6,0,L|59:262,1,89.9999972534181,2|0,0:0|0:0,0:0:0:0:
273,303,5442,2,0,L|267:214,1,89.9999972534181,0|0,0:0|0:0,0:0:0:0:
24,336,6131,6,0,P|67:343|108:327,1,89.9999972534181,2|0,0:0|0:0,0:0:0:0:
267,213,6821,1,0,0:0:0:0:
262,132,6993,1,0,0:0:0:0:
257,51,7166,1,0,0:0:0:0:
232,287,7511,6,0,P|275:294|316:278,1,89.9999972534181,2|0,0:0|0:0,0:0:0:0:
412,98,8200,1,0,0:0:0:0:
257,51,8545,1,0,0:0:0:0:
97,136,8890,6,0,P|92:180|97:225,1,89.999997253418,2|0,0:0|0:0,0:0:0:0:
162,274,9407,2,0,P|168:318|163:363,1,89.999997253418,0|0,0:0|0:0,0:0:0:0:
97,225,9924,6,0,P|132:198|176:194,1,89.9999972534181,2|0,0:0|0:0,0:0:0:0:
238,248,10442,2,0,L|261:245,6,22.4999993133545,0|0|0|2|0|0|2,0:0|0:0|0:0|0:0|0:0|0:0|0:0,0:0:0:0:
241,113,11649,6,0,P|221:182|259:245,1,150,14|0,0:1|0:0,0:0:0:0:
397,195,12166,2,0,P|387:122|326:82,1,150,8|0,0:0|0:0,0:0:0:0:
310,171,12683,6,0,B|302:216|315:264|377:284|377:284|414:296|420:344,1,225.000008583069,6|4,0:0|0:0,0:0:0:0:
327,82,13718,1,8,0:0:0:0:
235,236,14062,1,0,0:0:0:0:
145,234,14235,1,0,0:0:0:0:
281,159,14407,6,0,P|323:218|307:289,1,150,6|0,0:0|0:0,0:0:0:0:
191,157,14924,2,0,P|222:90|292:69,1,150,8|0,0:0|0:0,0:0:0:0:
235,236,15442,6,0,P|131:224|109:120,1,225.000008583069,6|4,0:0|0:0,0:0:0:0:
370,137,16476,1,8,0:0:0:0:
191,157,16821,1,4,0:0:0:0:
181,68,16993,1,0,0:0:0:0:
274,193,17166,6,0,P|290:265|248:324,1,150,6|0,0:0|0:0,0:0:0:0:
163,352,17683,1,0,0:0:0:0:
128,232,17855,2,0,L|202:246,1,75,8|0,0:0|0:0,0:0:0:0:
163,352,18200,6,0,P|29:307|22:166,1,300,4|4,0:0|0:0,0:0:0:0:
245,276,19235,1,8,0:0:0:0:
245,276,19407,1,8,0:0:0:0:
128,232,19580,1,4,0:0:0:0:
128,232,19924,6,0,B|123:107|222:158|217:37,2,225.000008583069,6|2|2,0:0|0:0|0:3,0:0:0:0:
217,210,21476,5,0,3:0:0:0:
217,210,21649,1,0,3:0:0:0:
128,56,21993,1,2,3:3:0:0:
217,210,22338,2,0,L|273:203,1,56.2500021457673,0|0,0:0|0:0,0:0:0:0:
333,136,22683,6,0,P|361:183|356:238,1,112.500004291535,2|0,0:0|0:0,0:0:0:0:
157,277,23373,2,0,P|129:230|134:175,1,112.500004291535,0|2,0:0|0:0,0:0:0:0:
217,210,23890,1,0,0:0:0:0:
224,337,24062,6,0,P|177:365|122:360,2,112.500004291535,0|0|0,0:0|0:0|0:0,0:0:0:0:
224,337,25097,2,0,P|225:308|233:282,1,56.2500021457673,0|0,0:0|0:0,0:0:0:0:
416,301,25442,6,0,P|369:329|314:324,1,112.500004291535,2|0,0:0|0:0,0:0:0:0:
271,148,26131,2,0,P|318:120|373:125,1,112.500004291535,0|2,0:0|0:0,0:0:0:0:
206,259,26821,6,0,B|150:261,2,56.2500021457673,0|0|0,0:0|0:0|0:0,0:0:0:0:
416,301,27511,2,0,P|369:329|314:324,1,112.500004291535,0|0,0:0|0:0,0:0:0:0:
204,119,28200,6,0,P|157:91|102:96,1,112.500004291535,2|0,0:0|0:0,0:0:0:0:
101,311,28890,2,0,P|157:316|204:288,1,112.500004291535,0|2,0:0|0:0,0:0:0:0:
241,205,29407,1,0,0:0:0:0:
143,115,29580,6,0,L|136:228,1,112.500004291535,0|0,0:0|0:0,0:0:0:0:
349,317,30269,2,0,L|342:204,1,112.500004291535,0|0,0:0|0:0,0:0:0:0:
152,187,30959,6,0,P|198:219|253:228,1,112.500004291535,2|0,0:0|0:0,0:0:0:0:
402,127,31649,2,0,L|459:130,2,56.2500021457673,0|0|2,0:0|0:0|0:0,0:0:0:0:
336,66,32166,1,0,0:0:0:0:
336,66,32338,6,0,L|279:69,1,56.2500021457673,0|0,0:0|0:0,0:0:0:0:
201,113,32683,1,0,0:0:0:0:
201,113,33028,2,0,P|190:167|211:218,1,112.500004291535,0|0,0:0|0:0,0:0:0:0:
278,159,33545,1,0,0:0:0:0:
235,29,33718,6,0,P|163:31|115:87,1,150,6|0,0:0|0:0,0:0:0:0:
204,288,34407,2,0,P|276:286|324:230,1,150,0|2,0:0|0:0,0:0:0:0:
329,140,34924,1,0,0:0:0:0:
206,137,35097,6,0,L|238:204,1,75,0|0,0:0|0:0,0:0:0:0:
324,230,35442,1,4,0:0:0:0:
173,53,35787,2,0,P|122:104|126:177,1,150,8|0,0:0|0:0,0:0:0:0:
192,239,36304,1,0,0:0:0:0:
281,137,36476,6,0,L|206:137,2,75,6|0|0,0:0|0:0|0:0,0:0:0:0:
491,70,37166,2,0,L|416:70,1,75,0|0,0:0|0:0,0:0:0:0:
356,137,37511,2,0,L|281:137,1,75,2|0,0:0|0:0,0:0:0:0:
281,271,37855,6,0,L|356:271,1,75,0|0,0:0|0:0,0:0:0:0:
416,204,38200,2,0,L|491:204,1,75,4|0,0:0|0:0,0:0:0:0:
356,137,38545,2,0,P|327:203|356:271,1,150,8|0,0:0|0:0,0:0:0:0:
416,204,39062,1,0,0:0:0:0:
423,77,39235,6,0,P|357:46|290:74,2,150,6|0|0,0:0|0:0|0:0,0:0:0:0:
292,256,40269,2,0,L|284:330,1,75,0|2,0:0|0:0,0:0:0:0:
223,199,40614,6,0,L|215:125,1,75,0|0,0:0|0:0,0:0:0:0:
290,74,40959,2,0,P|358:47|424:78,1,150,4|8,0:0|0:0,0:0:0:0:
223,199,41649,2,0,L|215:125,1,75,0|0,0:0|0:0,0:0:0:0:
292,256,41993,6,0,P|227:288|160:262,1,150,6|0,0:0|0:0,0:0:0:0:
352,108,42683,2,0,L|344:182,2,75,0|0|2,0:0|0:0|0:0,0:0:0:0:
295,38,43200,1,0,0:0:0:0:
215,124,43373,6,0,L|223:198,1,75,0|0,0:0|0:0,0:0:0:0:
258,340,43718,1,0,0:0:0:0:
292,256,43890,1,0,0:0:0:0:
147,246,44062,5,12,0:0:0:0:
168,334,44235,1,4,0:0:0:0:
292,256,44407,1,4,0:0:0:0:
223,198,44580,1,4,0:0:0:0:
258,340,44752,6,0,P|331:337|379:282,1,150,6|4,0:0|0:0,0:0:0:0:
300,40,45442,2,0,B|255:118|349:173|292:256,1,225,8|8,0:0|0:0,0:0:0:0:
223,198,46131,5,2,0:0:0:0:
377,87,46476,1,4,0:0:0:0:
396,275,46821,1,8,0:0:0:0:
223,198,47166,2,0,P|218:160|220:123,1,75,0|0,0:0|0:0,0:0:0:0:
298,248,47511,6,0,P|237:287|167:268,1,150,6|4,0:0|0:0,0:0:0:0:
366,31,48200,2,0,P|357:106|358:181,1,150,8|0,0:0|0:0,0:0:0:0:
373,297,48718,1,8,0:0:0:0:
298,248,48890,5,2,0:0:0:0:
494,321,49235,1,4,0:0:0:0:
460,114,49580,2,0,P|441:145|430:181,1,75,8|0,0:0|0:0,0:0:0:0:
419,271,49924,1,0,0:0:0:0:
419,271,50097,1,0,0:0:0:0:
346,149,50269,6,0,P|272:141|198:149,1,150,6|4,0:0|0:0,0:0:0:0:
9,62,50959,2,0,P|83:70|157:62,1,150,8|0,0:0|0:0,0:0:0:0:
245,35,51476,1,8,0:0:0:0:
297,135,51649,6,0,P|248:190|178:216,1,150,2|4,0:0|0:0,0:0:0:0:
447,90,52338,2,0,P|451:164|420:231,1,150,8|0,0:0|0:0,0:0:0:0:
151,357,53028,6,0,P|147:283|178:216,1,150,6|4,0:0|0:0,0:0:0:0:
252,163,53545,1,0,0:0:0:0:
331,207,53718,2,0,P|369:210|406:209,2,75,8|0|0,0:0|0:0|0:0,0:0:0:0:
291,82,54235,1,8,0:0:0:0:
252,163,54407,6,0,P|246:235|295:289,1,150,2|4,0:0|0:0,0:0:0:0:
487,225,55097,2,0,P|493:153|444:99,1,150,8|0,0:0|0:0,0:0:0:0:
354,89,55614,1,0,0:0:0:0:
252,163,55787,6,0,P|178:165|104:154,1,150,6|4,0:0|0:0,0:0:0:0:
354,89,56476,2,0,P|374:196|302:278,1,225,8|8,0:0|0:0,0:0:0:0:
201,288,57166,5,2,0:0:0:0:
419,307,57511,1,4,0:0:0:0:
252,163,57855,2,0,P|179:154|112:186,1,150,8|0,0:0|0:0,0:0:0:0:
73,268,58373,1,0,0:0:0:0:
201,288,58545,6,0,L|350:269,1,150,6|4,0:0|0:0,0:0:0:0:
367,65,59235,2,0,P|315:117|306:191,1,150,8|0,0:0|0:0,0:0:0:0:
350,269,59752,1,8,0:0:0:0:
223,227,59924,6,0,P|277:275|350:269,1,150,0|4,0:0|0:0,0:0:0:0:
227,68,60614,1,8,0:0:0:0:
227,68,60959,2,0,P|209:101|207:138,1,75,0|0,0:0|0:0,0:0:0:0:
297,11,61304,5,6,0:0:0:0:
297,11,61649,2,0,P|315:44|317:81,1,75,4|0,0:0|0:0,0:0:0:0:
207,138,61993,2,0,P|210:101|227:69,2,75,8|0|0,0:0|0:0|0:0,0:0:0:0:
250,218,62511,1,8,0:0:0:0:
116,138,62683,6,0,P|72:197|86:268,1,150,2|4,0:0|0:0,0:0:0:0:
160,216,63200,1,0,0:0:0:0:
194,94,63373,2,0,P|135:50|64:64,1,150,8|0,0:0|0:0,0:0:0:0:
116,138,63890,1,0,0:0:0:0:
238,172,64062,6,0,L|388:163,1,150,6|4,0:0|0:0,0:0:0:0:
124,18,64752,2,0,L|120:167,1,150,8|0,0:0|0:0,0:0:0:0:
118,258,65269,1,8,0:0:0:0:
207,208,65442,6,0,L|203:133,1,75,2|0,0:0|0:0,0:0:0:0:
30,205,65787,2,0,L|40:130,1,75,4|0,0:0|0:0,0:0:0:0:
124,18,66131,1,8,0:0:0:0:
124,18,66304,2,0,L|122:92,1,75,0|2,0:0|0:0,0:0:0:0:
40,131,66649,1,0,0:0:0:0:
203,133,66821,6,0,P|186:205|138:261,1,150,6|8,0:0|0:0,0:0:0:0:
137,262,67511,1,8,0:0:0:0:
202,324,67683,2,0,P|235:342|272:346,1,75,8|0,0:0|0:0,0:0:0:0:
362,341,68028,1,4,0:0:0:0:
385,212,68200,5,14,0:0:0:0:
262,257,68373,1,8,0:0:0:0:
434,288,68545,2,0,P|461:261|475:227,1,75,12|12,0:0|0:0,0:0:0:0:
262,257,68890,2,0,P|259:294|265:331,1,75,14|0,0:0|0:0,0:0:0:0:
385,212,69235,1,4,0:0:0:0:
220,178,69407,1,4,0:0:0:0:
445,301,69580,6,0,P|495:228|475:143,1,179.999994506836,14|4,0:1|0:0,0:0:0:0:
147,259,70269,2,0,L|149:348,2,89.9999972534181,8|0|0,0:0|0:0|0:0,0:0:0:0:
220,178,70787,1,8,0:0:0:0:
396,238,70959,6,0,L|307:244,1,89.9999972534181,6|0,0:0|0:0,0:0:0:0:
292,97,71304,2,0,L|381:103,1,89.9999972534181,4|0,0:0|0:0,0:0:0:0:
220,178,71649,2,0,P|184:98|218:18,1,179.999994506836,8|0,0:0|0:0,0:0:0:0:
292,97,72166,1,0,0:0:0:0:
283,267,72338,6,0,L|194:261,1,89.9999972534181,6|0,0:0|0:0,0:0:0:0:
355,187,72683,2,0,L|444:181,1,89.9999972534181,4|0,0:0|0:0,0:0:0:0:
375,324,73028,2,0,P|303:373|218:353,1,179.999994506836,8|0,0:0|0:0,0:0:0:0:
283,267,73545,1,8,0:0:0:0:
471,275,73718,5,2,0:0:0:0:
267,153,74062,1,4,0:0:0:0:
475,37,74407,1,8,0:0:0:0:
475,37,74752,2,0,L|469:126,1,89.9999972534181,0|0,0:0|0:0,0:0:0:0:
334,257,75097,6,0,P|315:171|365:99,1,179.999994506836,6|4,0:0|0:0,0:0:0:0:
191,0,75787,2,0,P|210:86|160:158,1,179.999994506836,8|0,0:0|0:0,0:0:0:0:
0,92,76304,1,8,0:0:0:0:
104,65,76476,5,2,0:0:0:0:
63,299,76821,1,4,0:0:0:0:
283,170,77166,2,0,P|327:162|371:158,1,89.9999972534181,8|0,0:0|0:0,0:0:0:0:
413,57,77511,2,0,P|369:49|325:45,1,89.9999972534181,0|0,0:0|0:0,0:0:0:0:
152,75,77855,5,6,0:0:0:0:
372,158,78200,1,4,0:0:0:0:
101,170,78545,2,0,P|48:101|63:14,1,179.999994506836,8|0,0:0|0:0,0:0:0:0:
152,75,79062,1,8,0:0:0:0:
196,221,79235,6,0,P|167:254|127:274,1,89.9999972534181,2|0,0:0|0:0,0:0:0:0:
247,126,79580,1,4,0:0:0:0:
269,301,79752,1,8,0:0:0:0:
101,170,79924,2,0,P|95:125|102:81,1,89.9999972534181,8|0,0:0|0:0,0:0:0:0:
196,221,80269,1,8,0:0:0:0:
20,241,80442,1,8,0:0:0:0:
247,126,80614,6,0,P|301:195|285:281,1,179.999994506836,6|4,0:0|0:0,0:0:0:0:
285,281,81304,2,0,P|323:304|367:311,1,89.9999972534181,8|0,0:0|0:0,0:0:0:0:
476,304,81649,1,0,0:0:0:0:
360,203,81821,1,8,0:0:0:0:
207,206,81993,6,0,P|184:244|177:288,1,89.9999972534181,2|0,0:0|0:0,0:0:0:0:
282,128,82338,2,0,P|276:84|252:46,1,89.9999972534181,4|0,0:0|0:0,0:0:0:0:
285,281,82683,2,0,P|370:253|425:183,1,179.999994506836,8|0,0:0|0:0,0:0:0:0:
445,77,83200,1,0,0:0:0:0:
282,128,83373,6,0,P|193:136|103:132,1,179.999994506836,6|4,0:0|0:0,0:0:0:0:
200,363,84062,2,0,P|289:355|379:359,1,179.999994506836,8|0,0:0|0:0,0:0:0:0:
486,384,84580,1,8,0:0:0:0:
410,254,84752,6,0,P|397:210|391:166,1,89.9999972534181,2|0,0:0|0:0,0:0:0:0:
508,31,85097,2,0,P|502:75|489:119,1,89.9999972534181,4|0,0:0|0:0,0:0:0:0:
286,141,85442,2,0,P|214:91|201:5,1,179.999994506836,8|0,0:0|0:0,0:0:0:0:
305,34,85959,1,0,0:0:0:0:
393,160,86131,6,0,P|343:232|257:245,2,179.999994506836,6|4|8,0:0|0:0|0:0,0:0:0:0:
393,160,87166,1,0,0:0:0:0:
305,34,87338,1,8,0:0:0:0:
286,141,87511,5,2,0:0:0:0:
412,53,87683,1,0,0:0:0:0:
203,71,87855,2,0,P|178:159|223:229,1,179.999994506836,4|8,0:0|0:0,0:0:0:0:
223,229,88545,2,0,P|184:249|139:256,1,89.9999972534181,0|0,0:0|0:0,0:0:0:0:
286,141,88890,6,0,P|332:215|307:299,2,179.999994506836,6|4|8,0:0|0:0|0:0,0:0:0:0:
286,141,89924,1,0,0:0:0:0:
168,82,90097,1,8,0:0:0:0:
56,193,90269,6,0,P|134:235|223:229,1,179.999994506836,14|2,0:1|0:0,0:0:0:0:
223,229,91304,1,0,0:0:0:0:
295,176,91476,1,0,0:0:0:0:
325,91,91649,5,6,0:0:0:0:
338,294,102683,6,0,P|386:238|389:164,2,150,6|0|0,0:0|0:0|0:0,0:0:0:0:
338,294,103718,2,0,P|301:285|264:283,1,75,2|0,0:0|0:0,0:0:0:0:
100,294,104062,6,0,P|137:285|174:283,1,75,0|0,0:0|0:0,0:0:0:0:
264,283,104407,1,4,0:0:0:0:
264,283,104752,2,0,P|234:349|165:372,1,150,8|0,0:0|0:0,0:0:0:0:
26,212,105442,6,0,P|56:146|125:123,1,150,6|0,0:0|0:0,0:0:0:0:
215,135,105959,1,0,0:0:0:0:
251,255,106131,2,0,P|177:254|116:211,1,150,0|2,0:0|0:0,0:0:0:0:
126,123,106649,1,0,0:0:0:0:
295,176,106821,6,0,P|339:233|326:305,2,150,0|4|8,0:0|0:0|0:0,0:0:0:0:
295,176,107855,2,0,L|302:101,1,75,0|0,0:0|0:0,0:0:0:0:
428,159,108200,6,0,P|365:196|295:176,1,150,6|0,0:0|0:0,0:0:0:0:
14,117,108890,2,0,P|77:80|147:100,1,150,0|2,0:0|0:0,0:0:0:0:
209,165,109407,1,0,0:0:0:0:
97,244,109580,6,0,L|88:169,1,75,0|0,0:0|0:0,0:0:0:0:
209,165,109924,1,4,0:0:0:0:
44,317,110269,1,8,0:0:0:0:
44,317,110614,2,0,L|35:242,1,75
157,297,110959,6,0,P|85:297|35:243,1,150,6|0,0:0|0:0,0:0:0:0:
52,38,111649,2,0,P|124:38|174:92,1,150,0|2,0:0|0:0,0:0:0:0:
155,181,112166,1,0,0:0:0:0:
17,143,112338,6,0,L|89:120,1,75
155,181,112683,1,4,0:0:0:0:
405,141,113028,2,0,P|273:76|228:134,1,150,8|0,0:0|0:0,0:0:0:0:
215,113,113545,1,0,0:0:0:0:
316,155,113718,6,0,L|303:304,1,150,6|0,0:0|0:0,0:0:0:0:
96,155,114407,2,0,L|102:229,1,75,0|0,0:0|0:0,0:0:0:0:
82,318,114752,1,2,0:0:0:0:
160,362,114924,1,0,0:0:0:0:
245,245,115097,6,0,P|173:219|102:230,1,150,0|4,0:0|0:0,0:0:0:0:
362,136,115787,2,0,P|324:145|280:144,1,75,8|0,0:0|0:0,0:0:0:0:
422,69,116131,1,0,0:0:0:0:
512,69,116304,1,0,0:0:0:0:
362,136,116476,6,0,P|331:69|361:2,1,150,6|0,0:0|0:0,0:0:0:0:
422,69,116993,1,0,0:0:0:0:
429,196,117166,2,0,P|362:227|295:197,1,150,0|2,0:0|0:0,0:0:0:0:
240,127,117683,1,0,0:0:0:0:
158,164,117855,6,0,L|83:169,2,75,0|0|4,0:0|0:0|0:0,0:0:0:0:
240,127,118373,1,0,0:0:0:0:
125,79,118545,2,0,L|50:74,1,75,8|0,0:0|0:0,0:0:0:0:
83,169,118890,2,0,L|158:164,1,75,0|0,0:0|0:0,0:0:0:0:
236,6,119235,6,0,P|164:18|125:80,1,150,6|0,0:0|0:0,0:0:0:0:
158,164,119752,2,0,L|83:169,1,75,0|0,0:0|0:0,0:0:0:0:
125,79,120097,1,0,0:0:0:0:
214,93,120269,2,0,P|237:121|248:157,1,75,2|0,0:0|0:0,0:0:0:0:
260,329,120614,6,0,P|331:307|386:258,1,150,0|4,0:0|0:0,0:0:0:0:
386,257,121304,2,0,P|374:221|372:184,1,75,8|0,0:0|0:0,0:0:0:0:
415,105,121649,1,0,0:0:0:0:
390,18,121821,1,0,0:0:0:0:
249,107,121993,6,0,P|301:159|371:184,1,150,6|0,0:0|0:0,0:0:0:0:
415,105,122511,1,0,0:0:0:0:
249,107,122683,2,0,P|229:137|216:173,1,75,0|0,0:0|0:0,0:0:0:0:
240,310,123028,2,0,P|260:280|273:244,1,75,0|0,0:0|0:0,0:0:0:0:
107,259,123373,6,4,P|166:303|240:310,1,150,2|4,0:0|0:0,0:0:0:0:
345,220,123890,1,4,0:0:0:0:
215,174,124062,1,12,0:0:0:0:
330,308,124235,1,4,0:0:0:0:
429,187,124407,1,4,0:0:0:0:
345,220,124580,1,4,0:0:0:0:
215,174,124752,6,0,P|157:128|153:56,1,150,6|4,0:0|0:0,0:0:0:0:
429,187,125442,2,0,B|340:195|337:82|234:87,1,225,8|8,0:0|0:0,0:0:0:0:
422,96,126131,5,2,0:0:0:0:
298,230,126476,2,0,P|272:202|245:176,1,75,4|0,0:0|0:0,0:0:0:0:
358,162,126821,2,0,P|388:228|359:295,1,150,8|0,0:0|0:0,0:0:0:0:
271,316,127338,1,0,0:0:0:0:
245,177,127511,6,0,P|272:203|298:231,1,75,6|0,0:0|0:0,0:0:0:0:
315,374,127855,2,0,P|286:349|271:315,1,75,4|0,0:0|0:0,0:0:0:0:
358,162,128200,2,0,P|388:228|359:295,1,150,8|0,0:0|0:0,0:0:0:0:
269,145,128718,1,8,0:0:0:0:
393,79,128890,5,2,0:0:0:0:
298,230,129235,2,0,L|223:241,1,75,4|0,0:0|0:0,0:0:0:0:
358,162,129580,2,0,P|388:228|359:295,1,150,8|0,0:0|0:0,0:0:0:0:
278,336,130097,1,0,0:0:0:0:
149,251,130269,6,0,L|298:230,1,150,6|4,0:0|0:0,0:0:0:0:
98,59,130959,1,8,0:0:0:0:
15,240,131304,1,0,0:0:0:0:
15,150,131476,1,8,0:0:0:0:
15,330,131649,5,2,0:0:0:0:
199,165,131993,2,0,P|162:172|131:193,1,75,4|0,0:0|0:0,0:0:0:0:
287,184,132338,2,0,P|272:112|209:75,1,150,8|0,0:0|0:0,0:0:0:0:
318,312,133028,6,0,P|392:320|466:310,2,150,6|4|8,0:0|0:0|0:0,0:0:0:0:
318,312,134062,1,0,0:0:0:0:
257,184,134235,1,8,0:0:0:0:
329,238,134407,6,0,L|318:312,1,75,2|0,0:0|0:0,0:0:0:0:
257,184,134752,2,0,L|246:110,1,75,4|0,0:0|0:0,0:0:0:0:
422,145,135097,2,0,P|397:213|328:238,1,150,8|0,0:0|0:0,0:0:0:0:
257,184,135614,1,0,0:0:0:0:
422,145,135787,5,6,0:0:0:0:
204,307,136131,1,4,0:0:0:0:
422,145,136476,2,0,P|386:249|294:311,1,225,8|8,0:0|0:0,0:0:0:0:
225,163,137166,6,0,P|245:194|251:230,1,75,2|0,0:0|0:0,0:0:0:0:
204,307,137511,1,4,0:0:0:0:
287,99,137855,2,0,P|328:160|341:234,1,150,8|0,0:0|0:0,0:0:0:0:
293,311,138373,1,0,0:0:0:0:
428,261,138545,6,0,P|410:293|380:316,1,75,6|0,0:0|0:0,0:0:0:0:
293,311,138890,2,0,P|265:285|251:251,1,75,4|0,0:0|0:0,0:0:0:0:
420,189,139235,2,0,P|428:261|381:316,1,150,8|0,0:0|0:0,0:0:0:0:
293,311,139752,1,8,0:0:0:0:
314,167,139924,6,0,P|334:197|341:234,1,75,0|0,0:0|0:0,0:0:0:0:
227,145,140269,2,0,P|243:111|272:87,1,75,4|0,0:0|0:0,0:0:0:0:
251,232,140614,2,0,P|178:221|137:161,1,150,8|0,0:0|0:0,0:0:0:0:
443,115,141304,5,6,0:0:0:0:
227,145,141649,1,4,0:0:0:0:
443,115,141993,2,0,P|373:88|298:90,1,150,8|0,0:0|0:0,0:0:0:0:
227,145,142511,1,8,0:0:0:0:
180,280,142683,6,0,L|239:234,1,75,2|0,0:0|0:0,0:0:0:0:
144,110,143028,2,0,L|85:156,1,75,4|0,0:0|0:0,0:0:0:0:
227,145,143373,2,0,P|226:72|172:23,1,150,8|0,0:0|0:0,0:0:0:0:
82,32,143890,1,0,0:0:0:0:
85,156,144062,6,0,L|144:110,1,75,6|0,0:0|0:0,0:0:0:0:
2,190,144407,2,0,P|22:220|54:240,1,75,4|0,0:0|0:0,0:0:0:0:
227,145,144752,2,0,P|226:72|172:23,1,150,8|0,0:0|0:0,0:0:0:0:
144,110,145269,1,8,0:0:0:0:
192,228,145442,6,0,P|265:227|314:173,1,150,2|4,0:0|0:0,0:0:0:0:
227,145,145959,1,0,0:0:0:0:
109,193,146131,2,0,P|102:229|110:265,1,75,8|0,0:0|0:0,0:0:0:0:
227,145,146476,2,0,P|234:109|226:73,1,75,2|0,0:0|0:0,0:0:0:0:
26,158,146821,6,0,P|12:231|28:303,1,150,6|8,0:0|0:0,0:0:0:0:
289,334,147511,1,8,0:0:0:0:
260,249,147683,2,0,P|227:230|190:227,1,75,8|0,0:0|0:0,0:0:0:0:
289,334,148028,1,4,0:0:0:0:
333,197,148200,5,14,0:0:0:0:
191,227,148373,1,8,0:0:0:0:
363,282,148545,2,0,P|394:262|415:231,1,75,12|12,0:0|0:0,0:0:0:0:
202,138,148890,2,0,P|165:141|133:160,1,75,14|0,0:0|0:0,0:0:0:0:
333,197,149235,1,4,0:0:0:0:
191,227,149407,1,4,0:0:0:0:
398,284,149580,6,0,P|440:207|413:124,1,179.999994506836,14|4,0:1|0:0,0:0:0:0:
85,181,150269,2,0,P|59:144|51:100,1,89.9999972534181,8|0,0:0|0:0,0:0:0:0:
190,207,150614,1,0,0:0:0:0:
116,285,150787,1,8,0:0:0:0:
159,103,150959,5,6,0:0:0:0:
405,185,151304,2,0,P|362:199|318:195,1,89.9999972534181,4|0,0:0|0:0,0:0:0:0:
459,92,151649,2,0,P|510:162|492:248,1,179.999994506836,8|0,0:0|0:0,0:0:0:0:
393,292,152166,1,0,0:0:0:0:
341,125,152338,6,0,P|379:148|404:184,1,89.9999972534181,6|0,0:0|0:0,0:0:0:0:
305,228,152683,1,4,0:0:0:0:
512,185,153028,2,0,P|476:264|392:292,1,179.999994506836,8|0,0:0|0:0,0:0:0:0:
305,228,153545,1,8,0:0:0:0:
399,95,153718,6,0,L|405:185,1,89.9999972534181,2|0,0:0|0:0,0:0:0:0:
249,135,154062,2,0,L|255:45,1,89.9999972534181,4|0,0:0|0:0,0:0:0:0:
305,228,154407,2,0,L|311:318,1,89.9999972534181,8|0,0:0|0:0,0:0:0:0:
155,268,154752,2,0,L|161:178,1,89.9999972534181,0|0,0:0|0:0,0:0:0:0:
209,361,155097,6,0,P|122:371|55:315,1,179.999994506836,6|4,0:0|0:0,0:0:0:0:
109,62,155787,2,0,P|190:97|217:180,1,179.999994506836,8|0,0:0|0:0,0:0:0:0:
155,268,156304,1,8,0:0:0:0:
23,188,156476,6,0,P|64:170|108:170,1,89.9999972534181,2|0,0:0|0:0,0:0:0:0:
241,285,156821,2,0,P|196:285|154:267,1,89.9999972534181,4|0,0:0|0:0,0:0:0:0:
320,211,157166,1,8,0:0:0:0:
320,211,157511,2,0,P|361:193|405:193,1,89.9999972534181,0|0,0:0|0:0,0:0:0:0:
306,318,157855,6,0,P|231:272|214:186,2,179.999994506836,6|4|8,0:0|0:0|0:0,0:0:0:0:
306,318,158890,1,0,0:0:0:0:
214,187,159062,1,8,0:0:0:0:
386,153,159235,6,0,P|359:188|320:211,1,89.9999972534181,2|0,0:0|0:0,0:0:0:0:
111,219,159580,1,4,0:0:0:0:
288,108,159752,1,8,0:0:0:0:
189,293,159924,2,0,P|152:318|108:326,1,89.9999972534181,8|0,0:0|0:0,0:0:0:0:
214,187,160269,1,8,0:0:0:0:
282,348,160442,1,8,0:0:0:0:
111,219,160614,6,0,P|121:132|192:81,1,179.999994506836,6|4,0:0|0:0,0:0:0:0:
472,140,161304,2,0,L|482:51,2,89.9999972534181,8|0|0,0:0|0:0|0:0,0:0:0:0:
303,201,161821,1,8,0:0:0:0:
367,114,161993,6,0,L|377:25,1,89.9999972534181,2|0,0:0|0:0,0:0:0:0:
303,201,162338,2,0,L|313:290,1,89.9999972534181,4|0,0:0|0:0,0:0:0:0:
367,114,162683,2,0,P|281:95|210:145,1,179.999994506836,8|0,0:0|0:0,0:0:0:0:
174,247,163200,1,0,0:0:0:0:
323,380,163373,6,0,L|303:202,1,179.999994506836,6|4,0:0|0:0,0:0:0:0:
25,114,164062,2,0,L|45:292,1,179.999994506836,8|0,0:0|0:0,0:0:0:0:
128,363,164580,1,8,0:0:0:0:
226,221,164752,6,0,P|183:230|147:257,1,89.9999972534181,2|0,0:0|0:0,0:0:0:0:
325,265,165097,1,4,0:0:0:0:
325,265,165269,1,0,0:0:0:0:
270,122,165442,2,0,P|226:112|182:121,2,89.9999972534181,8|0|0,0:0|0:0|0:0,0:0:0:0:
291,367,166131,6,0,P|226:308|226:221,2,179.999994506836,6|4|8,0:0|0:0|0:0,0:0:0:0:
291,367,167166,1,0,0:0:0:0:
226,221,167338,1,8,0:0:0:0:
400,220,167511,6,0,P|366:250|324:265,1,89.9999972534181,2|0,0:0|0:0,0:0:0:0:
238,114,167855,2,0,P|280:127|313:159,1,89.9999972534181,4|0,0:0|0:0,0:0:0:0:
172,314,168200,2,0,P|120:243|138:157,1,179.999994506836,8|0,0:0|0:0,0:0:0:0:
238,114,168718,1,0,0:0:0:0:
384,239,168890,6,0,P|300:265|225:220,1,179.999994506836,6|4,0:0|0:0,0:0:0:0:
226,221,169580,2,0,P|207:180|206:135,1,89.9999972534181,8|0,0:0|0:0,0:0:0:0:
228,30,169924,1,0,0:0:0:0:
312,158,170097,1,8,0:0:0:0:
416,35,170269,6,0,B|424:83|424:83|438:94|438:94|470:172|427:245,1,225,14|0,0:1|0:0,0:0:0:0:
312,158,171649,6,0,P|282:226|293:299,1,150,6|4,0:0|0:0,0:0:0:0:
307,8,172338,2,0,L|312:157,1,150,8|0,0:0|0:0,0:0:0:0:
426,246,172855,1,8,0:0:0:0:
426,246,173028,5,0,0:0:0:0:
443,129,173200,1,4,0:0:0:0:
345,332,173373,1,4,0:0:0:0:
426,246,173545,1,4,0:0:0:0:
262,173,173718,1,8,0:0:0:0:
345,332,173890,6,0,P|392:296|426:246,1,120,12|0,0:0|0:0,0:0:0:0:
171,232,174407,6,0,L|160:321,1,89.9999972534181,14|0,0:1|0:0,0:0:0:0:
262,173,174752,2,0,L|251:84,1,89.9999972534181,4|0,0:0|0:0,0:0:0:0:
171,232,175097,2,0,P|244:279|330:257,1,179.999994506836,8|0,0:0|0:0,0:0:0:0:
398,173,175614,1,8,0:0:0:0:
251,84,175787,6,0,L|262:173,1,89.9999972534181,2|0,0:0|0:0,0:0:0:0:
319,0,176131,1,4,0:0:0:0:
330,257,176476,2,0,P|414:278|489:230,1,179.999994506836,8|0,0:0|0:0,0:0:0:0:
145,264,177166,6,0,L|134:353,1,89.9999972534181,6|0,0:0|0:0,0:0:0:0:
236,205,177511,2,0,L|225:116,1,89.9999972534181,4|0,0:0|0:0,0:0:0:0:
79,178,177855,1,8,0:0:0:0:
79,178,178200,1,0,0:0:0:0:
236,205,178373,1,8,0:0:0:0:
145,264,178545,6,0,L|134:353,1,89.9999972534181,0|0,0:0|0:0,0:0:0:0:
236,205,178890,2,0,P|161:156|78:178,1,179.999994506836,4|8,0:0|0:0,0:0:0:0:
79,178,179580,2,0,L|90:89,1,89.9999972534181,0|0,0:0|0:0,0:0:0:0:
299,118,179924,6,0,P|343:193|317:276,2,179.999994506836,6|4|8,0:0|0:0|0:0,0:0:0:0:
299,118,180959,1,0,0:0:0:0:
192,106,181131,1,8,0:0:0:0:
148,205,181304,6,0,P|191:214|235:205,1,89.9999972534181,2|0,0:0|0:0,0:0:0:0:
49,161,181649,2,0,L|40:251,1,89.9999972534181,4|0,0:0|0:0,0:0:0:0:
192,106,181993,2,0,L|183:16,1,89.9999972534181,8|0,0:0|0:0,0:0:0:0:
148,205,182338,2,0,P|191:214|235:205,1,89.9999972534181,0|0,0:0|0:0,0:0:0:0:
300,23,182683,6,0,P|343:14|387:23,1,89.9999972534181,6|0,0:0|0:0,0:0:0:0:
335,212,183028,2,0,L|344:122,1,89.9999972534181,4|0,0:0|0:0,0:0:0:0:
414,283,183373,1,8,0:0:0:0:
241,266,183545,1,0,0:0:0:0:
335,212,183718,1,0,0:0:0:0:
263,372,183890,1,8,0:0:0:0:
219,160,184062,6,0,P|244:122|280:96,1,89.9999972534181,2|0,0:0|0:0,0:0:0:0:
241,266,184407,1,4,0:0:0:0:
112,148,184580,1,8,0:0:0:0:
280,96,184752,1,8,0:0:0:0:
134,254,184924,6,0,P|101:204|112:148,1,120,12|0,0:0|0:0,0:0:0:0:
327,280,185442,6,0,L|338:369,1,89.9999972534181,14|0,0:1|0:0,0:0:0:0:
237,221,185787,2,0,L|248:132,1,89.9999972534181,4|0,0:0|0:0,0:0:0:0:
327,280,186131,1,8,0:0:0:0:
327,280,186476,1,0,0:0:0:0:
248,132,186649,1,8,0:0:0:0:
338,191,186821,6,0,L|327:280,1,89.9999972534181,2|0,0:0|0:0,0:0:0:0:
248,132,187166,1,4,0:0:0:0:
505,27,187511,1,8,0:0:0:0:
334,157,187855,2,0,P|289:148|247:132,1,89.999997253418,0|0,0:0|0:0,0:0:0:0:
149,45,188200,5,6,0:0:0:0:
205,324,188545,2,0,L|211:235,1,89.9999972534181,4|0,0:0|0:0,0:0:0:0:
61,225,188890,2,0,L|55:314,2,89.9999972534181,8|0|0,0:0|0:0|0:0,0:0:0:0:
141,152,189407,1,8,0:0:0:0:
205,324,189580,5,2,0:0:0:0:
205,324,189924,1,4,0:0:0:0:
135,62,190269,2,0,P|122:151|135:240,1,179.999994506836,8|0,0:0|0:0,0:0:0:0:
205,324,190787,1,0,0:0:0:0:
353,240,190959,6,0,P|366:151|353:62,2,179.999994506836,6|4|8,0:0|0:0|0:0,0:0:0:0:
353,240,191993,1,0,0:0:0:0:
512,316,192166,1,8,0:0:0:0:
443,233,192338,6,0,L|353:240,1,89.9999972534181,2|0,0:0|0:0,0:0:0:0:
198,320,192683,2,0,L|288:327,1,89.9999972534181,4|0,0:0|0:0,0:0:0:0:
33,242,193028,2,0,P|40:329|109:382,1,179.999994506836,8|0,0:0|0:0,0:0:0:0:
198,320,193545,1,0,0:0:0:0:
33,242,193718,5,6,0:0:0:0:
383,143,194062,1,4,0:0:0:0:
72,49,194407,1,8,0:0:0:0:
172,207,194580,1,8,0:0:0:0:
168,99,194752,1,8,0:0:0:0:
76,157,194924,1,12,0:0:0:0:
264,149,195097,5,14,0:0:0:0:
72,49,195269,1,8,0:0:0:0:
80,265,195442,1,12,0:0:0:0:
439,35,195787,2,0,P|349:29|260:44,1,179.999994506836,14|12,0:0|0:0,0:0:0:0:
168,99,196304,1,8,0:0:0:0:
176,266,196476,6,0,L|265:278,1,89.9999972534181,14|0,0:1|0:0,0:0:0:0:
104,186,196821,2,0,L|15:198,1,89.9999972534181,4|0,0:0|0:0,0:0:0:0:
168,99,197166,2,0,L|346:123,1,179.999994506836,8|0,0:0|0:0,0:0:0:0:
431,191,197683,1,8,0:0:0:0:
353,313,197855,6,0,P|332:273|329:228,1,89.9999972534181,2|0,0:0|0:0,0:0:0:0:
454,107,198200,2,0,P|451:151|431:191,1,89.9999972534181,4|0,0:0|0:0,0:0:0:0:
245,160,198545,2,0,P|251:72|320:18,1,179.999994506836,8|0,0:0|0:0,0:0:0:0:
234,319,199235,6,0,L|145:328,1,89.9999972534181,6|0,0:0|0:0,0:0:0:0:
312,244,199580,2,0,L|401:253,1,89.9999972534181,4|0,0:0|0:0,0:0:0:0:
245,160,199924,2,0,P|204:237|234:319,1,179.999994506836,8|0,0:0|0:0,0:0:0:0:
312,244,200442,1,8,0:0:0:0:
178,75,200614,6,0,L|89:66,1,89.9999972534181,2|0,0:0|0:0,0:0:0:0:
245,160,200959,2,0,L|334:151,1,89.9999972534181,4|0,0:0|0:0,0:0:0:0:
178,75,201304,2,0,P|137:152|166:234,1,179.999994506836,8|0,0:0|0:0,0:0:0:0:
462,188,201993,5,6,0:0:0:0:
462,188,202338,2,0,L|454:277,1,89.9999972534181,4|0,0:0|0:0,0:0:0:0:
404,96,202683,1,8,0:0:0:0:
355,321,203028,1,0,0:0:0:0:
297,229,203200,1,8,0:0:0:0:
462,188,203373,6,0,L|454:277,1,89.9999972534181,2|0,0:0|0:0,0:0:0:0:
363,144,203718,2,0,L|355:54,1,89.9999972534181,6|0,0:0|0:0,0:0:0:0:
297,229,204062,1,10,0:0:0:0:
297,229,204407,1,2,0:0:0:0:
138,53,204752,6,0,L|48:60,1,89.9999972534181,6|0,0:0|0:0,0:0:0:0:
175,155,205097,2,0,L|265:162,1,89.9999972534181,4|0,0:0|0:0,0:0:0:0:
317,39,205442,2,0,L|137:53,1,179.999994506836,8|0,0:0|0:0,0:0:0:0:
265,162,205959,1,8,0:0:0:0:
369,134,206131,5,2,0:0:0:0:
369,134,206476,1,4,0:0:0:0:
118,191,206821,2,0,P|94:275|141:349,1,179.999994506836,10|0,0:0|0:0,0:0:0:0:
378,255,207511,6,0,B|290:232|201:260|201:260|230:207,1,240,2|0,0:0|0:0,0:0:0:0:
445,105,208545,6,0,B|421:155|421:155|490:186|509:276|452:334,1,269.999991760254,0|0,0:0|0:0,0:0:0:0:
445,105,210269,5,2,0:0:0:0:
351,159,210614,1,0,0:0:0:0:
244,178,210959,1,0,0:0:0:0:
137,159,211304,1,0,0:0:0:0:
43,105,211649,6,0,P|33:191|91:257,1,179.999994506836,2|0,0:0|0:0,0:0:0:0:
91,257,213028,6,0,P|33:191|43:105,1,179.999994506836,2|0,0:0|0:0,0:0:0:0:
137,159,214062,1,0,0:0:0:0:
231,105,214407,1,2,0:0:0:0:
325,159,215097,1,0,0:0:0:0:
395,242,215787,5,2,0:0:0:0:
325,159,216131,1,0,0:0:0:0:
231,105,216476,1,0,0:0:0:0:
231,105,217166,5,2,0:0:0:0:
325,159,217511,1,0,0:0:0:0:
419,105,217855,1,0,0:0:0:0:
419,105,218545,5,2,0:0:0:0:
325,159,218890,1,0,0:0:0:0:
419,105,219235,1,0,0:0:0:0:
325,51,219580,1,0,0:0:0:0:
217,51,219924,6,0,P|226:94|253:130,1,89.9999972534181,2|0,0:0|0:0,0:0:0:0:
325,51,220614,1,0,0:0:0:0:
359,154,220959,1,0,0:0:0:0:
359,154,221131,1,0,0:0:0:0:
217,51,221304,6,0,P|142:60|75:93,1,150,6|0,0:0|0:0,0:0:0:0:
76,93,221993,2,0,L|67:18,1,75,0|0,0:0|0:0,0:0:0:0:
9,153,222338,2,0,L|0:228,1,75,0|0,0:0|0:0,0:0:0:0:
92,335,222683,6,0,P|162:359|237:363,1,150,2|0,0:0|0:0,0:0:0:0:
0,227,223373,1,0,0:0:0:0:
237,363,223718,1,4,0:0:0:0:
218,89,224062,6,0,P|192:159|182:233,1,150,6|0,0:0|0:0,0:0:0:0:
289,34,224752,1,0,0:0:0:0:
182,233,225097,1,0,0:0:0:0:
384,129,225442,5,2,0:0:0:0:
127,67,225787,1,0,0:0:0:0:
127,67,226131,2,0,P|133:103|132:141,1,75,0|0,0:0|0:0,0:0:0:0:
100,225,226476,1,4,0:0:0:0:
359,19,226821,6,0,P|446:6|512:64,1,179.999994506836,14|0,0:1|0:0,0:0:0:0:
511,63,227511,2,0,P|499:107|499:152,1,89.9999972534181,2|8,0:0|0:0,0:0:0:0:
512,258,227855,1,4,0:0:0:0:
426,323,228028,1,8,0:0:0:0:
322,206,228200,6,0,L|412:215,1,89.9999972534181,6|0,0:0|0:0,0:0:0:0:
214,206,228545,2,0,L|124:215,1,89.9999972534181,4|0,0:0|0:0,0:0:0:0:
268,112,228890,1,8,0:0:0:0:
268,112,229235,1,8,0:0:0:0:
268,4,229407,1,8,0:0:0:0:
322,206,229580,6,0,L|412:215,1,89.9999972534181,6|0,0:0|0:0,0:0:0:0:
169,156,229924,2,0,L|79:165,1,89.9999972534181,4|0,0:0|0:0,0:0:0:0:
282,306,230269,2,0,L|372:315,1,89.9999972534181,12|0,0:0|0:0,0:0:0:0:
129,256,230614,2,0,L|39:265,1,89.9999972534181,4|0,0:0|0:0,0:0:0:0:
268,112,230959,5,14,0:1:0:0:
282,306,231131,1,14,0:0:0:0:
282,306,232338,6,0,P|211:358|126:341,1,179.999994506836,14|4,0:1|0:0,0:0:0:0:
294,65,233028,1,8,0:0:0:0:
188,253,233373,1,0,0:0:0:0:
241,159,233545,1,8,0:0:0:0:
135,347,233718,5,6,0:0:0:0:
335,212,234062,2,0,P|368:243|386:283,1,89.9999972534181,4|0,0:0|0:0,0:0:0:0:
241,159,234407,2,0,P|311:106|397:124,1,179.999994506836,8|0,0:0|0:0,0:0:0:0:
77,262,235097,6,0,L|71:172,1,89.9999972534181,6|0,0:0|0:0,0:0:0:0:
145,9,235442,2,0,L|151:99,1,89.9999972534181,4|0,0:0|0:0,0:0:0:0:
279,196,235787,2,0,P|194:175|151:98,1,179.999994506836,8|0,0:0|0:0,0:0:0:0:
259,90,236304,1,8,0:0:0:0:
385,176,236476,6,0,L|378:265,1,89.9999972534181,2|0,0:0|0:0,0:0:0:0:
365,70,236821,1,4,0:0:0:0:
378,266,237166,1,8,0:0:0:0:
378,266,237511,2,0,L|385:177,1,89.9999972534181,0|0,0:0|0:0,0:0:0:0:
287,324,237855,6,0,P|360:371|444:350,2,179.999994506836,6|4|8,0:0|0:0|0:0,0:0:0:0:
287,324,238890,1,0,0:0:0:0:
236,229,239062,1,8,0:0:0:0:
385,176,239235,6,0,L|378:265,1,89.9999972534181,2|0,0:0|0:0,0:0:0:0:
236,229,239580,2,0,L|229:140,1,89.9999972534181,4|0,0:0|0:0,0:0:0:0:
385,176,239924,2,0,P|299:192|229:139,1,179.999994506836,8|0,0:0|0:0,0:0:0:0:
324,86,240442,1,0,0:0:0:0:
180,42,240614,6,0,L|90:52,1,89.9999972534181,6|0,0:0|0:0,0:0:0:0:
324,86,240959,2,0,L|414:96,1,89.9999972534181,4|0,0:0|0:0,0:0:0:0:
229,139,241304,2,0,P|218:225|275:291,1,179.999994506836,8|0,0:0|0:0,0:0:0:0:
322,194,241821,1,8,0:0:0:0:
231,31,241993,6,0,P|187:39|150:65,2,89.9999972534181,2|0|4,0:0|0:0|0:0,0:0:0:0:
324,86,242511,1,8,0:0:0:0:
219,226,242683,2,0,P|215:180|229:138,1,89.9999972534181,8|2,0:0|0:0,0:0:0:0:
298,300,243028,1,8,0:0:0:0:
194,331,243200,1,8,0:0:0:0:
322,194,243373,6,0,P|392:246|400:333,2,179.999994506836,14|4|8,0:1|0:0|0:0,0:0:0:0:
322,194,244407,1,0,0:0:0:0:
219,226,244580,1,8,0:0:0:0:
315,85,244752,5,2,0:0:0:0:
113,207,245097,2,0,P|85:139|79:95,1,89.9999972534181,4|0,0:0|0:0,0:0:0:0:
219,226,245442,1,8,0:0:0:0:
219,226,245787,1,0,0:0:0:0:
113,207,245959,1,0,0:0:0:0:
322,194,246131,6,0,P|312:280|241:331,1,179.999994506836,6|4,0:0|0:0,0:0:0:0:
2,201,246821,2,0,P|12:115|83:64,1,179.999994506836,8|0,0:0|0:0,0:0:0:0:
192,52,247338,1,8,0:0:0:0:
105,169,247511,5,2,0:0:0:0:
300,65,247855,2,0,P|236:151|193:160,1,89.9999972534181,4|0,0:0|0:0,0:0:0:0:
105,169,248200,2,0,P|114:82|192:52,1,179.999994506836,8|0,0:0|0:0,0:0:0:0:
265,252,248890,5,6,0:0:0:0:
265,252,249235,1,4,0:0:0:0:
453,94,249580,2,0,P|443:180|372:231,1,179.999994506836,8|0,0:0|0:0,0:0:0:0:
265,252,250097,1,8,0:0:0:0:
265,100,250269,6,0,P|309:106|349:126,1,89.9999972534181,2|0,0:0|0:0,0:0:0:0:
265,252,250614,2,0,P|221:246|181:226,1,89.9999972534181,4|0,0:0|0:0,0:0:0:0:
371,231,250959,2,0,P|351:316|274:358,1,179.999994506836,8|0,0:0|0:0,0:0:0:0:
175,314,251476,1,0,0:0:0:0:
257,163,251649,6,0,L|265:253,1,89.9999972534181,6|0,0:0|0:0,0:0:0:0:
145,210,251993,2,0,L|153:120,1,89.9999972534181,4|0,0:0|0:0,0:0:0:0:
345,101,252338,2,0,L|353:191,1,89.9999972534181,8|0,0:0|0:0,0:0:0:0:
247,55,252683,1,0,0:0:0:0:
433,38,252855,1,8,0:0:0:0:
421,275,253028,6,0,B|382:311|311:308|271:263|271:263|231:281|231:281|177:274|137:239,1,314.999990386963,6|0,0:0|0:0,0:0:0:0:
208,106,254407,6,0,L|214:195,1,89.9999972534181,2|0,0:0|0:0,0:0:0:0:
20,175,255097,1,0,0:0:0:0:
25,94,255270,1,0,0:0:0:0:
30,13,255442,1,0,0:0:0:0:
289,153,255787,6,0,L|295:242,1,89.9999972534181,2|0,0:0|0:0,0:0:0:0:
101,222,256476,1,0,0:0:0:0:
106,141,256648,1,0,0:0:0:0:
111,60,256821,1,0,0:0:0:0:
370,200,257166,6,0,L|376:289,1,89.9999972534181,2|0,0:0|0:0,0:0:0:0:
182,269,257855,1,0,0:0:0:0:
187,188,258028,1,0,0:0:0:0:
192,107,258200,1,0,0:0:0:0:
451,247,258545,6,0,L|457:336,1,89.9999972534181,2|0,0:0|0:0,0:0:0:0:
263,316,259235,2,0,L|269:227,1,89.9999972534181,0|0,0:0|0:0,0:0:0:0:
424,171,259924,6,0,P|468:167|507:189,1,89.9999972534181,2|0,0:0|0:0,0:0:0:0:
269,226,260614,1,0,0:0:0:0:
274,145,260787,1,0,0:0:0:0:
279,64,260959,1,0,0:0:0:0:
264,307,261304,5,2,0:0:0:0:
264,307,261649,1,0,0:0:0:0:
165,179,261993,1,0,0:0:0:0:
279,64,262338,1,0,0:0:0:0:
279,64,262683,6,0,P|297:104|300:149,1,89.9999972534181,2|0,0:0|0:0,0:0:0:0:
239,203,263200,2,0,P|241:247|259:288,1,89.9999972534181,0|0,0:0|0:0,0:0:0:0:
300,149,263718,5,0,0:0:0:0:
300,149,264407,2,0,P|305:176|306:204,1,56.2499982833863,0|0,0:0|0:0,0:0:0:0:
256,192,265787,12,0,273718,0:0:0:0:
