osu file format v14

[General]
AudioFilename: opto.mp3
AudioLeadIn: 0
PreviewTime: 174063
Countdown: 0
SampleSet: Soft
StackLeniency: 0.7
Mode: 0
LetterboxInBreaks: 0
WidescreenStoryboard: 0

[Editor]
Bookmarks: 11649,22683,44752,69580,91649,102683,124752,149580,171649,174407,196476,210269,232338,254407
DistanceSpacing: 2
BeatDivisor: 8
GridSize: 16
TimelineZoom: 2.4

[Metadata]
Title:Ima, Arukidasu Kimi e.
TitleUnicode:今、歩き出す君へ。
Artist:Ceui
ArtistUnicode:Ceui
Creator:Shad0w1and
Version:Hikari
Source:いますぐお兄ちゃんに妹だっていいたい!
Tags:fairys Nichiyouki nich95 CelsiusLK Pata-Mon
BeatmapID:913606
BeatmapSetID:422600

[Difficulty]
HPDrainRate:6
CircleSize:4
OverallDifficulty:8.2
ApproachRate:8.8
SliderMultiplier:3
SliderTickRate:1

[Events]
//Background and Video events
Video,0,"opto.flv"
0,0,"BG1.jpg",0,0
//Break Periods
//Storyboard Layer 0 (Background)
//Storyboard Layer 1 (Fail)
//Storyboard Layer 2 (Pass)
//Storyboard Layer 3 (Foreground)
//Storyboard Sound Samples

[TimingPoints]
-2144,689.655172413793,4,2,1,40,1,0
614,-133.333333333333,4,3,1,40,0,0
11649,-100,4,2,1,80,0,0
22683,-133.333333333333,4,2,1,60,0,0
33718,-125,4,2,1,60,0,0
43718,-125,4,2,1,60,0,0
44752,-117.647058823529,4,2,1,70,0,0
64063,-105.263157894737,4,2,1,80,0,0
68200,-105.263157894737,4,2,1,60,0,0
69235,-105.263157894737,4,2,1,80,0,0
69580,-90.9090909090909,4,2,1,100,0,1
91649,-117.647058823529,4,3,1,60,0,0
101649,-117.647058823529,4,2,1,40,0,0
102683,-117.647058823529,4,2,1,60,0,0
124752,-117.647058823529,4,2,1,70,0,0
144063,-105.263157894737,4,2,1,80,0,0
149580,-90.9090909090909,4,2,1,100,0,1
171649,-90.9090909090909,4,2,1,100,0,0
174407,-83.3333333333333,4,2,1,100,0,1
193718,-83.3333333333333,4,2,1,100,0,0
196476,-83.3333333333333,4,2,1,100,0,1
207511,-100,4,2,1,100,0,0
207597,-100,4,2,1,60,0,0
208200,-100,4,2,1,50,0,0
208890,-100,4,2,1,40,0,0
209580,-100,4,2,1,20,0,0
210269,-133.333333333333,4,3,1,50,0,0
221304,-105.263157894737,4,2,1,60,0,0
226821,-105.263157894737,4,2,1,80,0,0
231304,-100,4,2,1,85,0,0
231649,-95.2380952380952,4,2,1,90,0,0
231993,-90.9090909090909,4,2,1,95,0,0
232338,-86.9565217391304,4,2,1,100,0,1
254407,-133.333333333333,4,3,1,50,0,0
265442,-133.333333333333,4,3,1,40,0,0
266821,-133.333333333333,4,3,1,35,0,0
268200,-133.333333333333,4,3,1,30,0,0
269580,-133.333333333333,4,3,1,25,0,0
270959,-133.333333333333,4,3,1,20,0,0
272338,-133.333333333333,4,3,1,15,0,0
273718,-133.333333333333,4,3,1,10,0,0

[Colours]
Combo1 : 248,252,86
Combo2 : 128,255,166
Combo3 : 119,181,255
Combo4 : 245,84,108

[HitObjects]
124,110,614,6,0,L|12:117,1,112.500004291535,2|0,0:0|0:0,0:0:0:0:
155,306,1304,1,0,0:0:0:0:
191,200,1476,1,0,0:0:0:0:
52,259,1649,1,0,0:0:0:0:
52,259,1993,6,0,L|58:371,1,112.500004291535,2|0,0:0|0:0,0:0:0:0:
247,228,2683,1,0,0:0:0:0:
141,192,2855,1,0,0:0:0:0:
200,331,3028,1,0,0:0:0:0:
200,331,3373,6,0,L|312:324,1,112.500004291535,2|0,0:0|0:0,0:0:0:0:
169,135,4063,1,0,0:0:0:0:
133,241,4235,1,0,0:0:0:0:
272,182,4408,1,0,0:0:0:0:
272,182,4752,6,0,L|256:54,1,112.500004291535,2|0,0:0|0:0,0:0:0:0:
482,45,5442,2,0,L|466:169,1,112.500004291535,0|0,0:0|0:0,0:0:0:0:
312,324,6131,6,0,L|199:313,1,112.500004291535,2|0,0:0|0:0,0:0:0:0:
269,98,6821,1,0,0:0:0:0:
186,173,6993,1,0,0:0:0:0:
367,156,7166,1,0,0:0:0:0:
367,156,7511,5,2,0:0:0:0:
278,220,7856,1,0,0:0:0:0:
312,324,8201,1,0,0:0:0:0:
421,324,8546,1,0,0:0:0:0:
455,220,8890,6,0,L|328:203,1,112.500004291535,2|0,0:0|0:0,0:0:0:0:
250,144,9407,2,0,L|363:127,1,112.500004291535,0|0,0:0|0:0,0:0:0:0:
193,222,9924,1,2,0:0:0:0:
193,222,10442,5,0,0:0:0:0:
205,244,10528,1,0,0:0:0:0:
217,265,10614,1,0,0:0:0:0:
231,285,10700,6,0,L|252:321,3,28.1250010728836,2|0|0|2,0:0|0:0|0:0|0:0,0:0:0:0:
349,225,11649,6,0,P|338:305|337:374,1,150,14|0,0:1|0:0,0:0:0:0:
502,262,12166,2,0,P|500:170|489:100,1,150,8|0,0:0|0:0,0:0:0:0:
344,80,12683,1,6,0:0:0:0:
344,80,13028,6,0,P|304:84|250:81,1,75,2|0,0:0|0:0,0:0:0:0:
188,207,13373,2,0,P|158:180|132:137,1,75,4|0,0:0|0:0,0:0:0:0:
150,17,13718,1,8,0:0:0:0:
307,361,14062,1,0,0:0:0:0:
186,300,14235,1,0,0:0:0:0:
306,227,14407,6,0,P|383:217|488:217,1,150,6|0,0:0|0:0,0:0:0:0:
352,94,14924,2,0,P|248:99|202:95,1,150,8|0,0:0|0:0,0:0:0:0:
53,122,15442,2,0,P|110:175|126:259,1,150,6|2,0:0|0:0,0:0:0:0:
0,240,15959,5,0,0:0:0:0:
53,122,16131,2,0,L|138:116,1,75,4|0,0:0|0:0,0:0:0:0:
277,129,16476,1,8,0:0:0:0:
194,255,16649,1,0,0:0:0:0:
127,116,16821,2,0,P|145:82|161:38,1,75,4|0,0:0|0:0,0:0:0:0:
327,50,17166,6,0,P|325:128|329:216,1,150,6|0,0:0|0:0,0:0:0:0:
451,114,17683,1,0,0:0:0:0:
298,114,17855,2,0,L|223:111,1,75,8|0,0:0|0:0,0:0:0:0:
124,265,18200,2,0,L|215:257,1,75,4|0,0:0|0:0,0:0:0:0:
433,186,18545,6,0,P|444:151|451:100,1,75,2|0,0:0|0:0,0:0:0:0:
256,206,18890,2,0,L|270:279,1,75,4|0,0:0|0:0,0:0:0:0:
226,83,19235,1,8,0:0:0:0:
351,164,19407,1,8,0:0:0:0:
143,207,19580,2,0,L|67:188,1,75,4|0,0:0|0:0,0:0:0:0:
142,57,19924,6,0,P|222:60|298:-6,1,150,6|0,0:0|0:0,0:0:0:0:
403,81,20442,1,0,0:0:0:0:
266,158,20614,2,0,L|281:239,1,75,2|0,0:0|0:0,0:0:0:0:
425,277,20959,2,0,L|431:200,1,75,0|0,0:0|0:0,0:0:0:0:
325,360,21304,5,2,0:3:0:0:
216,329,21476,1,0,3:0:0:0:
107,297,21649,1,0,3:0:0:0:
0,262,21993,5,2,3:3:0:0:
0,262,22338,2,0,L|20:175,1,75
96,32,22683,6,0,L|112:144,1,112.500004291535,2|0,0:0|0:0,0:0:0:0:
224,224,23200,2,0,L|240:112,1,112.500004291535,0|0,0:0|0:0,0:0:0:0:
352,32,23718,2,0,L|368:144,1,112.500004291535,2|0,0:0|0:0,0:0:0:0:
373,175,24407,1,0,0:0:0:0:
379,206,24752,1,0,0:0:0:0:
386,237,25097,2,0,L|326:230,1,56.2500021457673,0|0,0:0|0:0,0:0:0:0:
229,178,25442,6,0,P|231:237|237:303,1,112.500004291535,2|0,0:0|0:0,0:0:0:0:
116,383,25959,2,0,P|119:329|119:254,1,112.500004291535,0|0,0:0|0:0,0:0:0:0:
7,136,26476,2,0,P|6:199|8:259,1,112.500004291535,2|0,0:0|0:0,0:0:0:0:
201,363,27166,1,0,0:0:0:0:
128,149,27511,1,0,0:0:0:0:
27,339,27855,2,0,L|96:332,1,56.2500021457673,0|0,0:0|0:0,0:0:0:0:
192,288,28200,6,0,L|304:304,1,112.500004291535,2|0,0:0|0:0,0:0:0:0:
400,176,28718,2,0,L|288:192,1,112.500004291535,0|0,0:0|0:0,0:0:0:0:
192,64,29235,2,0,L|304:80,1,112.500004291535,2|0,0:0|0:0,0:0:0:0:
154,248,29924,1,0,0:0:0:0:
0,85,30269,1,0,0:0:0:0:
209,10,30614,2,0,L|192:64,1,56.2500021457673,0|0,0:0|0:0,0:0:0:0:
224,176,30959,6,0,P|219:229|240:288,1,112.500004291535,2|0,0:0|0:0,0:0:0:0:
329,219,31476,2,0,P|385:240|468:210,1,112.500004291535,0|0,0:0|0:0,0:0:0:0:
395,126,31993,2,0,L|379:62,1,56.2500021457673,2|0,0:0|0:0,0:0:0:0:
304,198,32338,2,0,L|295:257,1,56.2500021457673,0|0,0:0|0:0,0:0:0:0:
239,108,32683,1,0,0:0:0:0:
464,108,33028,1,0,0:0:0:0:
356,305,33373,2,0,L|278:288,1,56.2500021457673,0|0,0:0|0:0,0:0:0:0:
80,240,33718,6,0,L|211:222,1,120,6|0,0:0|0:0,0:0:0:0:
304,142,34235,2,0,L|185:116,1,120,0|0,0:0|0:0,0:0:0:0:
388,225,34752,1,2,0:0:0:0:
388,225,35097,2,0,P|416:175|399:85,1,120,0|4,0:0|0:0,0:0:0:0:
229,221,35787,1,8,0:0:0:0:
229,221,36131,2,0,L|217:325,1,60,0|0,0:0|0:0,0:0:0:0:
349,235,36476,6,0,L|485:229,1,120,6|0,0:0|0:0,0:0:0:0:
280,319,36993,2,0,L|130:308,1,120
79,218,37511,1,2,0:0:0:0:
79,218,37855,2,0,L|67:293,1,60,0|0,0:0|0:0,0:0:0:0:
17,107,38200,2,0,L|-1:173,1,60,4|0,0:0|0:0,0:0:0:0:
91,42,38545,1,8,0:0:0:0:
91,42,38890,2,0,L|198:58,1,60,0|0,0:0|0:0,0:0:0:0:
237,171,39235,6,0,P|302:184|384:148,1,120,6|0,0:0|0:0,0:0:0:0:
468,45,39752,2,0,L|463:108,1,60
470,227,40097,2,0,L|465:290,1,60
352,235,40442,2,0,P|296:222|233:238,1,120,2|0,0:0|0:0,0:0:0:0:
158,328,40959,2,0,P|94:340|36:321,1,120,4|8,0:0|0:0,0:0:0:0:
345,76,41649,2,0,L|333:152,1,60,0|0,0:0|0:0,0:0:0:0:
216,142,41993,6,0,L|197:5,1,120,6|0,0:0|0:0,0:0:0:0:
141,222,42511,2,0,L|48:109,1,120,0|0,0:0|0:0,0:0:0:0:
120,330,43028,2,0,L|-18:302,1,120,2|0,0:0|0:0,0:0:0:0:
241,252,43718,2,4,L|299:237,1,60
364,151,44062,5,12,0:0:0:0:
466,184,44235,1,4,0:0:0:0:
466,292,44407,1,4,0:0:0:0:
363,325,44580,1,4,0:0:0:0:
300,238,44752,6,0,L|318:384,1,127.50000243187,6|4,0:0|0:0,0:0:0:0:
501,188,45442,2,0,L|514:28,1,127.50000243187,8|0,0:0|0:0,0:0:0:0:
389,20,45959,1,8,0:0:0:0:
288,95,46131,2,0,P|235:94|160:85,1,127.50000243187,2|4,0:0|0:0,0:0:0:0:
161,85,46821,1,8,0:0:0:0:
366,262,47166,6,0,L|362:362,1,63.7500012159348,0|0,0:0|0:0,0:0:0:0:
242,215,47511,2,0,L|248:286,1,63.7500012159348,6|0,0:0|0:0,0:0:0:0:
130,275,47855,2,0,L|120:370,1,63.7500012159348,4|0,0:0|0:0,0:0:0:0:
41,204,48200,1,8,0:0:0:0:
124,121,48373,2,0,L|208:129,1,63.7500012159348
221,232,48718,1,8,0:0:0:0:
41,204,48890,2,0,L|33:48,1,127.50000243187,2|4,0:0|0:0,0:0:0:0:
286,123,49580,1,8,0:0:0:0:
221,232,49752,2,0,L|142:218,2,63.7500012159348,0|0|0,0:0|0:0|0:0,0:0:0:0:
359,351,50269,6,0,P|353:296|357:198,1,127.50000243187,6|4,0:0|0:0,0:0:0:0:
481,238,50787,1,0,0:0:0:0:
325,338,50959,2,0,L|187:318,1,127.50000243187,8|0,0:0|0:0,0:0:0:0:
134,208,51476,1,8,0:0:0:0:
31,277,51649,2,0,L|29:384,1,63.7500012159348,2|0,0:0|0:0,0:0:0:0:
29,340,51993,1,4,0:0:0:0:
165,66,52338,1,8,0:0:0:0:
75,157,52511,2,0,P|130:189|235:173,1,127.50000243187,0|0,0:0|0:0,0:0:0:0:
357,289,53028,6,0,P|295:289|230:303,1,127.50000243187,6|4,0:0|0:0,0:0:0:0:
108,336,53545,1,0,0:0:0:0:
53,217,53718,2,0,L|74:157,1,63.7500012159348,8|0,0:0|0:0,0:0:0:0:
441,242,54235,2,0,L|419:301,1,63.7500012159348,8|2,0:0|0:0,0:0:0:0:
296,337,54580,1,0,0:0:0:0:
201,251,54752,2,0,L|204:186,1,63.7500012159348,4|0,0:0|0:0,0:0:0:0:
328,216,55097,2,0,L|424:200,1,63.7500012159348,8|0,0:0|0:0,0:0:0:0:
200,281,55442,2,0,L|104:265,1,63.7500012159348,0|0,0:0|0:0,0:0:0:0:
291,158,55787,6,0,P|290:226|302:293,1,127.50000243187,6|4,0:0|0:0,0:0:0:0:
427,282,56304,1,0,0:0:0:0:
512,186,56476,2,0,P|448:180|385:171,1,127.50000243187,8|0,0:0|0:0,0:0:0:0:
295,80,56993,1,8,0:0:0:0:
201,166,57166,2,0,L|107:161,2,63.7500012159348,2|0|4,0:0|0:0|0:0,0:0:0:0:
389,340,57855,1,8,0:0:0:0:
416,80,58200,6,0,L|384:144,1,63.7500012159348,0|0,0:0|0:0,0:0:0:0:
207,80,58545,2,0,L|179:137,1,63.7500012159348,6|0,0:0|0:0,0:0:0:0:
240,316,58890,6,0,L|272:252,1,63.7500012159348,4|0,0:0|0:0,0:0:0:0:
17,283,59235,2,0,L|45:225,1,63.7500012159348,8|0,0:0|0:0,0:0:0:0:
179,137,59580,5,0,0:0:0:0:
268,258,59752,2,0,P|319:264|412:258,1,127.50000243187,8|0,0:0|0:0,0:0:0:0:
458,105,60269,2,0,P|395:108|333:122,1,127.50000243187,4|8,0:0|0:0,0:0:0:0:
60,320,60959,2,0,L|47:252,1,63.7500012159348,0|0,0:0|0:0,0:0:0:0:
167,303,61304,6,0,P|219:324|327:283,1,127.50000243187,6|4,0:0|0:0,0:0:0:0:
237,195,61821,1,0,0:0:0:0:
127,130,61993,2,0,P|73:146|-5:121,1,127.50000243187,8|0,0:0|0:0,0:0:0:0:
69,16,62511,1,8,0:0:0:0:
211,89,62683,6,0,L|212:160,1,63.7500012159348,2|0,0:0|0:0,0:0:0:0:
386,298,63028,2,0,L|374:221,1,63.7500012159348,4|0,0:0|0:0,0:0:0:0:
346,99,63373,2,0,L|451:86,1,63.7500012159348,8|0,0:0|0:0,0:0:0:0:
246,272,63718,2,0,L|166:280,1,63.7500012159348,0|0,0:0|0:0,0:0:0:0:
0,247,64062,6,0,P|59:237|122:185,1,127.50000243187,6|4,0:0|0:0,0:0:0:0:
7,120,64580,1,0,0:0:0:0:
114,310,64752,2,0,P|165:333|268:304,1,142.49999619484,8|0,0:0|0:0,0:0:0:0:
309,205,65269,1,8,0:0:0:0:
196,128,65442,6,0,L|190:200,1,71.2499980974198,2|0,0:0|0:0,0:0:0:0:
325,344,65787,2,0,L|429:340,1,71.2499980974198,4|0,0:0|0:0,0:0:0:0:
512,222,66131,2,0,P|433:224|372:194,1,142.49999619484,8|2,0:0|0:0,0:0:0:0:
466,85,66649,1,0,0:0:0:0:
397,293,66821,6,0,L|306:309,1,71.2499980974198,6|0,0:0|0:0,0:0:0:0:
193,255,67166,1,8,0:0:0:0:
193,255,67511,1,8,0:0:0:0:
160,116,67683,2,0,P|81:103|8:94,1,142.49999619484,8|4,0:0|0:0,0:0:0:0:
193,255,68200,5,14,0:0:0:0:
292,366,68373,1,8,0:0:0:0:
321,181,68545,1,12,0:0:0:0:
191,284,68718,1,12,0:0:0:0:
397,293,68890,1,14,0:0:0:0:
397,293,69235,2,0,L|469:269,1,71.2499980974198,4|4,0:0|0:0,0:0:0:0:
499,125,69580,6,0,P|428:123|307:107,1,165.000005035401,14|4,0:1|0:0,0:0:0:0:
219,17,70097,1,0,0:0:0:0:
147,218,70269,2,0,P|194:207|235:202,1,82.5000025177003,8|0,0:0|0:0,0:0:0:0:
419,195,70614,1,0,0:0:0:0:
313,322,70787,1,8,0:0:0:0:
147,218,70959,6,0,P|140:136|137:52,2,165.000005035401,6|4|8,0:0|0:0|0:0,0:0:0:0:
480,254,71993,2,0,L|501:175,1,82.5000025177003
458,48,72338,6,0,P|376:75|288:46,1,165.000005035401,6|4,0:0|0:0,0:0:0:0:
74,196,73028,2,0,P|158:171|245:206,1,165.000005035401,8|0,0:0|0:0,0:0:0:0:
313,322,73545,1,8,0:0:0:0:
168,384,73718,6,0,L|159:299,1,82.5000025177003,2|0,0:0|0:0,0:0:0:0:
132,99,74062,1,4,0:0:0:0:
132,99,74407,1,8,0:0:0:0:
249,43,74580,2,0,P|260:89|255:134,1,82.5000025177003
122,247,74924,1,0,0:0:0:0:
339,208,75097,6,0,B|379:200|379:200|402:173|414:115|389:74,1,165.000005035401,6|4,0:0|0:0,0:0:0:0:
257,123,75614,1,0,0:0:0:0:
313,322,75787,2,0,P|367:305|457:305,2,123.75000377655,8|0|8,0:0|0:0|0:0,0:0:0:0:
196,152,76476,2,0,P|289:160|341:212,1,165.000005035401,2|4,0:0|0:0,0:0:0:0:
423,118,76993,5,0,0:0:0:0:
251,76,77166,1,8,0:0:0:0:
233,263,77338,1,0,0:0:0:0:
352,174,77511,1,0,0:0:0:0:
142,142,77683,1,0,0:0:0:0:
167,334,77855,6,0,P|251:306|356:298,1,165.000005035401,6|4,0:0|0:0,0:0:0:0:
467,325,78373,1,0,0:0:0:0:
233,263,78545,2,0,P|166:221|143:133,1,165.000005035401,8|0,0:0|0:0,0:0:0:0:
403,145,79062,5,8,0:0:0:0:
289,60,79235,2,0,P|274:97|267:146,1,82.5000025177003,2|0,0:0|0:0,0:0:0:0:
399,315,79580,1,4,0:0:0:0:
403,145,79752,1,8,0:0:0:0:
245,316,79924,1,8,0:0:0:0:
245,316,80269,1,8,0:0:0:0:
369,384,80442,1,8,0:0:0:0:
362,248,80614,6,0,B|372:191|404:145|404:145|377:129|349:128,1,165.000005035401,6|4,0:0|0:0,0:0:0:0:
249,197,81131,1,0,0:0:0:0:
383,334,81304,2,0,L|471:347,1,82.5000025177003,8|0,0:0|0:0,0:0:0:0:
345,165,81649,1,0,0:0:0:0:
245,316,81821,1,8,0:0:0:0:
167,174,81993,6,0,P|75:163|-26:164,1,165.000005035401,2|4,0:0|0:0,0:0:0:0:
343,31,82683,1,8,0:0:0:0:
463,116,82855,2,0,L|469:199,1,82.5000025177003
332,257,83200,1,0,0:0:0:0:
296,98,83373,6,0,L|133:69,1,165.000005035401,6|4,0:0|0:0,0:0:0:0:
249,197,83890,1,0,0:0:0:0:
416,144,84062,2,0,P|423:86|396:16,2,123.75000377655,8|0|8,0:0|0:0|0:0,0:0:0:0:
268,256,84752,6,0,L|186:265,1,82.5000025177003,2|0,0:0|0:0,0:0:0:0:
16,184,85097,1,4,0:0:0:0:
63,321,85269,1,0,0:0:0:0:
136,131,85442,1,8,0:0:0:0:
204,339,85614,2,0,L|332:355,1,82.5000025177003
411,283,85959,1,0,0:0:0:0:
287,200,86131,6,0,L|283:16,1,165.000005035401,6|4,0:0|0:0,0:0:0:0:
170,199,86649,1,0,0:0:0:0:
374,302,86821,2,0,P|394:268|410:194,1,82.5000025177003,8|0,0:0|0:0,0:0:0:0:
368,64,87166,1,0,0:0:0:0:
287,200,87338,1,8,0:0:0:0:
512,338,87511,6,0,P|509:296|500:256,1,82.5000025177003,2|0,0:0|0:0,0:0:0:0:
363,126,87855,2,0,P|325:134|267:133,1,82.5000025177003,4|0,0:0|0:0,0:0:0:0:
188,247,88200,1,8,0:0:0:0:
473,330,88545,1,0,0:0:0:0:
408,39,88890,6,0,P|321:40|225:8,1,165.000005035401,6|4,0:0|0:0,0:0:0:0:
246,18,89407,1,0,0:0:0:0:
335,189,89580,1,8,0:0:0:0:
335,189,89924,1,0,0:0:0:0:
469,125,90097,1,8,0:0:0:0:
418,280,90269,6,0,B|373:305|373:305|259:295,1,165.000005035401,14|0,0:1|0:0,0:0:0:0:
180,173,90787,1,0,0:0:0:0:
280,61,90959,2,0,L|388:65,1,82.5000025177003,2|0,0:0|0:0,0:0:0:0:
180,173,91304,2,0,L|296:177,1,82.5000025177003
86,275,91649,6,0,L|22:272,1,63.7500012159348,6|0,0:0|0:0,0:0:0:0:
58,384,91993,1,0,0:0:0:0:
121,276,92166,1,0,0:0:0:0:
222,363,92338,2,0,L|313:357,1,63.7500012159348
293,225,92683,2,0,L|229:227,1,63.7500012159348
464,251,93028,5,2,0:0:0:0:
429,128,93200,1,0,0:0:0:0:
424,260,93373,1,0,0:0:0:0:
335,137,93545,1,0,0:0:0:0:
383,270,93718,2,0,L|387:359,1,63.7500012159348
230,229,94062,2,0,L|305:225,1,63.7500012159348
106,233,94407,5,6,0:0:0:0:
229,39,94752,1,0,0:0:0:0:
293,225,95097,1,0,0:0:0:0:
46,102,95442,1,0,0:0:0:0:
46,102,95614,1,0,0:0:0:0:
146,170,95787,6,0,L|232:167,1,63.7500012159348,2|0,0:0|0:0,0:0:0:0:
181,285,96131,1,0,0:0:0:0:
66,347,96304,2,0,L|67:277,1,63.7500012159348,0|0,0:0|0:0,0:0:0:0:
67,105,96649,2,0,L|66:187,1,63.7500012159348,0|0,0:0|0:0,0:0:0:0:
221,284,96993,1,0,0:0:0:0:
221,284,97080,1,0,0:0:0:0:
221,284,97166,6,0,L|348:274,1,127.50000243187,14|0,0:1|0:0,0:0:0:0:
448,22,97855,2,0,L|371:24,1,63.7500012159348,0|0,0:0|0:0,0:0:0:0:
262,28,98200,1,0,0:0:0:0:
262,28,98373,1,0,0:0:0:0:
371,175,98545,5,2,0:0:0:0:
371,175,98890,1,0,0:0:0:0:
250,174,99062,2,0,L|162:175,1,63.7500012159348,0|0,0:0|0:0,0:0:0:0:
165,293,99407,2,0,L|89:294,1,63.7500012159348
366,230,99924,5,6,0:0:0:0:
122,207,100269,1,0,0:0:0:0:
260,12,100614,5,0,0:0:0:0:
263,148,100787,1,0,0:0:0:0:
165,83,100959,1,0,0:0:0:0:
323,79,101131,1,0,0:0:0:0:
185,210,101304,2,0,L|97:205,1,63.7500012159348,2|0,0:0|0:0,0:0:0:0:
281,359,101649,5,4,0:0:0:0:
168,301,101821,1,4,0:0:0:0:
349,234,101993,1,4,0:0:0:0:
241,280,102166,1,4,0:0:0:0:
288,153,102338,2,4,L|373:144,1,63.7500012159348,4|0,0:0|0:0,0:0:0:0:
456,359,102683,6,0,P|387:363|305:340,1,127.50000243187,6|0,0:0|0:0,0:0:0:0:
269,253,103200,1,0,0:0:0:0:
156,276,103373,2,0,L|157:339,1,63.7500012159348,0|0,0:0|0:0,0:0:0:0:
25,275,103718,2,0,L|26:186,1,63.7500012159348,2|0,0:0|0:0,0:0:0:0:
59,101,104062,1,0,0:0:0:0:
122,197,104235,1,0,0:0:0:0:
163,58,104407,1,4,0:0:0:0:
196,63,104752,1,8,0:0:0:0:
227,68,105097,2,0,L|230:162,1,63.7500012159348,0|0,0:0|0:0,0:0:0:0:
353,276,105442,6,0,P|422:299|485:279,1,127.50000243187,6|0,0:0|0:0,0:0:0:0:
418,184,105959,1,0,0:0:0:0:
245,247,106131,2,0,L|227:312,1,63.7500012159348,0|0,0:0|0:0,0:0:0:0:
142,113,106476,2,0,L|117:35,1,63.7500012159348,2|0,0:0|0:0,0:0:0:0:
93,253,106821,2,0,L|29:252,1,63.7500012159348
227,308,107166,1,4,0:0:0:0:
270,30,107511,1,8,0:0:0:0:
0,141,107855,2,0,L|69:150,1,63.7500012159348,0|0,0:0|0:0,0:0:0:0:
192,202,108200,6,0,P|199:138|198:58,1,127.50000243187,6|0,0:0|0:0,0:0:0:0:
101,14,108717,1,0,0:0:0:0:
296,74,108890,2,0,P|336:77|380:73,1,63.7500012159348
469,189,109235,2,0,P|437:185|392:187,1,63.7500012159348,2|0,0:0|0:0,0:0:0:0:
307,268,109580,1,0,0:0:0:0:
416,278,109752,1,0,0:0:0:0:
301,152,109924,1,4,0:0:0:0:
163,379,110269,1,8,0:0:0:0:
12,67,110614,2,0,P|7:102|16:157,1,63.7500012159348
146,157,110959,6,0,P|216:152|295:164,1,127.50000243187,6|0,0:0|0:0,0:0:0:0:
347,270,111476,1,0,0:0:0:0:
245,319,111649,2,0,P|240:294|239:256,1,63.7500012159348
386,116,111993,2,0,P|391:153|386:193,1,63.7500012159348,2|0,0:0|0:0,0:0:0:0:
264,43,112338,2,0,L|189:27,1,63.7500012159348,0|0,0:0|0:0,0:0:0:0:
115,106,112683,1,4,0:0:0:0:
350,342,113028,1,8,0:0:0:0:
444,43,113372,2,0,L|374:39,1,63.7500012159348,0|0,0:0|0:0,0:0:0:0:
272,158,113718,6,0,P|205:163|143:157,1,127.50000243187,6|0,0:0|0:0,0:0:0:0:
68,243,114235,1,0,0:0:0:0:
165,302,114407,2,0,L|231:290,1,63.7500012159348,0|0,0:0|0:0,0:0:0:0:
377,227,114752,2,0,L|282:209,1,63.7500012159348,2|0,0:0|0:0,0:0:0:0:
340,321,115097,1,0,0:0:0:0:
254,95,115442,1,4,0:0:0:0:
479,136,115787,1,8,0:0:0:0:
216,250,116131,2,0,L|121:229,1,63.7500012159348,0|0,0:0|0:0,0:0:0:0:
29,125,116476,6,0,P|103:131|183:104,1,127.50000243187,6|0,0:0|0:0,0:0:0:0:
228,33,116993,1,0,0:0:0:0:
243,192,117166,2,0,L|209:264,1,63.7500012159348,0|0,0:0|0:0,0:0:0:0:
359,236,117511,2,0,L|450:236,1,63.7500012159348,2|0,0:0|0:0,0:0:0:0:
426,121,117855,1,0,0:0:0:0:
294,321,118200,1,4,0:0:0:0:
228,33,118545,1,8,0:0:0:0:
61,240,118890,2,0,L|151:231,1,63.7500012159348,0|0,0:0|0:0,0:0:0:0:
243,192,119235,6,0,P|256:253|243:331,1,127.50000243187,6|0,0:0|0:0,0:0:0:0:
136,344,119752,1,0,0:0:0:0:
286,280,119924,2,0,P|318:279|376:259,1,63.7500012159348,0|0,0:0|0:0,0:0:0:0:
441,351,120269,2,0,P|459:319|474:266,1,63.7500012159348,2|0,0:0|0:0,0:0:0:0:
342,144,120614,2,0,L|349:293,2,127.50000243187,0|4|8,0:0|0:0|0:0,0:0:0:0:
92,286,121649,2,0,L|31:305,1,63.7500012159348
44,167,121993,6,0,P|120:154|179:187,1,127.50000243187,6|0,0:0|0:0,0:0:0:0:
215,291,122511,1,0,0:0:0:0:
300,160,122683,2,0,P|287:108|285:49,2,95.6250018239022
329,315,123373,2,4,P|391:301|476:294,1,127.50000243187,2|4,0:0|0:0,0:0:0:0:
454,294,123890,1,4,0:0:0:0:
383,165,124062,5,12,0:0:0:0:
489,209,124235,1,4,0:0:0:0:
364,340,124407,1,4,0:0:0:0:
305,240,124580,1,4,0:0:0:0:
454,294,124752,6,0,L|463:364,1,63.7500012159348,6|0,0:0|0:0,0:0:0:0:
287,301,125097,2,0,L|305:240,1,63.7500012159348,4|0,0:0|0:0,0:0:0:0:
453,163,125442,2,0,B|383:164|383:164|332:136|332:136|267:137,1,191.250003647804,8|8,0:0|0:0,0:0:0:0:
425,64,126131,6,0,L|425:0,1,63.7500012159348,2|0,0:0|0:0,0:0:0:0:
305,239,126476,2,0,P|324:297|303:373,1,127.50000243187,4|8,0:0|0:0,0:0:0:0:
141,313,126993,2,0,L|229:304,1,63.7500012159348
192,182,127338,1,0,0:0:0:0:
256,71,127511,6,0,L|349:80,1,63.7500012159348,6|0,0:0|0:0,0:0:0:0:
179,252,127855,2,0,L|256:243,1,63.7500012159348,4|0,0:0|0:0,0:0:0:0:
84,112,128200,2,0,L|14:101,1,63.7500012159348,8|0,0:0|0:0,0:0:0:0:
214,113,128545,2,0,L|237:43,1,63.7500012159348,0|8,0:0|0:0,0:0:0:0:
70,238,128890,2,0,L|74:301,1,63.7500012159348,2|0,0:0|0:0,0:0:0:0:
241,331,129235,1,4,0:0:0:0:
241,331,129580,2,0,P|252:297|254:258,1,63.7500012159348,8|0,0:0|0:0,0:0:0:0:
386,275,129924,2,0,P|429:282|464:298,1,63.7500012159348
331,153,130269,6,0,P|272:161|182:160,1,127.50000243187,6|4,0:0|0:0,0:0:0:0:
96,92,130787,1,0,0:0:0:0:
219,61,130959,1,8,0:0:0:0:
124,231,131131,2,0,B|96:252|96:252|48:254|16:203,1,127.50000243187,0|8,0:0|0:0,0:0:0:0:
204,162,131649,2,0,P|223:192|230:237,1,63.7500012159348,2|0,0:0|0:0,0:0:0:0:
287,351,131993,2,0,P|339:363|436:348,1,127.50000243187,4|8,0:0|0:0,0:0:0:0:
361,145,132511,2,0,L|349:236,2,63.7500012159348,0|0|0,0:0|0:0|0:0,0:0:0:0:
242,252,133028,6,0,P|173:260|105:252,1,127.50000243187,6|4,0:0|0:0,0:0:0:0:
4,190,133545,1,0,0:0:0:0:
57,306,133718,1,8,0:0:0:0:
148,160,133890,2,0,L|141:82,1,63.7500012159348,0|0,0:0|0:0,0:0:0:0:
273,155,134235,2,0,L|282:89,1,63.7500012159348,8|2,0:0|0:0,0:0:0:0:
346,258,134580,1,0,0:0:0:0:
413,158,134752,2,0,L|405:92,1,63.7500012159348,4|0,0:0|0:0,0:0:0:0:
277,230,135097,2,0,L|266:315,1,63.7500012159348,8|0,0:0|0:0,0:0:0:0:
382,261,135442,2,0,L|453:252,1,63.7500012159348,0|0,0:0|0:0,0:0:0:0:
300,134,135787,6,0,P|231:126|161:128,1,127.50000243187,6|4,0:0|0:0,0:0:0:0:
277,230,136304,1,0,0:0:0:0:
382,261,136476,2,0,P|446:255|509:246,1,127.50000243187,8|0,0:0|0:0,0:0:0:0:
413,158,136993,1,8,0:0:0:0:
277,230,137166,2,0,L|272:324,2,63.7500012159348,2|0|4,0:0|0:0|0:0,0:0:0:0:
84,73,137855,2,0,L|173:69,1,63.7500012159348,8|0,0:0|0:0,0:0:0:0:
303,172,138200,2,0,P|289:209|271:236,1,63.7500012159348
318,343,138545,6,0,P|280:353|243:352,1,63.7500012159348,6|0,0:0|0:0,0:0:0:0:
124,224,138890,2,0,P|154:224|190:230,1,63.7500012159348,4|0,0:0|0:0,0:0:0:0:
259,126,139235,2,0,P|286:149|313:191,1,63.7500012159348,8|0,0:0|0:0,0:0:0:0:
239,282,139580,1,0,0:0:0:0:
90,290,139752,6,0,P|91:237|90:146,1,127.50000243187,8|0,0:0|0:0,0:0:0:0:
239,282,140269,2,0,P|302:279|364:265,1,127.50000243187,4|8,0:0|0:0,0:0:0:0:
442,162,140787,1,0,0:0:0:0:
324,98,140959,2,0,L|311:30,1,63.7500012159348,0|0,0:0|0:0,0:0:0:0:
257,185,141304,6,0,P|309:206|417:165,1,127.50000243187,6|4,0:0|0:0,0:0:0:0:
282,305,141821,1,0,0:0:0:0:
160,341,141993,2,0,L|143:257,1,63.7500012159348,8|0,0:0|0:0,0:0:0:0:
257,185,142338,2,0,L|244:122,1,63.7500012159348,0|8,0:0|0:0,0:0:0:0:
40,110,142683,6,0,L|54:179,1,63.7500012159348,2|0,0:0|0:0,0:0:0:0:
212,247,143028,2,0,L|225:311,1,63.7500012159348,4|0,0:0|0:0,0:0:0:0:
85,296,143373,2,0,L|21:303,1,63.7500012159348,8|0,0:0|0:0,0:0:0:0:
180,130,143718,2,0,L|243:121,1,63.7500012159348,0|0,0:0|0:0,0:0:0:0:
401,199,144062,6,0,P|385:234|379:269,1,63.7500012159348,6|0,0:0|0:0,0:0:0:0:
277,358,144407,2,0,P|225:313|143:314,1,142.49999619484,4|8,0:0|0:0,0:0:0:0:
61,199,144924,2,0,P|144:198|210:136,1,142.49999619484,2|8,0:0|0:0,0:0:0:0:
96,14,145442,6,0,L|100:92,1,71.2499980974198,2|0,0:0|0:0,0:0:0:0:
6,261,145787,2,0,L|11:342,1,71.2499980974198,4|0,0:0|0:0,0:0:0:0:
187,275,146131,2,0,P|259:256|334:269,1,142.49999619484,8|2,0:0|0:0,0:0:0:0:
433,336,146649,1,0,0:0:0:0:
307,144,146821,6,0,L|291:53,1,71.2499980974198,6|0,0:0|0:0,0:0:0:0:
187,275,147166,1,8,0:0:0:0:
187,275,147511,1,8,0:0:0:0:
48,231,147683,2,0,P|35:152|32:79,1,142.49999619484,8|4,0:0|0:0,0:0:0:0:
241,147,148200,5,14,0:0:0:0:
112,240,148373,1,8,0:0:0:0:
148,80,148545,1,12,0:0:0:0:
253,228,148718,1,12,0:0:0:0:
304,48,148890,1,14,0:0:0:0:
304,48,149235,2,0,L|379:43,1,71.2499980974198,4|4,0:0|0:0,0:0:0:0:
163,180,149580,6,0,P|73:161|-2:151,1,165.000005035401,14|4,0:1|0:0,0:0:0:0:
148,80,150097,1,0,0:0:0:0:
253,228,150269,2,0,P|302:226|360:210,1,82.5000025177003,8|0,0:0|0:0,0:0:0:0:
223,119,150614,1,0,0:0:0:0:
181,285,150787,1,8,0:0:0:0:
354,304,150959,6,0,B|379:242|347:182|347:182|331:226,2,165.000005035401,6|4|8,0:0|0:0|0:0,0:0:0:0:
145,146,151993,2,0,P|187:136|225:117,1,82.5000025177003
334,219,152338,6,0,L|326:400,1,165.000005035401,6|4,0:0|0:0,0:0:0:0:
110,234,153028,2,0,P|35:214|1:134,1,165.000005035401,8|0,0:0|0:0,0:0:0:0:
164,137,153545,1,8,0:0:0:0:
227,238,153718,6,0,P|231:296|228:346,1,82.5000025177003,2|0,0:0|0:0,0:0:0:0:
374,268,154062,1,4,0:0:0:0:
374,268,154407,1,8,0:0:0:0:
318,140,154580,2,0,P|324:112|344:53,1,82.5000025177003
464,101,154924,1,0,0:0:0:0:
392,244,155097,6,0,P|294:234|211:234,1,165.000005035401,6|4,0:0|0:0,0:0:0:0:
272,373,155614,1,0,0:0:0:0:
465,338,155787,2,0,P|487:287|508:212,2,123.75000377655,8|0|8,0:0|0:0|0:0,0:0:0:0:
305,152,156476,6,0,B|242:126|207:89|207:89|181:135,1,165.000005035401,2|4,0:0|0:0,0:0:0:0:
103,283,156993,1,0,0:0:0:0:
103,283,157166,1,8,0:0:0:0:
9,175,157338,5,0,0:0:0:0:
208,188,157511,1,0,0:0:0:0:
115,82,157683,1,0,0:0:0:0:
190,313,157855,6,0,P|276:297|326:215,1,165.000005035401,6|4,0:0|0:0,0:0:0:0:
290,96,158373,1,0,0:0:0:0:
168,175,158545,2,0,P|103:149|64:51,1,165.000005035401,8|0,0:0|0:0,0:0:0:0:
185,53,159062,1,8,0:0:0:0:
85,243,159235,6,0,L|-22:242,1,82.5000025177003,2|0,0:0|0:0,0:0:0:0:
229,250,159580,1,4,0:0:0:0:
219,82,159752,1,8,0:0:0:0:
85,243,159924,1,8,0:0:0:0:
85,243,160269,1,8,0:0:0:0:
109,107,160442,1,8,0:0:0:0:
230,197,160614,6,0,B|290:201|333:155|333:155|350:210,1,165.000005035401,6|4,0:0|0:0,0:0:0:0:
224,348,161131,1,0,0:0:0:0:
75,267,161304,2,0,L|71:177,1,82.5000025177003,8|0,0:0|0:0,0:0:0:0:
178,73,161649,1,0,0:0:0:0:
235,277,161821,1,8,0:0:0:0:
344,120,161993,6,0,P|410:108|523:102,1,165.000005035401,2|4,0:0|0:0,0:0:0:0:
507,101,162683,1,8,0:0:0:0:
339,37,162855,2,0,P|340:81|346:137,1,82.5000025177003
387,311,163200,1,0,0:0:0:0:
512,189,163373,6,0,P|419:189|318:201,1,165.000005035401,6|4,0:0|0:0,0:0:0:0:
284,331,163890,1,0,0:0:0:0:
142,288,164062,2,0,P|129:242|139:153,2,123.75000377655,8|0|8,0:0|0:0|0:0,0:0:0:0:
257,178,164752,6,0,P|255:143|234:95,1,82.5000025177003,2|0,0:0|0:0,0:0:0:0:
84,14,165097,1,4,0:0:0:0:
134,166,165269,1,0,0:0:0:0:
211,10,165442,1,8,0:0:0:0:
257,178,165614,2,0,P|296:180|385:169,1,82.5000025177003
378,41,165959,1,0,0:0:0:0:
223,95,166131,6,0,L|218:276,1,165.000005035401,6|4,0:0|0:0,0:0:0:0:
339,177,166649,1,0,0:0:0:0:
114,166,166821,2,0,L|112:254,1,82.5000025177003,8|0,0:0|0:0,0:0:0:0:
274,336,167166,1,0,0:0:0:0:
257,178,167338,1,8,0:0:0:0:
112,248,167511,6,0,P|57:210|33:170,1,82.5000025177003,2|0,0:0|0:0,0:0:0:0:
339,177,167855,2,0,P|393:139|418:99,1,82.5000025177003,4|0,0:0|0:0,0:0:0:0:
161,106,168200,1,8,0:0:0:0:
388,289,168545,1,0,0:0:0:0:
466,36,168890,6,0,P|382:31|301:5,1,165.000005035401,6|4,0:0|0:0,0:0:0:0:
173,81,169407,1,0,0:0:0:0:
362,143,169580,1,8,0:0:0:0:
362,143,169924,1,0,0:0:0:0:
257,268,170097,1,8,0:0:0:0:
180,123,170269,6,0,B|121:93|59:107|59:107|43:153,1,165.000005035401,14|0,0:1|0:0,0:0:0:0:
257,268,170787,2,0,P|271:192|281:76,1,165.000005035401,0|0,0:0|0:0,0:0:0:0:
398,218,171304,2,0,P|439:226|506:219,1,82.5000025177003
374,365,171649,5,6,0:0:0:0:
192,384,171993,1,4,0:0:0:0:
94,234,172338,1,8,0:0:0:0:
94,234,172683,5,0,0:0:0:0:
242,266,172855,1,8,0:0:0:0:
242,266,172942,1,0,0:0:0:0:
242,266,173028,5,6,0:0:0:0:
99,333,173200,1,4,0:0:0:0:
182,163,173373,1,4,0:0:0:0:
211,362,173545,1,4,0:0:0:0:
54,199,173718,5,8,0:0:0:0:
262,249,173890,1,4,0:0:0:0:
65,381,174062,2,0,L|61:298,1,82.5000025177003,2|0,0:0|0:0,0:0:0:0:
216,326,174407,6,0,P|290:360|417:314,1,179.999994506836,14|4,0:1|0:0,0:0:0:0:
312,213,174924,1,0,0:0:0:0:
116,270,175097,2,0,L|111:359,1,89.9999972534181,8|0,0:0|0:0,0:0:0:0:
243,238,175442,1,0,0:0:0:0:
86,147,175614,1,8,0:0:0:0:
27,285,175787,6,0,L|115:270,1,89.9999972534181,2|0,0:0|0:0,0:0:0:0:
312,213,176131,2,0,L|215:187,1,89.9999972534181,4|0,0:0|0:0,0:0:0:0:
86,147,176476,1,8,0:0:0:0:
110,359,176649,2,0,L|202:344,1,89.9999972534181
225,189,176993,1,0,0:0:0:0:
86,147,177166,5,6,0:0:0:0:
176,301,177338,1,0,0:0:0:0:
172,120,177511,1,4,0:0:0:0:
51,252,177683,1,0,0:0:0:0:
243,238,177855,2,0,L|268:40,1,179.999994506836,8|0,0:0|0:0,0:0:0:0:
427,155,178373,1,8,0:0:0:0:
325,269,178545,6,0,P|281:260|228:224,1,89.9999972534181,2|0,0:0|0:0,0:0:0:0:
427,155,178890,1,4,0:0:0:0:
427,155,179235,2,0,P|381:144|335:140,1,89.9999972534181,8|0,0:0|0:0,0:0:0:0:
239,43,179580,2,0,P|208:79|178:132,1,89.9999972534181
219,324,179924,6,0,P|232:287|242:237,1,89.9999972534181,6|0,0:0|0:0,0:0:0:0:
65,123,180269,2,0,P|65:173|75:248,1,89.9999972534181,4|0,0:0|0:0,0:0:0:0:
108,356,180614,1,8,0:0:0:0:
153,241,180787,2,0,P|118:226|34:207,1,89.9999972534181
219,324,181131,1,8,0:0:0:0:
259,163,181304,6,0,P|225:131|172:112,1,89.9999972534181,2|0,0:0|0:0,0:0:0:0:
70,273,181649,2,0,P|113:264|171:220,1,89.9999972534181,4|0,0:0|0:0,0:0:0:0:
328,236,181993,1,8,0:0:0:0:
449,293,182166,2,0,L|464:389,1,89.9999972534181,0|0,0:0|0:0,0:0:0:0:
328,236,182511,1,0,0:0:0:0:
147,384,182683,6,0,P|52:341|31:247,1,179.999994506836,6|4,0:0|0:0,0:0:0:0:
29,87,183200,1,0,0:0:0:0:
174,161,183373,2,0,P|168:215|151:260,1,89.9999972534181,8|0,0:0|0:0,0:0:0:0:
23,176,183718,1,0,0:0:0:0:
207,143,183890,1,8,0:0:0:0:
29,87,184062,6,0,L|22:202,1,89.9999972534181,2|0,0:0|0:0,0:0:0:0:
293,118,184407,2,0,L|280:17,1,89.9999972534181,4|8,0:0|0:0,0:0:0:0:
174,161,184752,1,8,0:0:0:0:
384,164,184924,1,12,0:0:0:0:
256,112,185097,1,2,0:0:0:0:
224,272,185269,1,0,0:0:0:0:
378,344,185442,6,0,P|384:286|384:160,1,179.999994506836,14|4,0:1|0:0,0:0:0:0:
250,293,185959,1,0,0:0:0:0:
496,236,186131,2,0,P|508:192|510:126,1,89.9999972534181,8|0,0:0|0:0,0:0:0:0:
242,203,186476,2,0,P|242:249|250:293,1,89.9999972534181,0|8,0:0|0:0,0:0:0:0:
384,80,186821,5,2,0:0:0:0:
213,85,186993,1,0,0:0:0:0:
403,240,187166,1,4,0:0:0:0:
403,240,187511,2,0,L|504:236,1,89.9999972534181,8|0,0:0|0:0,0:0:0:0:
340,125,187855,1,0,0:0:0:0:
285,325,188028,1,0,0:0:0:0:
180,162,188200,6,0,P|82:153|-2:152,1,179.999994506836,6|4,0:0|0:0,0:0:0:0:
191,292,188718,1,0,0:0:0:0:
280,59,188890,2,0,P|324:50|399:47,1,89.9999972534181,8|0,0:0|0:0,0:0:0:0:
478,259,189235,1,0,0:0:0:0:
314,180,189407,5,8,0:0:0:0:
482,142,189580,1,2,0:0:0:0:
372,313,189752,1,0,0:0:0:0:
213,152,189924,2,0,L|216:62,1,89.9999972534181,4|0,0:0|0:0,0:0:0:0:
207,340,190269,1,8,0:0:0:0:
56,202,190442,2,0,L|161:204,1,89.9999972534181
353,210,190787,1,0,0:0:0:0:
422,343,190959,6,0,L|554:319,1,89.9999972534181,6|0,0:0|0:0,0:0:0:0:
347,77,191304,2,0,L|255:70,1,89.9999972534181,4|0,0:0|0:0,0:0:0:0:
65,289,191649,2,0,P|136:256|239:277,1,179.999994506836,8|0,0:0|0:0,0:0:0:0:
356,380,192166,1,8,0:0:0:0:
444,224,192338,6,0,L|430:113,1,89.9999972534181,2|0,0:0|0:0,0:0:0:0:
223,81,192683,2,0,L|214:182,1,89.9999972534181,4|0,0:0|0:0,0:0:0:0:
187,372,193028,1,8,0:0:0:0:
325,289,193200,1,0,0:0:0:0:
71,199,193373,2,0,L|63:306,1,89.9999972534181,0|0,0:0|0:0,0:0:0:0:
395,329,193718,6,0,L|378:149,1,179.999994506836,6|4,0:0|0:0,0:0:0:0:
373,117,194407,1,8,0:0:0:0:
200,148,194580,5,8,0:0:0:0:
313,13,194752,1,8,0:0:0:0:
316,199,194924,1,12,0:0:0:0:
190,37,195097,5,14,0:0:0:0:
378,149,195269,1,8,0:0:0:0:
161,170,195442,1,12,0:0:0:0:
335,28,195614,1,8,0:0:0:0:
291,258,195787,5,14,0:0:0:0:
190,37,195959,1,8,0:0:0:0:
402,162,196131,1,12,0:0:0:0:
148,177,196304,1,8,0:0:0:0:
430,58,196476,6,0,P|433:158|419:240,1,179.999994506836,14|4,0:1|0:0,0:0:0:0:
0,184,197166,2,0,P|81:161|193:147,1,179.999994506836,8|0,0:0|0:0,0:0:0:0:
304,240,197683,1,8,0:0:0:0:
114,253,197855,6,0,P|101:184|97:73,1,179.999994506836,2|4,0:0|0:0,0:0:0:0:
411,296,198545,2,0,L|386:405,1,89.9999972534181,8|0,0:0|0:0,0:0:0:0:
301,160,198890,2,0,L|406:129,1,89.9999972534181,0|0,0:0|0:0,0:0:0:0:
206,335,199235,6,0,B|160:292|164:204|164:204|212:228,2,179.999994506836,6|4|8,0:0|0:0|0:0,0:0:0:0:
381,171,200097,1,0,0:0:0:0:
331,306,200269,1,0,0:0:0:0:
219,101,200442,1,8,0:0:0:0:
197,220,200614,6,0,P|244:220|284:203,1,89.9999972534181,2|0,0:0|0:0,0:0:0:0:
422,260,200959,2,0,P|439:217|438:166,1,89.9999972534181,4|0,0:0|0:0,0:0:0:0:
193,14,201304,6,0,L|221:107,1,89.9999972534181,8|0,0:0|0:0,0:0:0:0:
414,87,201649,2,0,L|439:173,1,89.9999972534181
267,313,201993,6,0,B|199:323|150:284|150:284|123:301|88:321,2,179.999994506836,6|4|8,0:0|0:0|0:0,0:0:0:0:
363,85,202855,1,0,0:0:0:0:
235,178,203028,1,0,0:0:0:0:
389,266,203200,1,8,0:0:0:0:
405,27,203373,5,2,0:0:0:0:
310,162,203545,1,0,0:0:0:0:
480,128,203718,1,6,0:0:0:0:
301,39,203890,1,0,0:0:0:0:
400,240,204062,6,0,L|513:243,1,89.9999972534181,10|0,0:0|0:0,0:0:0:0:
222,102,204407,2,0,L|101:111,1,89.9999972534181,2|0,0:0|0:0,0:0:0:0:
321,12,204752,6,0,P|307:92|329:200,1,179.999994506836,6|4,0:0|0:0,0:0:0:0:
90,350,205442,2,0,L|81:236,1,89.9999972534181,8|0,0:0|0:0,0:0:0:0:
177,137,205787,1,0,0:0:0:0:
203,280,205959,1,8,0:0:0:0:
92,123,206131,6,0,L|-7:111,1,89.9999972534181,2|0,0:0|0:0,0:0:0:0:
216,231,206476,2,0,L|326:222,1,89.9999972534181,4|0,0:0|0:0,0:0:0:0:
90,350,206821,2,0,L|-5:340,1,89.9999972534181,10|0,0:0|0:0,0:0:0:0:
154,181,207166,1,0,0:0:0:0:
240,358,207338,1,0,0:0:0:0:
316,131,207511,5,2,0:0:0:0:
256,192,207597,12,0,209580,0:0:0:0:
103,168,210269,5,2,0:0:0:0:
122,267,210614,1,0,0:0:0:0:
221,248,210959,1,0,0:0:0:0:
250,345,211304,1,0,0:0:0:0:
329,217,211649,2,0,L|463:222,1,112.500004291535,2|0,0:0|0:0,0:0:0:0:
504,300,212338,1,0,0:0:0:0:
448,105,213028,5,2,0:0:0:0:
368,41,213373,1,0,0:0:0:0:
298,114,213718,1,0,0:0:0:0:
222,47,214062,1,0,0:0:0:0:
223,189,214407,2,0,L|93:211,1,112.500004291535,2|0,0:0|0:0,0:0:0:0:
38,137,215097,1,0,0:0:0:0:
341,69,215787,5,2,0:0:0:0:
354,169,216131,1,0,0:0:0:0:
470,103,216476,1,0,0:0:0:0:
250,251,217166,5,2,0:0:0:0:
237,351,217510,1,0,0:0:0:0:
121,285,217855,1,0,0:0:0:0:
374,39,218545,5,2,0:0:0:0:
272,40,218890,1,0,0:0:0:0:
170,40,219235,1,0,0:0:0:0:
214,130,219580,1,0,0:0:0:0:
75,112,219924,2,0,L|80:235,1,112.500004291535,2|0,0:0|0:0,0:0:0:0:
176,281,220614,1,0,0:0:0:0:
434,184,221304,6,0,L|434:41,1,142.49999619484,6|0,0:0|0:0,0:0:0:0:
332,154,221821,1,0,0:0:0:0:
371,279,221993,2,0,L|462:291,1,71.2499980974198,0|0,0:0|0:0,0:0:0:0:
304,142,222338,2,0,L|221:134,1,71.2499980974198,0|0,0:0|0:0,0:0:0:0:
245,375,222683,6,0,P|281:318|284:223,2,142.49999619484,2|0|0,0:0|0:0|0:0,0:0:0:0:
67,81,223718,1,4,0:0:0:0:
0,270,224062,6,0,P|59:287|144:266,1,142.49999619484,6|0,0:0|0:0,0:0:0:0:
311,81,224752,2,0,P|380:65|462:86,1,142.49999619484,0|0,0:0|0:0,0:0:0:0:
376,326,225442,5,2,0:0:0:0:
126,185,225787,2,0,L|106:107,1,71.2499980974198,0|0,0:0|0:0,0:0:0:0:
253,176,226131,2,0,L|236:261,1,71.2499980974198,0|0,0:0|0:0,0:0:0:0:
215,72,226476,1,4,0:0:0:0:
215,72,226821,6,0,P|278:67|377:68,1,142.49999619484,14|0,0:1|0:0,0:0:0:0:
253,176,227338,1,8,0:0:0:0:
104,102,227511,2,0,L|104:30,1,71.2499980974198,2|8,0:0|0:0,0:0:0:0:
103,240,227855,1,4,0:0:0:0:
3,119,228028,1,8,0:0:0:0:
123,263,228200,6,0,L|251:263,1,71.2499980974198,6|0,0:0|0:0,0:0:0:0:
347,175,228545,2,0,L|255:174,1,71.2499980974198,4|0,0:0|0:0,0:0:0:0:
431,265,228890,1,8,0:0:0:0:
431,265,229235,2,0,L|432:174,1,71.2499980974198,8|8,0:0|0:0,0:0:0:0:
273,31,229580,6,0,L|275:186,1,142.49999619484,6|4,0:0|0:0,0:0:0:0:
279,302,230097,1,0,0:0:0:0:
389,129,230269,2,0,P|422:124|459:129,1,71.2499980974198,12|0,0:0|0:0,0:0:0:0:
179,257,230614,2,0,P|136:262|108:258,1,71.2499980974198,4|0,0:0|0:0,0:0:0:0:
144,112,230959,5,14,0:1:0:0:
235,346,231131,1,14,0:0:0:0:
380,203,231304,6,0,L|388:129,1,75,2|0,0:0|0:0,0:0:0:0:
204,41,231649,6,0,L|220:169,1,78.7499975967408,2|0,0:0|0:0,0:0:0:0:
41,203,231993,6,0,L|47:97,1,82.5000025177003,2|0,0:0|0:0,0:0:0:0:
235,346,232338,6,0,L|334:343,1,86.2500016450882,14|0,0:1|0:0,0:0:0:0:
213,119,232683,2,0,L|325:103,1,86.2500016450882,4|0,0:0|0:0,0:0:0:0:
137,201,233028,1,8,0:0:0:0:
201,23,233200,1,0,0:0:0:0:
275,211,233373,1,0,0:0:0:0:
85,111,233545,1,8,0:0:0:0:
295,20,233718,6,0,L|298:125,1,86.2500016450882,6|0,0:0|0:0,0:0:0:0:
137,201,234062,2,0,L|141:300,1,86.2500016450882,4|0,0:0|0:0,0:0:0:0:
454,285,234407,2,0,P|396:215|298:205,1,172.500003290176,8|0,0:0|0:0,0:0:0:0:
330,339,234924,1,0,0:0:0:0:
452,166,235097,6,0,L|463:67,1,86.2500016450882,6|0,0:0|0:0,0:0:0:0:
203,160,235442,2,0,L|223:267,1,86.2500016450882,4|0,0:0|0:0,0:0:0:0:
283,48,235787,2,0,P|198:20|111:60,1,172.500003290176,8|0,0:0|0:0,0:0:0:0:
119,197,236304,1,8,0:0:0:0:
340,113,236476,6,0,L|359:28,1,86.2500016450882,2|0,0:0|0:0,0:0:0:0:
222,244,236821,2,0,L|201:153,1,86.2500016450882,4|0,0:0|0:0,0:0:0:0:
331,364,237166,1,8,0:0:0:0:
418,290,237338,2,0,L|504:308,2,86.2500016450882
239,172,237855,6,0,B|244:116|244:116|225:60|225:60|229:-10,1,172.500003290176,6|4,0:0|0:0,0:0:0:0:
352,41,238373,1,0,0:0:0:0:
108,163,238545,2,0,P|44:125|30:50,2,129.375002467632,8|0|8,0:0|0:0|0:0,0:0:0:0:
311,275,239235,6,0,P|225:243|140:283,1,172.500003290176,2|4,0:0|0:0,0:0:0:0:
230,361,239752,1,0,0:0:0:0:
239,172,239924,1,8,0:0:0:0:
49,301,240097,5,0,0:0:0:0:
230,361,240269,1,0,0:0:0:0:
108,163,240442,1,0,0:0:0:0:
129,375,240614,6,0,P|204:356|318:342,1,172.500003290176,6|4,0:0|0:0,0:0:0:0:
416,237,241131,1,0,0:0:0:0:
280,183,241304,2,0,P|274:228|285:292,1,86.2500016450882,8|0,0:0|0:0,0:0:0:0:
440,318,241649,1,0,0:0:0:0:
352,125,241821,5,8,0:0:0:0:
204,276,241993,1,2,0:0:0:0:
416,237,242166,1,0,0:0:0:0:
252,111,242338,5,4,0:0:0:0:
328,318,242511,1,8,0:0:0:0:
385,116,242683,1,8,0:0:0:0:
321,345,242855,5,2,0:0:0:0:
219,177,243028,1,8,0:0:0:0:
416,237,243200,1,8,0:0:0:0:
194,316,243373,6,0,B|113:329|62:297|62:297|92:258,1,172.500003290176,14|4,0:1|0:0,0:0:0:0:
236,171,243890,1,0,0:0:0:0:
341,284,244062,2,0,L|334:370,1,86.2500016450882,8|0,0:0|0:0,0:0:0:0:
131,166,244407,2,0,L|120:74,1,86.2500016450882,0|8,0:0|0:0,0:0:0:0:
43,277,244752,6,0,P|135:309|218:274,2,172.500003290176,2|4|8,0:0|0:0|0:0,0:0:0:0:
292,156,245614,2,0,L|382:155,1,86.2500016450882,0|0,0:0|0:0,0:0:0:0:
447,294,245959,1,0,0:0:0:0:
254,242,246131,6,0,L|254:34,1,172.500003290176,6|4,0:0|0:0,0:0:0:0:
506,354,246821,2,0,P|446:375|387:352,2,129.375002467632,8|0|8,0:0|0:0|0:0,0:0:0:0:
254,242,247511,6,0,P|196:296|104:306,1,172.500003290176,2|4,0:0|0:0,0:0:0:0:
131,169,248028,1,0,0:0:0:0:
282,332,248200,2,0,L|394:333,1,86.2500016450882,8|0,0:0|0:0,0:0:0:0:
163,100,248545,2,0,L|35:114,1,86.2500016450882
236,306,248890,6,0,P|339:287|375:201,1,172.500003290176,6|4,0:0|0:0,0:0:0:0:
266,30,249407,5,0,0:0:0:0:
265,197,249580,1,8,0:0:0:0:
373,83,249752,1,0,0:0:0:0:
164,141,249924,1,0,0:0:0:0:
318,302,250097,1,8,0:0:0:0:
491,182,250269,6,0,L|481:96,1,86.2500016450882,2|0,0:0|0:0,0:0:0:0:
373,224,250614,2,0,P|289:236|193:225,1,172.500003290176,4|8,0:0|0:0,0:0:0:0:
496,361,251304,2,0,L|493:269,1,86.2500016450882,0|0,0:0|0:0,0:0:0:0:
382,51,251649,6,0,L|371:248,1,172.500003290176,6|4,0:0|0:0,0:0:0:0:
366,346,252166,1,0,0:0:0:0:
481,143,252338,1,8,0:0:0:0:
481,143,252683,1,0,0:0:0:0:
243,148,252855,1,8,0:0:0:0:
366,346,253028,6,0,L|376:172,1,172.500003290176,6|0,0:0|0:0,0:0:0:0:
193,80,253545,2,0,L|203:252,1,172.500003290176,2|0,0:0|0:0,0:0:0:0:
40,327,254062,2,0,L|45:240,1,86.2500016450882,2|0,0:0|0:0,0:0:0:0:
116,27,254407,5,2,0:0:0:0:
171,211,254752,1,0,0:0:0:0:
294,57,255097,2,0,L|364:63,2,56.2500021457673
243,347,255787,5,2,0:0:0:0:
17,286,256132,1,0,0:0:0:0:
196,194,256477,2,0,L|172:139,2,56.2500021457673
243,347,257166,5,2,0:0:0:0:
469,286,257511,1,0,0:0:0:0:
290,194,257856,2,0,L|314:139,2,56.2500021457673,0|0|0,0:0|0:0|0:0,0:0:0:0:
178,278,258545,5,2,0:0:0:0:
173,142,258890,1,0,0:0:0:0:
417,179,259235,1,0,0:0:0:0:
331,283,259580,1,0,0:0:0:0:
269,70,259924,5,2,0:0:0:0:
264,215,260269,1,0,0:0:0:0:
85,118,260614,2,0,L|27:133,2,56.2500021457673,0|0|0,0:0|0:0|0:0,0:0:0:0:
264,215,261304,6,0,L|408:199,1,112.500004291535,2|0,0:0|0:0,0:0:0:0:
293,351,261993,2,0,L|161:338,1,112.500004291535,0|0,0:0|0:0,0:0:0:0:
227,71,262683,5,2,0:0:0:0:
407,163,263028,1,0,0:0:0:0:
407,163,263200,1,0,0:0:0:0:
239,277,263545,1,0,0:0:0:0:
239,277,263718,1,0,0:0:0:0:
120,59,264407,6,0,L|104:139,1,70.3125026822091
237,207,265787,6,0,P|279:185|237:175,1,112.500004291535
256,192,266218,12,0,273718,0:0:0:0:
