osu file format v14

[General]
AudioFilename: opto.mp3
AudioLeadIn: 0
PreviewTime: 174063
Countdown: 0
SampleSet: None
StackLeniency: 0.7
Mode: 0
LetterboxInBreaks: 0
WidescreenStoryboard: 0

[Editor]
Bookmarks: 11649,22683,44752,69580,91649,102683,124752,149580,171649,174407,196476,210269,232338,254407
DistanceSpacing: 1.6
BeatDivisor: 8
GridSize: 4
TimelineZoom: 2.2

[Metadata]
Title:Ima, Arukidasu Kimi e.
TitleUnicode:今、歩き出す君へ。
Artist:Ceui
ArtistUnicode:Ceui
Creator:Shad0w1and
Version:Nich's Hard
Source:いますぐお兄ちゃんに妹だっていいたい!
Tags:fairys Nichiyouki nich95 CelsiusLK Pata-Mon
BeatmapID:985893
BeatmapSetID:422600

[Difficulty]
HPDrainRate:5.5
CircleSize:4
OverallDifficulty:6.7
ApproachRate:7.7
SliderMultiplier:2.4
SliderTickRate:1

[Events]
//Background and Video events
Video,0,"opto.flv"
0,0,"BG3.jpg",0,0
//Break Periods
2,93918,101543
2,210269,220509
//Storyboard Layer 0 (Background)
//Storyboard Layer 1 (Fail)
//Storyboard Layer 2 (Pass)
//Storyboard Layer 3 (Foreground)
//Storyboard Sound Samples

[TimingPoints]
-2144,689.655172413793,4,2,1,40,1,0
614,-125,4,3,1,40,0,0
11649,-100,4,2,1,80,0,0
22683,-125,4,2,1,60,0,0
33718,-117.647058823529,4,2,1,60,0,0
43718,-117.647058823529,4,2,1,60,0,0
44752,-100,4,2,1,70,0,0
66821,-100,4,2,1,80,0,0
69580,-100,4,2,1,100,0,1
91649,-117.647058823529,4,3,1,60,0,0
102338,-117.647058823529,4,2,1,40,0,0
102683,-117.647058823529,4,2,1,60,0,0
124752,-100,4,2,1,70,0,0
146821,-100,4,2,1,80,0,0
149580,-100,4,2,1,100,0,1
171649,-100,4,2,1,90,0,0
174407,-100,4,2,1,100,0,1
193718,-100,4,2,1,100,0,0
196476,-100,4,2,1,100,0,1
207511,-100,4,2,1,60,0,0
221304,-125,4,2,1,60,0,0
226821,-125,4,2,1,70,0,0
229580,-125,4,2,1,40,0,0
230269,-125,4,2,1,60,0,0
230959,-125,4,2,1,80,0,0
232338,-100,4,2,1,100,0,1
253028,-125,4,2,1,100,0,1
254407,-125,4,3,1,50,0,0
265959,-125,4,3,1,40,0,0
266821,-125,4,3,1,35,0,0
268200,-125,4,3,1,30,0,0
269580,-125,4,3,1,25,0,0
270959,-125,4,3,1,20,0,0
272338,-125,4,3,1,15,0,0
273718,-125,4,3,1,10,0,0

[Colours]
Combo1 : 248,252,86
Combo2 : 128,255,166
Combo3 : 119,181,255
Combo4 : 245,84,108

[HitObjects]
112,52,614,5,0,0:0:0:0:
208,100,959,1,0,0:0:0:0:
124,164,1304,2,0,L|72:160,2,48
256,188,1993,5,0,0:0:0:0:
360,204,2338,1,0,0:0:0:0:
292,284,2683,2,0,L|240:288,2,48
440,256,3373,6,0,L|452:156,1,96
360,104,4062,2,0,L|364:152,2,48
272,48,4752,5,0,0:0:0:0:
184,104,5097,1,0,0:0:0:0:
156,204,5442,1,0,0:0:0:0:
168,308,5787,1,0,0:0:0:0:
252,368,6131,6,0,P|268:316|260:268,1,96
196,192,6821,2,0,P|228:192|244:188,1,48
280,148,7166,2,0,L|384:152,1,96
448,228,7855,1,0,0:0:0:0:
364,292,8200,1,0,0:0:0:0:
268,248,8545,1,0,0:0:0:0:
164,252,8890,6,0,P|152:304|152:356,1,96
236,364,9407,2,0,P|248:312|248:260,1,96
224,188,9924,1,0,0:0:0:0:
404,80,10614,5,0,0:0:0:0:
404,80,10787,2,0,L|452:84,1,48,0|2,0:0|3:0,0:0:0:0:
448,276,11476,1,0,0:0:0:0:
448,276,11649,6,0,P|384:256|328:260,1,120,2|0,0:0|0:0,0:0:0:0:
276,336,12166,2,0,P|240:280|244:228,1,120
316,164,12683,1,2,0:0:0:0:
324,176,13373,1,0,0:0:0:0:
200,320,13718,2,0,L|80:312,1,120,8|0,0:0|0:0,0:0:0:0:
16,240,14235,1,0,0:0:0:0:
76,164,14407,6,0,P|132:168|192:144,1,120,2|0,0:0|0:0,0:0:0:0:
216,52,14924,2,0,P|264:92|288:148,1,120,8|0,0:0|0:0,0:0:0:0:
240,228,15442,1,2,0:0:0:0:
228,236,16131,1,0,0:0:0:0:
404,156,16476,1,8,0:0:0:0:
404,156,16821,2,0,L|416:224,1,60
360,320,17166,6,0,P|324:268|324:212,1,120,2|0,0:0|0:0,0:0:0:0:
392,144,17683,1,0,0:0:0:0:
320,80,17855,2,0,L|260:76,1,60,8|0,0:0|0:0,0:0:0:0:
140,164,18200,2,0,L|268:160,2,120,2|0|0,0:0|0:0|0:0,0:0:0:0:
24,48,19235,2,0,P|60:40|92:36,1,60,8|8,0:0|0:0,0:0:0:0:
164,88,19580,2,0,P|172:124|176:156,1,60
132,252,19924,2,0,B|168:232|168:232|248:236,1,120
428,336,20614,5,2,0:0:0:0:
424,320,21304,5,2,0:0:0:0:
420,304,21993,5,2,0:0:0:0:
336,200,22338,2,0,L|332:260,1,60
428,212,22683,6,0,L|420:116,1,96,2|0,0:0|0:0,0:0:0:0:
304,12,23373,2,0,L|296:60,1,48
248,120,23718,2,0,P|268:168|304:204,1,96,0|2,0:0|0:0,0:0:0:0:
452,104,24407,2,0,P|400:100|336:112,2,96
496,280,25442,6,0,P|448:286|400:281,1,96,2|0,0:0|0:0,0:0:0:0:
256,232,26131,1,0,0:0:0:0:
124,312,26476,2,0,L|136:368,1,48
48,344,26821,2,0,P|44:296|72:248,1,96,2|0,0:0|0:0,0:0:0:0:
220,236,27511,2,0,P|241:193|237:146,1,96
188,88,28028,1,0,0:0:0:0:
248,40,28200,6,0,L|344:48,1,96,2|0,0:0|0:0,0:0:0:0:
432,176,28890,1,0,0:0:0:0:
304,260,29235,2,0,P|299:307|314:352,2,96,0|2|0,0:0|0:0|0:0,0:0:0:0:
372,124,30269,1,0,0:0:0:0:
472,244,30614,2,0,P|448:252|420:252,1,48
352,228,30959,6,0,P|300:228|256:232,1,96,2|0,0:0|0:0,0:0:0:0:
140,336,31649,1,0,0:0:0:0:
32,228,31993,2,0,L|36:176,1,48
124,144,32338,2,0,L|132:244,2,96,2|0|0,0:0|0:0|0:0,0:0:0:0:
252,40,33373,2,0,L|248:88,1,48
212,172,33718,6,0,P|244:216|288:244,1,102.000001945496,4|0,0:0|0:0,0:0:0:0:
348,152,34235,2,0,L|296:156,1,51.0000009727478,0|2,0:0|0:0,0:0:0:0:
116,292,34752,2,0,L|228:300,1,102.000001945496
364,232,35442,1,4,0:0:0:0:
252,40,35787,1,8,0:0:0:0:
244,48,36131,2,0,P|244:80|248:104,1,51.0000009727478
300,160,36476,6,0,P|252:176|196:164,1,102.000001945496,4|0,0:0|0:0,0:0:0:0:
132,124,36993,2,0,P|80:120|32:144,1,102.000001945496
96,196,37511,1,0,0:0:0:0:
216,308,37855,2,0,P|268:312|320:308,2,102.000001945496,0|4|8,0:0|0:0|0:0,0:0:0:0:
304,172,38890,2,0,P|272:168|248:168,1,51.0000009727478
192,224,39235,5,4,0:0:0:0:
88,100,39580,1,0,0:0:0:0:
144,40,39752,2,0,P|204:32|256:40,1,102.000001945496
332,172,40442,2,0,P|272:180|220:172,1,102.000001945496
172,120,40959,1,4,0:0:0:0:
40,216,41304,2,0,P|40:272|52:324,1,102.000001945496,8|0,0:0|0:0,0:0:0:0:
208,360,41993,6,0,P|221:311|222:260,1,102.000001945496,4|0,0:0|0:0,0:0:0:0:
160,208,42511,2,0,L|172:104,1,102.000001945496
244,68,43028,1,0,0:0:0:0:
320,216,43373,2,0,P|280:260|240:280,1,102.000001945496
180,328,43890,2,0,L|128:324,2,51.0000009727478,8|8|4,0:3|0:3|0:3,0:0:0:0:
256,356,44407,2,0,L|308:360,1,51.0000009727478,4|0,0:3|0:0,0:0:0:0:
396,324,44752,5,4,0:0:0:0:
368,136,45097,2,0,L|308:140,1,60,4|0,0:0|0:0,0:0:0:0:
236,204,45442,2,0,P|216:152|228:88,1,120,8|0,0:0|0:0,0:0:0:0:
316,52,45959,1,0,0:0:0:0:
380,124,46131,2,0,L|372:188,1,60,2|0,0:0|0:0,0:0:0:0:
480,132,46476,2,0,L|472:12,1,120,4|8,0:0|0:0,0:0:0:0:
288,64,47166,5,0,0:0:0:0:
196,88,47338,1,0,0:0:0:0:
104,116,47511,2,0,P|84:84|76:56,1,60,6|0,0:0|0:0,0:0:0:0:
172,180,47855,2,0,P|152:208|132:228,1,60,4|0,0:0|0:0,0:0:0:0:
44,260,48200,5,8,0:0:0:0:
24,160,48373,2,0,L|84:156,1,60
228,252,48718,1,8,0:0:0:0:
228,252,48890,2,0,L|348:244,2,120,2|4|8,0:0|0:0|0:0,0:0:0:0:
76,140,49924,6,0,P|72:108|76:80,1,60
160,36,50269,2,0,L|280:40,1,120,6|4,0:0|0:0,0:0:0:0:
352,104,50787,1,0,0:0:0:0:
284,172,50959,2,0,P|280:204|284:232,1,60,8|0,0:0|0:0,0:0:0:0:
444,336,51476,2,0,P|460:272|452:216,1,120,8|0,0:0|0:0,0:0:0:0:
360,200,51993,2,0,L|240:208,1,120,4|8,0:0|0:0,0:0:0:0:
300,304,52511,6,0,L|180:296,1,120
108,232,53028,1,6,0:0:0:0:
120,224,53373,1,4,0:0:0:0:
180,160,53545,2,0,P|176:124|168:100,1,60,0|8,0:0|0:0,0:0:0:0:
64,44,53890,6,0,P|56:120|68:168,1,120,0|8,0:0|0:0,0:0:0:0:
132,232,54407,2,0,L|192:236,1,60,2|0,0:0|0:0,0:0:0:0:
268,296,54752,2,0,B|232:320|232:320|156:316,1,120,4|8,0:0|0:0,0:0:0:0:
56,152,55442,1,0,0:0:0:0:
104,68,55614,1,0,0:0:0:0:
156,148,55787,6,0,P|204:152|268:124,1,120,6|4,0:0|0:0,0:0:0:0:
376,44,56304,1,0,0:0:0:0:
376,44,56476,2,0,P|348:100|352:164,1,120
420,224,56993,1,0,0:0:0:0:
352,292,57166,2,0,L|292:288,1,60,2|0,0:0|0:0,0:0:0:0:
208,240,57511,2,0,B|124:248|124:248|84:240,1,120,4|8,0:0|0:0,0:0:0:0:
212,64,58200,5,0,0:0:0:0:
296,112,58373,1,0,0:0:0:0:
304,208,58545,2,0,L|296:268,1,60,6|0,0:0|0:0,0:0:0:0:
396,240,58890,2,0,L|404:300,1,60,4|0,0:0|0:0,0:0:0:0:
496,244,59235,6,0,L|480:120,1,120,8|0,0:0|0:0,0:0:0:0:
396,80,59752,2,0,B|360:100|360:100|276:104,1,120,8|0,0:0|0:0,0:0:0:0:
200,52,60269,1,4,0:0:0:0:
40,160,60614,2,0,B|32:232|32:232|48:276,1,120,8|0,0:0|0:0,0:0:0:0:
112,348,61131,1,0,0:0:0:0:
144,256,61304,6,0,P|204:244|264:252,1,120,6|4,0:0|0:0,0:0:0:0:
332,316,61821,1,0,0:0:0:0:
404,252,61993,1,8,0:0:0:0:
480,192,62166,2,0,P|424:164|368:164,2,120,0|2|0,0:0|0:0|0:0,0:0:0:0:
476,312,63028,2,0,P|423:339|363:339,1,120,4|8,0:0|0:0,0:0:0:0:
260,176,63718,1,0,0:0:0:0:
168,196,63890,1,0,0:0:0:0:
76,216,64062,6,0,L|68:336,1,120,6|4,0:0|0:0,0:0:0:0:
160,364,64580,1,0,0:0:0:0:
208,280,64752,2,0,P|264:276|332:284,1,120,8|0,0:0|0:0,0:0:0:0:
428,352,65269,2,0,P|360:368|304:368,1,120,8|0,0:0|0:0,0:0:0:0:
224,260,65787,6,0,L|228:200,1,60,6|0,0:0|0:0,0:0:0:0:
312,156,66131,2,0,L|304:36,1,120,8|0,0:0|0:0,0:0:0:0:
208,16,66649,1,0,0:0:0:0:
156,96,66821,6,0,P|124:96|96:92,1,60,2|0,0:0|0:0,0:0:0:0:
20,152,67166,2,0,P|8:124|0:92,1,60,8|0,0:3|0:0,0:0:0:0:
112,184,67511,1,6,0:0:0:0:
76,272,67683,1,8,0:3:0:0:
84,284,68028,1,8,0:3:0:0:
176,260,68200,5,2,0:0:0:0:
256,312,68373,1,8,0:3:0:0:
344,260,68545,2,0,L|336:200,1,60,8|0,0:3|0:0,0:0:0:0:
256,108,68890,2,0,L|252:172,1,60,6|0,0:0|0:0,0:0:0:0:
264,304,69235,1,0,0:0:0:0:
172,332,69407,1,0,0:0:0:0:
132,244,69580,6,0,P|76:232|12:236,1,120,6|4,0:0|0:0,0:0:0:0:
180,140,70269,2,0,P|216:152|240:156,1,60,8|0,0:0|0:0,0:0:0:0:
332,132,70614,1,0,0:0:0:0:
316,228,70787,1,8,0:0:0:0:
380,300,70959,6,0,B|468:304|468:304|500:292,1,120,6|4,0:0|0:0,0:0:0:0:
464,104,71649,2,0,B|376:100|376:100|344:112,1,120,8|0,0:0|0:0,0:0:0:0:
256,148,72166,1,0,0:0:0:0:
176,96,72338,6,0,L|180:36,1,60,6|0,0:0|0:0,0:0:0:0:
80,72,72683,2,0,L|88:200,1,120,4|8,0:0|0:0,0:0:0:0:
236,316,73373,1,0,0:0:0:0:
328,344,73545,2,0,B|352:308|352:308|348:228,1,120,8|0,0:0|0:0,0:0:0:0:
272,120,74062,2,0,L|264:180,1,60,4|0,0:0|0:0,0:0:0:0:
252,276,74407,1,8,0:0:0:0:
164,192,74580,6,0,L|172:132,2,60
72,224,75097,2,0,P|76:284|124:324,1,120,6|4,0:0|0:0,0:0:0:0:
204,276,75614,1,0,0:0:0:0:
300,292,75787,2,0,L|316:380,2,90,8|0|0,0:0|0:0|0:0,0:0:0:0:
220,188,76476,6,0,L|236:64,1,120,6|0,0:0|0:0,0:0:0:0:
336,140,76993,1,0,0:0:0:0:
336,140,77166,2,0,P|368:144|404:136,1,60,8|0,0:0|0:0,0:0:0:0:
428,48,77511,2,0,P|396:44|360:52,1,60
260,84,77855,6,0,L|140:76,1,120,6|4,0:0|0:0,0:0:0:0:
46,54,78373,1,0,0:0:0:0:
0,138,78545,1,8,0:0:0:0:
16,232,78718,2,0,P|64:252|132:240,2,120,0|8|0,0:0|0:0|0:0,0:0:0:0:
184,172,79580,2,0,P|208:204|216:228,1,60,4|8,0:0|0:0,0:0:0:0:
196,316,79924,2,0,L|320:324,1,120,8|8,0:0|0:0,0:0:0:0:
396,268,80442,1,8,0:0:0:0:
468,332,80614,6,0,P|488:276|476:216,1,120,6|4,0:0|0:0,0:0:0:0:
288,176,81304,2,0,P|280:212|284:236,1,60,8|0,0:0|0:0,0:0:0:0:
368,280,81649,1,0,0:0:0:0:
432,208,81821,1,8,0:0:0:0:
440,336,81993,6,0,B|408:360|408:360|324:356,1,120,6|4,0:0|0:0,0:0:0:0:
116,240,82683,2,0,L|176:236,2,60,8|0|0,0:0|0:0|0:0,0:0:0:0:
40,300,83200,1,0,0:0:0:0:
208,316,83373,6,0,P|248:276|256:216,1,120,6|4,0:0|0:0,0:0:0:0:
196,140,83890,1,0,0:0:0:0:
108,100,84062,2,0,L|100:4,2,90,8|0|0,0:0|0:0|0:0,0:0:0:0:
152,220,84752,6,0,P|208:228|272:196,1,120,6|0,0:0|0:0,0:0:0:0:
219,86,85269,2,0,P|203:111|196:140,1,60,0|8,0:0|0:0,0:0:0:0:
304,120,85614,1,0,0:0:0:0:
304,120,85787,2,0,B|392:132|392:132|420:120,1,120,0|6,0:0|0:0,0:0:0:0:
160,40,86476,5,4,0:0:0:0:
76,88,86649,1,0,0:0:0:0:
160,132,86821,2,0,L|220:128,1,60,8|0,0:0|0:0,0:0:0:0:
316,116,87166,1,0,0:0:0:0:
224,216,87338,6,0,L|104:224,1,120,8|0,0:0|0:0,0:0:0:0:
40,152,87855,2,0,P|40:96|80:48,1,120,4|8,0:0|0:0,0:0:0:0:
256,124,88545,2,0,P|208:144|188:148,1,60
240,40,88890,6,0,B|328:44|328:44|356:64,2,120,6|4|8,0:0|0:0|0:0,0:0:0:0:
68,132,89924,2,0,L|60:192,1,60,0|8,0:0|0:0,0:0:0:0:
132,256,90269,1,4,0:0:0:0:
256,192,91649,12,0,93718,0:0:0:0:
144,160,102338,6,0,L|200:156,1,51.0000009727478
240,248,102683,6,0,L|136:240,1,102.000001945496,2|0,0:0|0:0,0:0:0:0:
72,192,103200,1,0,0:0:0:0:
80,112,103373,1,2,0:0:0:0:
88,104,103718,2,0,P|92:72|88:48,1,51.0000009727478
0,144,104062,6,0,P|40:188|104:192,1,102.000001945496,2|4,0:0|0:0,0:0:0:0:
192,76,104752,1,8,0:0:0:0:
324,156,105097,2,0,L|320:208,1,51.0000009727478
320,288,105442,6,0,B|252:296|252:296|220:288,1,102.000001945496,2|0,0:0|0:0,0:0:0:0:
148,248,105959,1,0,0:0:0:0:
88,304,106131,2,0,P|64:256|76:204,1,102.000001945496,2|0,0:0|0:0,0:0:0:0:
180,84,106821,6,0,B|196:152|196:152|188:184,2,102.000001945496,2|4|8,0:0|0:0|0:0,0:0:0:0:
28,144,107855,1,0,0:0:0:0:
12,224,108028,1,0,0:0:0:0:
56,292,108200,6,0,L|164:296,1,102.000001945496,2|0,0:0|0:0,0:0:0:0:
228,340,108718,2,0,L|336:336,1,102.000001945496
388,228,109235,2,0,L|280:232,1,102.000001945496,0|2,0:0|0:0,0:0:0:0:
132,280,109924,1,4,0:0:0:0:
156,120,110269,1,8,0:0:0:0:
320,144,110614,6,0,P|292:156|268:160,1,51.0000009727478
276,68,110959,2,0,B|340:64|340:64|376:80,1,102.000001945496,2|0,0:0|0:0,0:0:0:0:
448,116,111476,2,0,P|444:172|448:220,1,102.000001945496
496,284,111993,2,0,L|492:336,1,51.0000009727478
368,360,112338,6,0,L|380:256,2,102.000001945496,2|4|8,0:0|0:0|0:0,0:0:0:0:
256,240,113373,2,0,L|248:184,1,51.0000009727478
180,276,113718,6,0,P|220:312|272:320,1,102.000001945496,2|0,0:0|0:0,0:0:0:0:
340,284,114235,1,0,0:0:0:0:
412,244,114407,1,2,0:0:0:0:
424,236,114752,2,0,L|428:180,1,51.0000009727478
340,96,115097,6,0,P|328:156|340:208,1,102.000001945496,2|4,0:0|0:0,0:0:0:0:
452,312,115787,1,8,0:0:0:0:
292,280,116131,1,0,0:0:0:0:
260,204,116304,1,0,0:0:0:0:
292,128,116476,6,0,P|344:124|396:128,1,102.000001945496,2|0,0:0|0:0,0:0:0:0:
472,80,116993,2,0,P|476:132|472:184,1,102.000001945496
392,264,117511,2,0,P|388:240|392:212,1,51.0000009727478
448,324,117855,6,0,P|404:344|348:336,1,102.000001945496,2|4,0:0|0:0,0:0:0:0:
260,204,118545,1,8,0:0:0:0:
128,296,118890,2,0,L|124:352,1,51.0000009727478
172,220,119235,6,0,L|164:116,1,102.000001945496,2|0,0:0|0:0,0:0:0:0:
116,52,119752,1,0,0:0:0:0:
44,88,119924,2,0,P|64:116|80:124,1,51.0000009727478
196,40,120269,6,0,P|244:40|300:44,1,102.000001945496,0|2,0:0|0:0,0:0:0:0:
400,172,120959,1,4,0:0:0:0:
268,268,121304,1,8,0:0:0:0:
256,260,121649,2,0,P|252:232|256:204,1,51.0000009727478
324,128,121993,6,0,P|332:188|324:232,1,102.000001945496,2|0,0:0|0:0,0:0:0:0:
244,336,122511,1,0,0:0:0:0:
160,304,122683,2,0,L|156:224,2,76.5000014591217,2|0|0,0:0|0:0|0:0,0:0:0:0:
224,188,123373,6,0,L|216:84,1,102.000001945496,2|4,0:0|0:0,0:0:0:0:
144,44,123890,1,8,0:3:0:0:
72,80,124062,2,0,P|49:63|32:40,1,51.0000009727478,8|4,0:3|0:3,0:0:0:0:
140,128,124407,2,0,P|144:155|140:183,1,51.0000009727478,4|0,0:3|0:0,0:0:0:0:
56,240,124752,5,4,0:0:0:0:
48,252,125097,2,0,P|108:248|168:264,2,120,4|8|0,0:0|0:0|0:0,0:0:0:0:
0,336,125959,1,8,0:0:0:0:
88,372,126131,2,0,L|148:368,1,60,2|0,0:0|0:0,0:0:0:0:
236,328,126476,2,0,P|300:324|348:352,1,120,4|8,0:0|0:0,0:0:0:0:
428,256,126993,6,0,P|364:260|316:232,1,120
388,168,127511,2,0,L|380:108,1,60,6|0,0:0|0:0,0:0:0:0:
304,52,127855,1,4,0:0:0:0:
212,80,128028,1,0,0:0:0:0:
132,28,128200,2,0,P|120:64|116:88,2,60,8|0|0,0:0|0:0|0:0,0:0:0:0:
176,160,128718,6,0,P|116:176|56:160,1,120,8|0,0:0|0:0,0:0:0:0:
20,76,129235,1,4,0:0:0:0:
208,36,129580,1,8,0:0:0:0:
292,80,129752,2,0,L|296:144,2,60
380,40,130269,6,0,L|388:160,1,120,6|4,0:0|0:0,0:0:0:0:
328,236,130787,1,0,0:0:0:0:
416,276,130959,1,8,0:0:0:0:
352,348,131131,2,0,B|316:360|316:360|232:348,1,120,0|8,0:0|0:0,0:0:0:0:
224,160,131821,1,0,0:0:0:0:
224,160,131993,2,0,P|288:168|320:212,1,120,4|8,0:0|0:0,0:0:0:0:
280,324,132511,6,0,L|220:328,2,60
372,296,133028,2,0,L|492:304,1,120,6|4,0:0|0:0,0:0:0:0:
400,212,133545,2,0,L|340:208,1,60,0|8,0:0|0:0,0:0:0:0:
228,252,133890,1,0,0:0:0:0:
240,244,134235,6,0,P|256:184|240:128,1,120,8|0,0:0|0:0,0:0:0:0:
144,124,134752,2,0,P|128:184|144:240,1,120,4|8,0:0|0:0,0:0:0:0:
304,344,135442,1,0,0:0:0:0:
396,316,135614,1,0,0:0:0:0:
480,364,135787,6,0,P|492:304|468:248,1,120,6|4,0:0|0:0,0:0:0:0:
388,200,136304,1,0,0:0:0:0:
300,160,136476,2,0,L|312:40,1,120,8|0,0:0|0:0,0:0:0:0:
220,64,136993,1,8,0:0:0:0:
128,88,137166,2,0,L|136:148,1,60,2|0,0:0|0:0,0:0:0:0:
188,228,137511,2,0,L|176:348,1,120,4|8,0:0|0:0,0:0:0:0:
72,292,138028,6,0,L|76:356,2,60
104,200,138545,1,6,0:0:0:0:
24,144,138718,1,0,0:0:0:0:
100,88,138890,2,0,P|128:84|160:84,1,60,4|0,0:0|0:0,0:0:0:0:
260,164,139235,6,0,P|232:168|200:168,1,60,8|0,0:0|0:0,0:0:0:0:
320,88,139580,1,0,0:0:0:0:
404,132,139752,2,0,B|416:216|416:216|404:248,1,120,8|0,0:0|0:0,0:0:0:0:
336,336,140269,2,0,P|396:332|468:348,1,120,4|8,0:0|0:0,0:0:0:0:
512,264,140787,1,0,0:0:0:0:
448,192,140959,2,0,L|388:196,1,60
308,248,141304,6,0,B|276:224|276:224|264:144,1,120,6|4,0:0|0:0,0:0:0:0:
400,8,141993,2,0,B|432:32|432:32|444:112,1,120,8|0,0:0|0:0,0:0:0:0:
380,184,142511,1,8,0:0:0:0:
328,104,142683,6,0,P|264:92|208:92,1,120,6|4,0:0|0:0,0:0:0:0:
72,228,143373,1,8,0:0:0:0:
264,232,143718,2,0,L|260:172,1,60
184,288,144062,6,0,P|232:324|296:324,1,120,6|4,0:0|0:0,0:0:0:0:
364,264,144580,1,0,0:0:0:0:
408,348,144752,2,0,L|476:352,1,60,8|0,0:0|0:0,0:0:0:0:
332,176,145269,6,0,L|212:168,1,120,8|0,0:0|0:0,0:0:0:0:
128,216,145787,1,4,0:0:0:0:
48,164,145959,1,0,0:0:0:0:
56,276,146131,2,0,L|60:336,1,60,8|0,0:0|0:0,0:0:0:0:
152,364,146476,2,0,L|156:304,1,60
120,204,146821,5,2,0:0:0:0:
212,180,146993,1,0,0:0:0:0:
288,240,147166,2,0,L|348:244,1,60,8|0,0:3|0:0,0:0:0:0:
428,192,147511,1,10,0:3:0:0:
372,116,147683,1,8,0:3:0:0:
356,124,148028,5,8,0:3:0:0:
268,84,148200,2,0,L|208:80,1,60,2|8,0:0|0:3,0:0:0:0:
128,176,148545,2,0,L|248:172,2,120,8|10|0,0:3|0:3|0:0,0:0:0:0:
56,112,149407,1,0,0:0:0:0:
120,40,149580,6,0,P|184:32|240:32,1,120,6|4,0:0|0:0,0:0:0:0:
392,148,150269,2,0,P|352:152|328:148,1,60,8|0,0:0|0:0,0:0:0:0:
240,124,150614,1,0,0:0:0:0:
268,216,150787,1,0,0:0:0:0:
204,288,150959,6,0,L|76:280,1,120,2|4,0:0|0:0,0:0:0:0:
40,92,151649,2,0,L|168:100,1,120,8|0,0:0|0:0,0:0:0:0:
248,136,152166,1,0,0:0:0:0:
340,108,152338,6,0,P|348:80|348:48,1,60,6|0,0:0|0:0,0:0:0:0:
244,144,152683,2,0,B|280:180|280:180|348:192,2,120,4|8|0,0:0|0:0|0:0,0:0:0:0:
228,48,153545,2,0,P|172:44|104:48,1,120,8|0,0:0|0:0,0:0:0:0:
24,92,154062,2,0,P|20:148|24:216,1,120,4|8,0:0|0:0,0:0:0:0:
96,276,154580,2,0,L|92:340,2,60
188,304,155097,6,0,L|176:184,1,120,6|4,0:0|0:0,0:0:0:0:
120,108,155614,1,0,0:0:0:0:
160,20,155787,2,0,P|200:16|256:16,2,90,8|0|0,0:0|0:0|0:0,0:0:0:0:
36,48,156476,6,0,B|16:96|16:96|24:164,1,120,6|4,0:0|0:0,0:0:0:0:
92,232,156993,1,0,0:0:0:0:
180,176,157166,2,0,P|216:172|240:176,1,60,8|0,0:0|0:0,0:0:0:0:
336,184,157511,2,0,P|340:220|336:248,1,60
276,316,157855,6,0,P|220:316|148:324,1,120,6|4,0:0|0:0,0:0:0:0:
64,352,158373,1,0,0:0:0:0:
96,248,158545,2,0,L|108:188,2,60,8|0|0,0:0|0:0|0:0,0:0:0:0:
12,200,159062,2,0,L|36:80,1,120,8|0,0:0|0:0,0:0:0:0:
120,36,159580,2,0,L|184:40,1,60,4|8,0:0|0:0,0:0:0:0:
244,112,159924,1,8,0:0:0:0:
460,188,160269,2,0,L|396:184,1,60,8|8,0:0|0:0,0:0:0:0:
336,112,160614,6,0,P|340:52|380:12,1,120,6|4,0:0|0:0,0:0:0:0:
472,184,161304,2,0,L|476:248,1,60,8|0,0:0|0:0,0:0:0:0:
424,324,161649,1,0,0:0:0:0:
336,288,161821,1,0,0:0:0:0:
252,336,161993,2,0,B|164:344|164:344|132:332,2,120,6|4|8,0:0|0:0|0:0,0:0:0:0:
276,216,162855,6,0,L|268:156,2,60
184,188,163373,2,0,L|196:64,1,120,6|4,0:0|0:0,0:0:0:0:
280,24,163890,1,0,0:0:0:0:
332,104,164062,2,0,P|368:108|424:104,2,90,8|0|0,0:0|0:0|0:0,0:0:0:0:
456,28,164752,6,4,P|496:72|500:136,1,120,6|4,0:0|0:0,0:0:0:0:
448,212,165269,1,0,0:0:0:0:
360,172,165442,2,0,B|328:164|328:164|240:176,2,120,8|0|6,0:0|0:0|0:0,0:0:0:0:
260,336,166476,1,4,0:0:0:0:
72,288,166821,6,0,L|76:224,2,60,8|0|0,0:0|0:0|0:0,0:0:0:0:
148,348,167338,2,0,P|196:308|208:252,1,120,8|0,0:0|0:0,0:0:0:0:
156,172,167855,2,0,B|160:112|160:112|200:64,1,120,4|8,0:0|0:0,0:0:0:0:
416,140,168545,2,0,P|388:148|356:148,1,60
264,128,168890,6,0,L|140:140,2,120,6|4|8,0:0|0:0|0:0,0:0:0:0:
316,312,169924,2,0,L|376:316,1,60,0|8,0:0|0:0,0:0:0:0:
464,280,170269,1,4,0:0:0:0:
476,272,171649,6,0,P|488:212|472:152,1,120,4|4,0:0|0:0,0:0:0:0:
316,48,172338,2,0,P|304:108|320:168,1,120,8|4,0:0|0:0,0:0:0:0:
400,216,172855,1,8,0:0:0:0:
336,288,173028,2,0,L|272:284,1,60,2|4,0:0|0:0,0:0:0:0:
200,224,173373,2,0,L|80:236,1,120,4|8,0:0|0:0,0:0:0:0:
20,312,173890,1,4,0:0:0:0:
32,320,174407,6,0,P|48:260|48:200,1,120,4|0,0:0|0:0,0:0:0:0:
152,40,175097,2,0,P|136:100|136:160,1,120,8|0,0:0|0:0,0:0:0:0:
200,228,175614,1,8,0:0:0:0:
268,160,175787,2,0,L|388:156,1,120,6|4,0:0|0:0,0:0:0:0:
464,332,176476,2,0,L|404:328,1,60,8|0,0:0|0:0,0:0:0:0:
320,280,176821,2,0,L|260:284,1,60
172,320,177166,6,0,L|108:312,2,60,6|0|4,0:0|0:0|0:0,0:0:0:0:
256,368,177683,1,0,0:0:0:0:
188,236,177855,2,0,P|184:180|196:116,1,120,8|0,0:0|0:0,0:0:0:0:
304,40,178373,2,0,B|324:120|324:120|316:160,1,120,8|0,0:0|0:0,0:0:0:0:
284,248,178890,1,4,0:0:0:0:
436,128,179235,2,0,L|496:132,1,60,8|0,0:0|0:0,0:0:0:0:
512,228,179580,2,0,L|456:248,1,60
368,208,179924,6,0,B|344:248|344:248|336:320,1,120,6|4,0:0|0:0,0:0:0:0:
144,352,180614,2,0,B|120:280|120:280|124:228,1,120,8|0,0:0|0:0,0:0:0:0:
188,164,181131,1,8,0:0:0:0:
368,96,181476,1,0,0:0:0:0:
432,168,181649,2,8,B|412:192|412:192|324:208,1,120,4|8,0:0|0:0,0:0:0:0:
256,140,182166,2,0,L|192:132,2,60
248,260,182683,6,0,P|188:256|128:276,1,120,6|4,0:0|0:0,0:0:0:0:
304,360,183373,2,0,P|364:364|424:344,1,120,8|0,0:0|0:0,0:0:0:0:
480,272,183890,1,8,0:0:0:0:
352,128,184235,1,0,0:0:0:0:
392,40,184407,2,0,L|452:36,1,60,4|8,0:0|0:0,0:0:0:0:
504,116,184752,2,0,L|488:176,1,60,8|4,0:0|0:0,0:0:0:0:
492,192,185442,6,0,B|428:184|428:184|368:200,1,120,6|4,0:0|0:0,0:0:0:0:
248,344,186131,1,8,0:0:0:0:
340,368,186304,2,0,P|400:348|428:300,1,120,0|8,0:0|0:0,0:0:0:0:
344,252,186821,2,0,L|280:260,1,60,6|0,0:0|0:0,0:0:0:0:
188,272,187166,2,0,L|68:264,1,120,4|8,0:0|0:0,0:0:0:0:
0,196,187683,1,0,0:0:0:0:
68,128,187855,2,0,L|60:64,1,60
160,24,188200,6,0,L|152:148,1,120,6|4,0:0|0:0,0:0:0:0:
120,236,188718,2,0,P|152:252|188:256,1,60,0|8,0:0|0:0,0:0:0:0:
272,244,189062,2,0,P|336:244|388:264,1,120,0|8,0:0|0:0,0:0:0:0:
484,248,189580,2,0,L|476:184,1,60,6|0,0:0|0:0,0:0:0:0:
388,152,189924,2,0,L|400:28,1,120,4|8,0:0|0:0,0:0:0:0:
304,12,190442,1,0,0:0:0:0:
252,92,190614,2,0,P|212:100|184:100,1,60
112,48,190959,6,0,L|120:172,1,120,6|4,0:0|0:0,0:0:0:0:
16,332,191649,2,0,L|24:208,1,120,8|0,0:0|0:0,0:0:0:0:
108,260,192166,2,0,P|176:268|228:256,1,120,8|0,0:0|0:0,0:0:0:0:
296,192,192683,1,4,0:0:0:0:
252,108,192855,2,0,L|256:48,1,60,0|8,0:0|0:0,0:0:0:0:
368,24,193200,2,0,L|376:144,1,120
384,240,193718,5,6,0:0:0:0:
220,336,194062,1,8,0:3:0:0:
256,148,194407,1,8,0:3:0:0:
344,188,194580,2,0,L|408:176,1,60,8|0,0:3|0:0,0:0:0:0:
300,272,194924,2,0,L|240:264,1,60,8|4,0:3|0:0,0:0:0:0:
168,200,195269,5,0,0:0:0:0:
80,240,195442,2,0,L|84:368,2,120,8|0|4,0:3|0:0|0:0,0:0:0:0:
64,144,196304,1,0,0:0:0:0:
52,48,196476,1,4,0:0:0:0:
256,192,196649,12,4,199235,0:0:0:0:
128,112,199924,6,0,P|216:96|304:120,1,180,8|0,0:0|0:0,0:0:0:0:
360,196,200614,1,6,0:0:0:0:
228,336,200959,1,4,0:0:0:0:
80,216,201304,2,0,P|140:204|200:216,1,120,8|0,0:0|0:0,0:0:0:0:
340,344,201993,5,6,0:0:0:0:
276,164,202338,2,0,L|292:44,1,120,4|8,0:0|0:0,0:0:0:0:
484,24,203028,2,0,L|476:84,1,60
412,156,203373,6,0,P|408:220|428:272,1,120,6|4,0:0|0:0,0:0:0:0:
256,360,204062,2,0,P|260:296|240:244,1,120,8|0,0:0|0:0,0:0:0:0:
152,204,204580,1,0,0:0:0:0:
128,296,204752,6,0,B|96:312|96:312|12:304,1,120,6|4,0:0|0:0,0:0:0:0:
24,112,205442,2,0,B|56:96|56:96|140:104,1,120,8|0,0:0|0:0,0:0:0:0:
216,164,205959,1,0,0:0:0:0:
288,228,206131,6,0,L|412:236,1,120,6|4,0:0|0:0,0:0:0:0:
500,80,206821,1,8,0:0:0:0:
312,120,207166,1,0,0:0:0:0:
256,192,207511,12,0,209580,0:0:0:0:
120,192,221304,6,0,P|172:248|284:252,1,192,6|2,0:0|0:0,0:0:0:0:
364,184,222338,1,0,0:0:0:0:
444,256,222683,2,0,L|436:360,2,96,2|0|2,0:0|0:0|0:0,0:0:0:0:
476,156,223718,1,4,0:0:0:0:
508,56,224062,6,0,B|460:68|460:68|316:52,1,192,6|2,0:0|0:0,0:0:0:0:
116,112,225442,2,0,L|214:124,1,96,2|0,0:0|0:0,0:0:0:0:
292,192,226131,1,2,0:0:0:0:
384,140,226476,2,0,P|392:188|388:236,1,96,4|4,0:0|0:0,0:0:0:0:
120,348,227511,5,2,0:0:0:0:
76,252,227855,1,0,0:0:0:0:
180,232,228200,2,0,L|280:244,2,96,4|4|8,0:0|0:0|0:0,0:0:0:0:
328,140,229235,2,0,L|276:148,1,48
192,140,229580,6,0,P|144:136|88:144,1,96,4|4,0:0|0:0,0:0:0:0:
64,272,230269,2,0,P|112:276|168:268,1,96,4|4,0:0|0:0,0:0:0:0:
308,228,230959,1,12,0:0:0:0:
308,228,231131,1,12,0:0:0:0:
320,240,232338,6,0,L|308:120,1,120,6|4,0:0|0:0,0:0:0:0:
476,24,233028,2,0,L|472:84,1,60,8|0,0:0|0:0,0:0:0:0:
424,168,233373,1,0,0:0:0:0:
480,244,233545,1,8,0:0:0:0:
416,316,233718,2,0,P|348:308|296:316,1,120,6|4,0:0|0:0,0:0:0:0:
56,300,234407,2,0,P|124:308|176:300,1,120,8|0,0:0|0:0,0:0:0:0:
248,236,234924,1,0,0:0:0:0:
184,164,235097,6,0,L|192:104,1,60,6|0,0:0|0:0,0:0:0:0:
268,44,235442,2,0,P|328:40|392:56,1,120,4|8,0:0|0:0,0:0:0:0:
504,204,236131,1,0,0:0:0:0:
428,264,236304,2,0,L|308:256,1,120,8|0,0:0|0:0,0:0:0:0:
228,204,236821,2,0,L|104:216,1,120,4|8,0:0|0:0,0:0:0:0:
268,120,237338,6,0,L|328:124,2,60
180,80,237855,2,0,P|120:76|60:92,1,120,6|4,0:0|0:0,0:0:0:0:
4,168,238373,1,0,0:0:0:0:
24,260,238545,2,0,L|32:356,2,90,8|0|0,0:0|0:0|0:0,0:0:0:0:
120,376,239235,6,0,L|128:256,1,120,6|4,0:0|0:0,0:0:0:0:
84,172,239752,1,0,0:0:0:0:
148,100,239924,2,0,P|212:92|268:100,1,120,8|0,0:0|0:0,0:0:0:0:
432,196,240614,6,0,B|416:168|416:168|428:76,1,120,6|4,0:0|0:0,0:0:0:0:
288,212,241304,2,0,B|304:240|304:240|292:332,1,120,8|0,0:0|0:0,0:0:0:0:
200,348,241821,1,8,0:0:0:0:
144,272,241993,2,0,P|84:264|24:276,1,120,6|4,0:0|0:0,0:0:0:0:
112,360,242511,2,0,P|144:364|180:360,1,60,8|8,0:0|0:0,0:0:0:0:
232,268,242855,1,0,0:0:0:0:
168,196,243028,2,0,P|164:164|172:132,1,60,8|8,0:0|0:0,0:0:0:0:
260,104,243373,6,0,L|380:116,1,120,6|4,0:0|0:0,0:0:0:0:
460,168,243890,1,0,0:0:0:0:
380,220,244062,2,0,P|384:252|392:280,1,60,8|0,0:0|0:0,0:0:0:0:
472,332,244407,2,0,P|480:304|484:272,1,60,0|8,0:0|0:0,0:0:0:0:
376,208,244752,6,0,L|256:200,2,120,6|4|8,0:0|0:0|0:0,0:0:0:0:
292,300,245614,1,0,0:0:0:0:
292,300,245787,2,0,L|232:304,1,60
148,352,246131,2,0,P|120:300|120:232,1,120,6|4,0:0|0:0,0:0:0:0:
272,124,246821,2,0,P|284:160|276:216,2,90,8|0|0,0:0|0:0|0:0,0:0:0:0:
116,108,247511,6,0,B|144:160|144:160|204:172,1,120,6|4,0:0|0:0,0:0:0:0:
280,112,248028,1,0,0:0:0:0:
368,152,248200,2,0,L|360:276,1,120,8|0,0:0|0:0,0:0:0:0:
164,328,248890,6,0,P|148:268|160:212,1,120,6|4,0:0|0:0,0:0:0:0:
240,160,249407,1,0,0:0:0:0:
240,160,249580,2,0,L|236:96,2,60,8|0|0,0:0|0:0|0:0,0:0:0:0:
332,188,250097,2,0,L|320:308,1,120,8|0,0:0|0:0,0:0:0:0:
244,368,250614,1,4,0:0:0:0:
88,256,250959,2,0,P|144:232|212:240,1,120,8|0,0:0|0:0,0:0:0:0:
456,296,251649,6,0,B|420:320|420:320|344:324,1,120,6|4,0:0|0:0,0:0:0:0:
252,156,252338,2,0,B|288:132|288:132|364:128,1,120,8|0,0:0|0:0,0:0:0:0:
452,168,252855,1,8,0:0:0:0:
420,252,253028,6,0,L|324:260,1,96,6|0,0:0|0:0,0:0:0:0:
240,240,253546,2,0,L|96:248,1,144,2|2,0:0|0:0,0:0:0:0:
256,192,254407,12,0,257166,0:0:0:0:
344,112,257855,6,0,L|396:116,2,48
248,64,258545,1,0,0:0:0:0:
144,84,258890,1,0,0:0:0:0:
128,188,259234,1,0,0:0:0:0:
232,168,259580,1,0,0:0:0:0:
308,244,259924,6,0,P|356:260|404:256,1,96
496,208,260614,2,0,L|492:156,1,48
484,108,260959,2,0,L|388:100,1,96
288,64,261649,2,0,L|188:72,2,96
396,24,262683,5,0,0:0:0:0:
316,140,263028,1,0,0:0:0:0:
316,140,263200,2,0,P|312:192|324:240,1,96
388,276,263718,5,0,0:0:0:0:
188,100,264407,2,0,L|128:96,1,60
256,192,265959,12,0,273718,0:0:0:0:
