osu file format v14

[General]
AudioFilename: opto.mp3
AudioLeadIn: 0
PreviewTime: 174063
Countdown: 0
SampleSet: Soft
StackLeniency: 0.7
Mode: 0
LetterboxInBreaks: 0
WidescreenStoryboard: 0

[Editor]
Bookmarks: 11649,22683,44752,69580,91649,102683,124752,149580,171649,174407,196476,210269,232338,254407
DistanceSpacing: 1
BeatDivisor: 4
GridSize: 4
TimelineZoom: 1.4

[Metadata]
Title:Ima, Arukidasu Kimi e.
TitleUnicode:今、歩き出す君へ。
Artist:Ceui
ArtistUnicode:Ceui
Creator:Shad0w1and
Version:Celsius' Normal
Source:いますぐお兄ちゃんに妹だっていいたい!
Tags:fairys Nichiyouki nich95 CelsiusLK Pata-Mon
BeatmapID:918619
BeatmapSetID:422600

[Difficulty]
HPDrainRate:3.5
CircleSize:3.5
OverallDifficulty:4
ApproachRate:5
SliderMultiplier:2.05
SliderTickRate:1

[Events]
//Background and Video events
0,0,"BG4.jpg",0,0
Video,0,"opto.flv"
//Break Periods
2,91849,101423
2,210469,220044
//Storyboard Layer 0 (Background)
//Storyboard Layer 1 (Fail)
//Storyboard Layer 2 (Pass)
//Storyboard Layer 3 (Foreground)
//Storyboard Sound Samples

[TimingPoints]
-2144,689.655172413793,4,2,1,40,1,0
614,-100,4,3,1,40,0,0
11649,-100,4,2,1,80,0,0
22683,-100,4,2,1,60,0,0
33718,-100,4,2,1,60,0,0
43718,-100,4,2,1,60,0,0
44752,-100,4,2,1,70,0,0
64063,-100,4,2,1,80,0,0
68200,-100,4,2,1,60,0,0
69235,-100,4,2,1,80,0,0
69580,-100,4,2,1,100,0,1
91649,-100,4,3,1,60,0,0
101649,-100,4,2,1,40,0,0
102683,-100,4,2,1,60,0,0
124752,-100,4,2,1,70,0,0
144063,-100,4,2,1,80,0,0
149580,-100,4,2,1,100,0,1
171649,-100,4,2,1,100,0,0
174407,-100,4,2,1,100,0,1
193718,-100,4,2,1,100,0,0
196476,-100,4,2,1,100,0,1
207511,-100,4,2,1,100,0,0
207597,-100,4,2,1,60,0,0
208200,-100,4,2,1,50,0,0
208890,-100,4,2,1,40,0,0
209580,-100,4,2,1,20,0,0
210269,-100,4,3,1,50,0,0
221304,-100,4,2,1,60,0,0
226821,-100,4,2,1,80,0,0
231304,-100,4,2,1,85,0,0
231649,-100,4,2,1,90,0,0
231993,-100,4,2,1,95,0,0
232338,-100,4,2,1,100,0,1
254407,-100,4,3,1,50,0,0
265442,-100,4,3,1,40,0,0
266821,-100,4,3,1,35,0,0
268200,-100,4,3,1,30,0,0
269580,-100,4,3,1,25,0,0
270959,-100,4,3,1,20,0,0
272338,-100,4,3,1,15,0,0
273718,-100,4,3,1,10,0,0

[Colours]
Combo1 : 248,252,86
Combo2 : 128,255,166
Combo3 : 119,181,255
Combo4 : 245,84,108

[HitObjects]
140,168,614,6,0,P|192:200|236:248,1,102.5,2|0,0:0|0:0,0:0:0:0:
300,300,1304,2,0,P|300:272|308:236,2,51.25,0|0|0,0:0|0:0|0:0,0:0:0:0:
396,264,1993,2,0,P|410:209|415:154,1,102.5,2|0,0:0|0:0,0:0:0:0:
368,68,2683,2,0,L|304:60,2,51.25,0|0|0,0:0|0:0|0:0,0:0:0:0:
300,144,3373,6,0,L|176:128,1,102.5,2|0,0:0|0:0,0:0:0:0:
96,112,4062,2,0,P|92:80|68:36,2,51.25,0|0|0,0:0|0:0|0:0,0:0:0:0:
32,192,4752,2,0,B|28:236|28:236|64:316,1,102.5,2|0,0:0|0:0,0:0:0:0:
156,300,5442,2,0,P|204:280|280:284,1,102.5,0|0,0:0|0:0,0:0:0:0:
340,336,6131,6,0,P|380:292|384:220,1,102.5,2|0,0:0|0:0,0:0:0:0:
344,160,6821,2,0,L|352:96,2,51.25,0|0|0,0:0|0:0|0:0,0:0:0:0:
248,200,7511,2,0,L|120:184,1,102.5,2|0,0:0|0:0,0:0:0:0:
68,124,8200,1,0,0:0:0:0:
8,204,8545,1,0,0:0:0:0:
52,296,8890,6,0,P|104:296|200:280,1,102.5,2|0,0:0|0:0,0:0:0:0:
204,272,9407,2,0,P|192:224|200:140,1,102.5,0|0,0:0|0:0,0:0:0:0:
236,140,9924,2,0,B|264:148|288:164|288:164|336:128|424:128,1,153.75,2|0,0:0|0:0,0:0:0:0:
432,144,10614,1,0,0:0:0:0:
476,236,10959,2,0,P|400:244|308:252,1,153.75,2|0,0:0|0:0,0:0:0:0:
276,228,11649,6,0,P|220:232|192:292,1,102.5,14|0,0:1|0:0,0:0:0:0:
184,316,12166,1,8,0:0:0:0:
280,352,12511,1,0,0:0:0:0:
280,352,12683,2,0,P|373:346|452:336,1,153.75,6|0,0:0|0:0,0:0:0:0:
476,312,13373,1,4,0:0:0:0:
420,228,13718,2,0,P|392:176|376:104,1,102.5,8|0,0:0|0:0,0:0:0:0:
408,36,14407,6,0,P|336:48|260:48,1,102.5,6|0,0:0|0:0,0:0:0:0:
260,32,14924,2,0,P|268:96|268:160,1,102.5,8|0,0:0|0:0,0:0:0:0:
256,184,15442,2,0,B|220:228|164:220|164:220|128:164|60:160,1,205,6|4,0:0|0:0,0:0:0:0:
52,260,16476,2,0,B|60:312|60:312|100:356,1,102.5,8|4,0:0|0:0,0:0:0:0:
196,336,17166,6,0,P|208:288|208:200,1,102.5,6|0,0:0|0:0,0:0:0:0:
180,136,17855,1,8,0:0:0:0:
264,72,18200,2,0,B|368:52|384:108|492:64,1,205,4|4,0:0|0:0,0:0:0:0:
508,168,19235,2,0,L|484:240,2,51.25,8|8|4,0:0|0:0|0:0,0:0:0:0:
404,176,19924,6,0,P|325:200|301:277,1,153.75,6|0,0:0|0:0,0:0:0:0:
332,300,20614,2,0,L|164:303,1,153.75,2|0,0:0|0:0,0:0:0:0:
128,320,21304,2,0,B|108:272|108:272|124:196,1,102.5,2|0,0:3|3:0,0:0:0:0:
156,128,21993,1,2,3:3:0:0:
352,188,22683,6,0,P|348:248|332:308,1,102.5,2|0,0:0|0:0,0:0:0:0:
252,344,23373,2,0,B|200:352|200:352|184:336|160:321,1,102.5,0|2,0:0|0:0,0:0:0:0:
60,292,24062,2,0,P|92:240|108:152,1,102.5,0|0,0:0|0:0,0:0:0:0:
48,124,24752,2,0,L|160:104,1,102.5,0|0,0:0|0:0,0:0:0:0:
244,148,25442,6,0,P|312:84|420:92,1,205,2|0,0:0|0:0,0:0:0:0:
492,160,26476,1,2,0:0:0:0:
396,200,26821,2,0,P|380:240|372:316,1,102.5,0|0,0:0|0:0,0:0:0:0:
296,368,27511,2,0,P|248:372|164:352,1,102.5,0|0,0:0|0:0,0:0:0:0:
136,280,28200,6,0,P|104:320|88:388,2,102.5,2|0|0,0:0|0:0|0:0,0:0:0:0:
216,216,29235,1,2,0:0:0:0:
160,132,29580,2,0,B|212:120|212:120|261:124,1,102.5
332,200,30269,2,0,B|384:208|384:208|452:188,1,102.5
496,112,30959,6,0,L|484:224|472:336,1,205,2|0,0:0|0:0,0:0:0:0:
376,348,31993,1,2,0:0:0:0:
276,324,32338,2,0,L|288:204,1,102.5,0|0,0:0|0:0,0:0:0:0:
216,148,33028,2,0,L|204:20,1,102.5,0|0,0:0|0:0,0:0:0:0:
116,100,33718,6,0,P|100:156|72:216,1,102.5,6|0,0:0|0:0,0:0:0:0:
48,292,34407,2,0,P|104:288|160:292,1,102.5,0|2,0:0|0:0,0:0:0:0:
252,304,35097,2,0,P|248:260|252:168,1,102.5,0|4,0:0|0:0,0:0:0:0:
308,116,35787,2,0,P|260:112|192:100,1,102.5,8|0,0:0|0:0,0:0:0:0:
172,68,36304,1,0,0:0:0:0:
172,68,36476,6,0,P|228:32|288:20,1,102.5,6|0,0:0|0:0,0:0:0:0:
364,32,37166,2,0,P|416:48|496:60,1,102.5,2|2,0:0|0:0,0:0:0:0:
488,156,37855,2,0,P|480:200|478:258,1,102.5,2|4,0:0|0:0,0:0:0:0:
504,356,38545,1,8,0:0:0:0:
408,320,38890,1,0,0:0:0:0:
312,352,39235,6,0,P|248:368|164:356,1,102.5,6|0,0:0|0:0,0:0:0:0:
124,316,39924,1,2,0:0:0:0:
136,212,40269,2,0,P|188:236|220:284,1,102.5,2|0,0:0|0:0,0:0:0:0:
288,200,40959,2,0,P|336:180|400:172,1,102.5,4|8,0:0|0:0,0:0:0:0:
472,224,41649,1,0,0:0:0:0:
468,328,41993,6,0,B|412:360|412:360|256:344,1,205,6|0,0:0|0:0,0:0:0:0:
204,268,43028,1,2,0:0:0:0:
176,168,43373,2,4,P|120:156|60:164,1,102.5,0|0,0:0|0:0,0:0:0:0:
36,256,44062,2,0,L|48:312,2,51.25,12|4|4,0:0|0:0|0:0,0:0:0:0:
136,272,44752,6,0,L|272:280,1,102.5,6|4,0:0|0:0,0:0:0:0:
324,216,45442,2,0,P|317:174|320:100,1,102.5,8|0,0:0|0:0,0:0:0:0:
340,68,45959,1,8,0:0:0:0:
372,28,46131,2,0,P|408:72|432:128,1,102.5,2|4,0:0|0:0,0:0:0:0:
432,216,46821,1,8,0:0:0:0:
288,364,47511,6,0,L|168:356,1,102.5,6|4,0:0|0:0,0:0:0:0:
140,268,48200,2,0,P|124:224|72:156,1,102.5,8|0,0:0|0:0,0:0:0:0:
48,152,48718,1,8,0:0:0:0:
48,152,48890,2,0,P|92:124|133:95,1,102.5,2|4,0:0|0:0,0:0:0:0:
228,52,49580,2,0,L|330:59,1,102.5,8|0,0:0|0:0,0:0:0:0:
404,128,50269,6,0,P|368:164|336:216,1,102.5,6|4,0:0|0:0,0:0:0:0:
248,256,50959,2,0,P|236:208|228:144,1,102.5,8|0,0:0|0:0,0:0:0:0:
268,120,51476,2,0,P|200:136|108:140,1,153.75,8|4,0:0|0:0,0:0:0:0:
24,100,52338,1,8,0:0:0:0:
4,148,52511,2,0,L|22:252,1,102.5,0|0,0:0|0:0,0:0:0:0:
60,284,53028,6,0,P|108:260|168:248,1,102.5,6|4,0:0|0:0,0:0:0:0:
248,292,53718,2,0,P|260:240|284:176,1,102.5,8|0,0:0|0:0,0:0:0:0:
324,172,54235,2,0,L|164:164,1,153.75,8|4,0:0|0:0,0:0:0:0:
80,116,55097,2,0,P|72:168|92:236,1,102.5,8|0,0:0|0:0,0:0:0:0:
168,276,55787,6,0,L|288:264,1,102.5,6|4,0:0|0:0,0:0:0:0:
372,256,56476,2,0,P|344:220|328:136,1,102.5,8|0,0:0|0:0,0:0:0:0:
412,108,57166,2,0,P|372:24|272:44,1,205,2|8,0:0|0:0,0:0:0:0:
216,124,58200,1,0,0:0:0:0:
120,92,58545,6,0,P|124:144|140:196,1,102.5,6|4,0:0|0:0,0:0:0:0:
200,276,59235,2,0,P|232:232|276:200,1,102.5,8|0,0:0|0:0,0:0:0:0:
312,232,59752,2,0,B|356:248|356:248|428:240,1,102.5,8|0,0:0|0:0,0:0:0:0:
460,228,60269,2,0,L|468:100,1,102.5,4|8,0:0|0:0,0:0:0:0:
388,60,60959,1,0,0:0:0:0:
288,84,61304,6,0,P|280:140|272:204,1,102.5,6|4,0:0|0:0,0:0:0:0:
224,276,61993,2,0,P|180:272|104:268,1,102.5,8|0,0:0|0:0,0:0:0:0:
72,252,62511,2,0,B|48:216|44:184|44:184|84:172|128:116,1,153.75,8|4,0:0|0:0,0:0:0:0:
180,68,63373,2,0,L|304:64,1,102.5,8|0,0:0|0:0,0:0:0:0:
380,36,64062,6,0,P|440:24|508:24,1,102.5,6|4,0:0|0:0,0:0:0:0:
472,124,64752,2,0,P|476:172|480:236,1,102.5,8|0,0:0|0:0,0:0:0:0:
440,260,65269,1,8,0:0:0:0:
440,260,65442,2,0,L|324:248,1,102.5,2|4,0:0|0:0,0:0:0:0:
248,300,66131,2,0,P|240:248|224:168,1,102.5,8|2,0:0|0:0,0:0:0:0:
136,160,66821,6,0,P|116:196|92:264,1,102.5,6|8,0:0|0:0,0:0:0:0:
168,324,67511,1,8,0:0:0:0:
212,348,67683,2,0,B|248:360|248:360|352:352,1,102.5,8|4,0:0|0:0,0:0:0:0:
360,332,68200,2,0,P|376:288|424:216,1,102.5,14|12,0:0|0:0,0:0:0:0:
496,192,68890,2,0,P|492:128|480:80,1,102.5,14|4,0:0|0:0,0:0:0:0:
452,48,69407,1,0,0:0:0:0:
400,56,69580,6,0,P|356:68|298:68,1,102.5,14|4,0:1|0:0,0:0:0:0:
200,40,70269,2,0,L|188:148,1,102.5,8|0,0:0|0:0,0:0:0:0:
156,180,70787,2,0,B|231:153|231:213|305:186,1,153.75,8|4,0:0|0:0,0:0:0:0:
404,180,71649,2,0,P|404:128|396:40,1,102.5,8|0,0:0|0:0,0:0:0:0:
372,36,72166,1,0,0:0:0:0:
324,16,72338,6,0,P|270:17|184:28,1,102.5,6|4,0:0|0:0,0:0:0:0:
156,100,73028,2,0,P|180:144|208:204,1,102.5,8|0,0:0|0:0,0:0:0:0:
176,236,73545,2,0,B|236:216|276:240|276:240|348:212,1,153.75,8|4,0:0|0:0,0:0:0:0:
424,196,74407,2,0,P|420:144|412:72,1,102.5,8|0,0:0|0:0,0:0:0:0:
340,24,75097,6,0,L|308:184,1,153.75,6|0,0:0|0:0,0:0:0:0:
272,208,75787,2,0,P|232:172|160:180,1,102.5,8|0,0:0|0:0,0:0:0:0:
100,224,76476,2,0,B|96:296|96:296|168:272|240:316,1,205,2|8,0:0|0:0,0:0:0:0:
312,360,77511,1,0,0:0:0:0:
404,312,77855,6,0,B|420:272|420:272|432:184,1,102.5,6|4,0:0|0:0,0:0:0:0:
328,184,78545,2,0,B|312:144|312:144|300:56,1,102.5,8|0,0:0|0:0,0:0:0:0:
340,48,79062,2,0,B|236:28|236:28|172:36,1,153.75,8|4,0:0|0:0,0:0:0:0:
128,116,79924,1,8,0:0:0:0:
160,216,80269,1,8,0:0:0:0:
92,292,80614,6,0,P|64:244|68:176,1,102.5,6|4,0:0|0:0,0:0:0:0:
128,116,81304,2,0,L|240:104,1,102.5,8|0,0:0|0:0,0:0:0:0:
280,120,81821,2,0,B|284:168|272:192|272:192|312:180|351:193,1,153.75,8|4,0:0|0:0,0:0:0:0:
424,268,82683,2,0,P|388:284|324:332,1,102.5,8|0,0:0|0:0,0:0:0:0:
232,328,83373,6,0,P|188:300|132:288,1,102.5,6|4,0:0|0:0,0:0:0:0:
44,324,84062,2,0,L|68:136,1,153.75,8|8,0:0|0:0,0:0:0:0:
108,148,84752,2,0,L|124:17,1,102.5,2|4,0:0|0:0,0:0:0:0:
224,60,85442,2,0,P|276:72|326:63,1,102.5,8|0,0:0|0:0,0:0:0:0:
424,44,86131,6,0,P|432:96|428:172,1,102.5,6|4,0:0|0:0,0:0:0:0:
388,240,86821,2,0,L|284:232,1,102.5,8|0,0:0|0:0,0:0:0:0:
244,204,87338,2,0,B|184:204|164:248|164:248|204:320,1,153.75,8|4,0:0|0:0,0:0:0:0:
280,348,88200,2,0,P|340:348|404:332,1,102.5,8|0,0:0|0:0,0:0:0:0:
472,288,88890,6,0,L|460:136,1,102.5,6|4,0:0|0:0,0:0:0:0:
360,180,89580,2,0,L|376:56,1,102.5,8|0,0:0|0:0,0:0:0:0:
384,28,90097,1,8,0:0:0:0:
384,28,90269,2,0,B|320:68|264:28|264:28|220:40|168:28|168:28|128:52|160:124,1,307.5,14|0,0:1|0:0,0:0:0:0:
208,188,91649,1,6,0:0:0:0:
240,192,102683,6,0,P|288:184|364:180,1,102.5,6|0,0:0|0:0,0:0:0:0:
424,244,103373,2,0,P|396:276|344:304,1,102.5,0|2,0:0|0:0,0:0:0:0:
237,313,104062,2,0,P|192:288|124:264,1,102.5,0|4,0:0|0:0,0:0:0:0:
48,304,104752,2,0,L|52:196,1,102.5,8|0,0:0|0:0,0:0:0:0:
36,100,105442,6,0,B|96:96|124:128|124:128|168:88|240:88,1,205,6|0,0:0|0:0,0:0:0:0:
304,152,106476,1,2,0:0:0:0:
400,112,106821,2,0,L|396:214,1,102.5,0|4,0:0|0:0,0:0:0:0:
372,316,107511,2,0,P|328:292|256:288,1,102.5,8|0,0:0|0:0,0:0:0:0:
192,340,108200,6,0,P|180:252|244:144,1,205,6|0,0:0|0:0,0:0:0:0:
332,124,109235,1,2,0:0:0:0:
256,56,109580,2,0,P|216:52|144:64,1,102.5,0|4,0:0|0:0,0:0:0:0:
52,56,110269,2,0,P|60:112|76:164,1,102.5,8|0,0:0|0:0,0:0:0:0:
136,236,110959,6,0,L|252:220,2,102.5,6|0|0,0:0|0:0|0:0,0:0:0:0:
60,304,111993,1,2,0:0:0:0:
152,348,112338,2,0,L|253:335,1,102.5,0|4,0:0|0:0,0:0:0:0:
352,300,113028,2,0,P|364:240|364:180,1,102.5,8|0,0:0|0:0,0:0:0:0:
372,96,113718,6,0,L|248:84,1,102.5,6|0,0:0|0:0,0:0:0:0:
172,52,114407,2,0,P|164:104|144:164,1,102.5,0|2,0:0|0:0,0:0:0:0:
68,216,115097,2,0,P|49:168|52:116,1,102.5,0|4,0:0|0:0,0:0:0:0:
149,151,115787,2,0,L|257:139,1,102.5,8|0,0:0|0:0,0:0:0:0:
336,80,116476,6,0,B|376:88|392:112|392:112|384:152|384:152|404:192|406:246,1,205,6|0,0:0|0:0,0:0:0:0:
332,320,117511,1,2,0:0:0:0:
244,272,117855,2,0,P|194:267|116:264,1,102.5,0|4,0:0|0:0,0:0:0:0:
64,196,118545,2,0,P|120:184|184:168,1,102.5,8|0,0:0|0:0,0:0:0:0:
236,100,119235,6,0,P|332:88|372:176,1,205,6|0,0:0|0:0,0:0:0:0:
316,260,120269,1,2,0:0:0:0:
244,336,120614,2,0,P|220:284|220:220,1,102.5,0|4,0:0|0:0,0:0:0:0:
280,156,121304,2,0,L|408:148,1,102.5,8|0,0:0|0:0,0:0:0:0:
476,112,121993,6,0,L|460:232,1,102.5,6|0,0:0|0:0,0:0:0:0:
392,288,122683,2,0,B|360:276|360:276|328:288|328:288|208:280,1,153.75,0|0,0:0|0:0,0:0:0:0:
200,308,123373,2,4,P|172:276|152:208,1,102.5,2|4,0:0|0:0,0:0:0:0:
176,120,124062,2,0,P|232:108|292:96,1,102.5,12|4,0:0|0:0,0:0:0:0:
320,72,124580,1,4,0:0:0:0:
368,52,124752,6,0,P|408:92|432:168,1,102.5,6|4,0:0|0:0,0:0:0:0:
416,236,125442,2,0,B|316:248|316:248|236:228,1,153.75,8|8,0:0|0:0,0:0:0:0:
212,228,126131,2,0,B|240:276|240:276|252:348,1,102.5,2|4,0:0|0:0,0:0:0:0:
148,352,126821,1,8,0:0:0:0:
108,320,126993,2,0,L|96:196,1,102.5,0|0,0:0|0:0,0:0:0:0:
92,168,127511,6,0,P|136:136|208:128,1,102.5,6|4,0:0|0:0,0:0:0:0:
268,184,128200,2,0,P|320:200|372:200,1,102.5,8|0,0:0|0:0,0:0:0:0:
416,184,128718,2,0,L|424:16,1,153.75,8|4,0:0|0:0,0:0:0:0:
328,64,129580,2,0,P|284:76|192:84,1,102.5,8|0,0:0|0:0,0:0:0:0:
128,104,130269,6,0,P|168:153|196:208,1,102.5,6|4,0:0|0:0,0:0:0:0:
144,280,130959,2,0,B|196:280|196:280|264:296,1,102.5,8|0,0:0|0:0,0:0:0:0:
288,324,131476,2,0,P|304:248|308:144,1,153.75,8|4,0:0|0:0,0:0:0:0:
272,76,132338,2,0,L|374:82,1,102.5,8|0,0:0|0:0,0:0:0:0:
439,159,133028,6,0,P|457:208|467:258,1,102.5,6|4,0:0|0:0,0:0:0:0:
392,324,133718,2,0,P|348:320|244:320,1,102.5,8|0,0:0|0:0,0:0:0:0:
244,340,134235,2,0,P|216:284|200:184,1,153.75,8|4,0:0|0:0,0:0:0:0:
232,96,135097,2,0,P|276:128|296:200,1,102.5,8|0,0:0|0:0,0:0:0:0:
199,194,135787,6,0,L|16:184,1,153.75,6|0,0:0|0:0,0:0:0:0:
0,208,136476,2,0,B|-4:252|8:288|8:288|44:296|96:336,1,153.75,8|8,0:0|0:0,0:0:0:0:
124,328,137166,2,0,P|167:301|217:305,1,102.5,2|4,0:0|0:0,0:0:0:0:
316,328,137855,2,0,P|299:279|287:229,1,102.5,8|0,0:0|0:0,0:0:0:0:
220,152,138545,6,0,L|332:136,1,102.5,6|4,0:0|0:0,0:0:0:0:
420,160,139235,2,0,P|404:112|384:40,1,102.5,8|0,0:0|0:0,0:0:0:0:
404,12,139752,2,0,P|340:40|228:20,1,153.75,8|4,0:0|0:0,0:0:0:0:
160,0,140614,2,0,L|148:120,1,102.5,8|0,0:0|0:0,0:0:0:0:
140,204,141304,5,6,0:0:0:0:
220,272,141649,1,4,0:0:0:0:
308,220,141993,2,0,L|416:224,1,102.5,8|0,0:0|0:0,0:0:0:0:
444,184,142511,2,0,L|460:336,1,153.75,8|4,0:0|0:0,0:0:0:0:
356,336,143373,2,0,P|312:344|248:364,1,102.5,8|0,0:0|0:0,0:0:0:0:
156,340,144062,6,0,L|148:232,1,102.5,6|4,0:0|0:0,0:0:0:0:
80,164,144752,2,0,L|96:32,1,102.5,8|0,0:0|0:0,0:0:0:0:
128,24,145269,2,0,B|164:28|188:40|188:40|228:16|308:24,1,153.75,8|4,0:0|0:0,0:0:0:0:
348,96,146131,1,8,0:0:0:0:
440,52,146476,1,2,0:0:0:0:
480,144,146821,6,0,P|486:193|490:245,1,102.5,6|8,0:0|0:0,0:0:0:0:
420,320,147511,1,8,0:0:0:0:
372,304,147683,2,0,P|320:312|228:332,1,102.5,8|4,0:0|0:0,0:0:0:0:
220,332,148200,2,0,P|233:280|252:196,1,102.5,14|12,0:0|0:0,0:0:0:0:
168,164,148890,2,0,P|152:112|144:56,1,102.5,14|4,0:0|0:0,0:0:0:0:
180,24,149407,1,4,0:0:0:0:
232,32,149580,6,0,B|332:64|332:12|434:44,1,205,14|8,0:1|0:0,0:0:0:0:
476,136,150614,1,0,0:0:0:0:
460,184,150787,2,0,B|420:192|420:192|276:168,1,153.75,8|4,0:0|0:0,0:0:0:0:
217,125,151649,2,0,P|224:188|224:236,1,102.5,8|0,0:0|0:0,0:0:0:0:
164,312,152338,6,0,P|128:272|96:224,1,102.5,6|4,0:0|0:0,0:0:0:0:
92,128,153028,2,0,P|104:84|132:20,1,102.5,8|0,0:0|0:0,0:0:0:0:
176,40,153545,2,0,B|236:56|276:32|276:32|320:64,1,153.75,8|4,0:0|0:0,0:0:0:0:
376,148,154407,2,0,P|328:164|272:192,1,102.5,8|0,0:0|0:0,0:0:0:0:
336,276,155097,6,0,L|480:268,1,102.5,6|4,0:0|0:0,0:0:0:0:
488,180,155787,2,0,P|488:128|468:56,1,102.5,8|0,0:0|0:0,0:0:0:0:
380,40,156476,2,0,P|360:88|352:152,1,102.5,2|4,0:0|0:0,0:0:0:0:
328,236,157166,2,0,L|212:240,1,102.5,8|0,0:0|0:0,0:0:0:0:
132,196,157855,6,0,L|120:88,1,102.5,6|4,0:0|0:0,0:0:0:0:
24,132,158545,2,0,L|12:252,1,102.5,8|0,0:0|0:0,0:0:0:0:
36,280,159062,2,0,P|104:252|224:256,1,153.75,8|4,0:0|0:0,0:0:0:0:
268,308,159924,1,8,0:0:0:0:
360,264,160269,1,8,0:0:0:0:
448,316,160614,6,0,P|452:256|464:96,1,205,6|8,0:0|0:0,0:0:0:0:
424,16,161649,1,0,0:0:0:0:
392,56,161821,2,0,P|332:88|264:32,1,153.75,8|4,0:0|0:0,0:0:0:0:
168,16,162683,2,0,L|184:128,1,102.5,8|0,0:0|0:0,0:0:0:0:
160,216,163373,6,0,P|212:200|280:208,1,102.5,6|4,0:0|0:0,0:0:0:0:
348,252,164062,2,0,P|364:200|364:120,1,102.5,8|0,0:0|0:0,0:0:0:0:
344,104,164580,1,8,0:0:0:0:
344,104,164752,2,0,L|232:92,1,102.5,2|4,0:0|0:0,0:0:0:0:
144,60,165442,2,0,P|120:108|116:164,1,102.5,8|0,0:0|0:0,0:0:0:0:
156,248,166131,6,0,L|284:232,1,102.5,6|4,0:0|0:0,0:0:0:0:
360,224,166821,2,0,P|372:280|404:320,1,102.5,8|0,0:0|0:0,0:0:0:0:
448,332,167338,2,0,B|464:280|464:280|456:140,1,153.75,8|4,0:0|0:0,0:0:0:0:
416,88,168200,1,8,0:0:0:0:
312,100,168545,1,0,0:0:0:0:
220,56,168890,6,0,L|108:36,1,102.5,6|4,0:0|0:0,0:0:0:0:
44,108,169580,2,0,P|80:156|88:208,1,102.5,8|0,0:0|0:0,0:0:0:0:
44,288,170269,2,0,B|104:300|144:272|144:272|184:288|184:288|256:272,1,205,14|2,0:1|0:0,0:0:0:0:
428,192,171649,6,0,L|421:294,1,102.5,6|4,0:0|0:0,0:0:0:0:
332,348,172338,2,0,L|324:236,1,102.5,8|0,0:0|0:0,0:0:0:0:
312,196,172855,1,8,0:0:0:0:
296,148,173028,2,0,P|248:144|193:154,1,102.5,0|4,0:0|0:0,0:0:0:0:
96,188,173718,2,0,P|97:135|120:56,1,102.5,8|2,0:0|0:0,0:0:0:0:
200,40,174407,6,0,P|252:40|320:28,1,102.5,14|4,0:1|0:0,0:0:0:0:
404,40,175097,2,0,P|440:80|468:119,1,102.5,8|0,0:0|0:0,0:0:0:0:
440,164,175614,2,0,L|276:172,1,153.75,8|4,0:0|0:0,0:0:0:0:
200,224,176476,2,0,L|212:100,1,102.5,8|0,0:0|0:0,0:0:0:0:
116,80,177166,6,0,L|112:0,2,51.25,6|0|4,0:0|0:0|0:0,0:0:0:0:
48,156,177855,2,0,P|56:212|80:264,1,102.5,8|0,0:0|0:0,0:0:0:0:
108,292,178373,2,0,B|156:264|156:264|288:272,1,153.75,8|4,0:0|0:0,0:0:0:0:
340,328,179235,2,0,L|351:217,1,102.5,8|0,0:0|0:0,0:0:0:0:
420,152,179924,6,0,P|412:96|388:8,1,102.5,6|4,0:0|0:0,0:0:0:0:
308,92,180614,2,0,P|256:100|205:92,1,102.5,8|0,0:0|0:0,0:0:0:0:
164,64,181131,2,0,P|88:72|40:132,1,153.75,8|4,0:0|0:0,0:0:0:0:
52,232,181993,1,8,0:0:0:0:
152,212,182338,1,0,0:0:0:0:
240,268,182683,6,0,L|356:252,1,102.5,6|4,0:0|0:0,0:0:0:0:
428,200,183373,2,0,P|408:152|368:100,1,102.5,8|0,0:0|0:0,0:0:0:0:
332,96,183890,1,8,0:0:0:0:
280,100,184062,2,0,L|177:91,1,102.5,2|4,0:0|0:0,0:0:0:0:
76,72,184752,2,0,B|100:120|100:120|102:170,1,102.5,8|2,0:0|0:0,0:0:0:0:
68,264,185442,6,0,P|40:304|26:357,1,102.5,14|4,0:1|0:0,0:0:0:0:
128,352,186131,2,0,P|192:336|240:340,1,102.5,8|0,0:0|0:0,0:0:0:0:
276,356,186649,1,8,0:0:0:0:
276,356,186821,2,0,P|264:308|264:244,1,102.5,2|4,0:0|0:0,0:0:0:0:
324,172,187511,2,0,P|356:212|364:288,1,102.5,8|0,0:0|0:0,0:0:0:0:
262,255,188200,6,0,L|128:240,1,102.5,6|4,0:0|0:0,0:0:0:0:
68,196,188890,2,0,B|48:156|48:156|40:97,1,102.5,8|0,0:0|0:0,0:0:0:0:
48,48,189407,1,8,0:0:0:0:
48,48,189580,2,0,P|104:56|149:60,1,102.5,2|4,0:0|0:0,0:0:0:0:
252,48,190269,2,0,P|300:44|400:44,1,102.5,8|0,0:0|0:0,0:0:0:0:
456,16,190959,6,0,L|443:117,1,102.5,6|4,0:0|0:0,0:0:0:0:
356,176,191649,2,0,L|364:284,1,102.5,8|0,0:0|0:0,0:0:0:0:
404,312,192166,2,0,P|336:308|256:368,1,153.75,8|4,0:0|0:0,0:0:0:0:
168,320,193028,2,0,P|188:260|196:192,1,102.5,8|0,0:0|0:0,0:0:0:0:
108,164,193718,6,0,L|96:48,1,102.5,6|4,0:0|0:0,0:0:0:0:
192,20,194407,1,8,0:0:0:0:
240,40,194580,2,0,B|288:44|288:44|342:33,1,102.5,8|12,0:0|0:0,0:0:0:0:
392,32,195097,2,0,P|400:84|400:136,1,102.5,14|12,0:0|0:0,0:0:0:0:
336,212,195787,1,14,0:0:0:0:
240,172,196131,1,12,0:0:0:0:
152,228,196476,6,0,L|172:328,1,102.5,14|4,0:1|0:0,0:0:0:0:
272,348,197166,2,0,P|284:300|316:244,1,102.5,8|0,0:0|0:0,0:0:0:0:
360,244,197683,1,8,0:0:0:0:
360,244,197855,2,0,P|352:192|350:141,1,102.5,2|4,0:0|0:0,0:0:0:0:
392,48,198545,2,0,P|344:44|284:64,1,102.5,8|0,0:0|0:0,0:0:0:0:
216,128,199235,6,0,L|88:120,1,102.5,6|4,0:0|0:0,0:0:0:0:
40,192,199924,2,0,L|56:296,1,102.5,8|0,0:0|0:0,0:0:0:0:
100,316,200442,1,8,0:0:0:0:
100,316,200614,2,0,P|160:312|236:332,1,102.5,2|4,0:0|0:0,0:0:0:0:
296,356,201304,1,8,0:0:0:0:
380,300,201649,1,0,0:0:0:0:
430,211,201993,6,0,B|304:188|356:240|229:224,1,205,6|8,0:0|0:0,0:0:0:0:
128,224,203028,2,0,L|120:288,2,51.25
76,136,203718,1,0,0:0:0:0:
111,40,204062,2,0,P|162:34|210:51,1,102.5,10|2,0:0|0:0,0:0:0:0:
280,128,204752,6,0,B|337:137|337:137|401:109,1,102.5,6|4,0:0|0:0,0:0:0:0:
476,84,205442,2,0,B|480:128|480:128|460:184,1,102.5,8|0,0:0|0:0,0:0:0:0:
428,220,205959,1,8,0:0:0:0:
380,240,206131,2,0,L|248:224,1,102.5,2|4,0:0|0:0,0:0:0:0:
188,276,206821,2,0,L|172:168,1,102.5,10|0,0:0|0:0,0:0:0:0:
200,76,207511,1,2,0:0:0:0:
256,192,207683,12,2,210269,0:0:0:0:
248,200,221304,6,0,P|176:148|216:268,1,307.5,6|0,0:0|0:0,0:0:0:0:
304,284,222683,2,0,B|340:256|352:228|352:228|400:288|472:268,1,205,2|0,0:0|0:0,0:0:0:0:
436,172,223718,1,4,0:0:0:0:
384,84,224062,6,0,B|336:68|336:68|244:72,1,102.5,6|0,0:0|0:0,0:0:0:0:
184,52,224752,2,0,P|136:96|120:160,1,102.5,0|0,0:0|0:0,0:0:0:0:
132,232,225442,2,0,B|176:212|176:212|208:224|208:224|264:204|332:232,1,205,2|0,0:0|0:0,0:0:0:0:
392,312,226476,1,4,0:0:0:0:
452,228,226821,6,0,B|484:168|480:108|480:108|432:36,1,205,14|2,0:1|0:0,0:0:0:0:
232,36,228200,2,0,B|187:102|187:102|183:162|215:222,1,205,6|8,0:0|0:0,0:0:0:0:
376,348,229580,6,0,P|270:338|152:324,1,205,6|12,0:0|0:0,0:0:0:0:
84,276,230614,1,4,0:0:0:0:
140,188,230959,1,14,0:1:0:0:
180,220,231131,2,0,B|250:259|270:199|334:235|334:235|368:204|368:144,1,256.25,14|2,0:0|0:0,0:0:0:0:
312,60,232338,6,0,L|164:68,1,102.5,14|4,0:1|0:0,0:0:0:0:
108,44,233028,2,0,P|120:92|126:144,1,102.5,8|0,0:0|0:0,0:0:0:0:
84,172,233545,2,0,P|62:250|68:356,1,153.75,8|4,0:0|0:0,0:0:0:0:
164,332,234407,2,0,L|284:320,1,102.5,8|0,0:0|0:0,0:0:0:0:
364,296,235097,6,0,P|342:245|334:197,1,102.5,6|4,0:0|0:0,0:0:0:0:
368,100,235787,2,0,P|316:88|228:100,1,102.5,8|0,0:0|0:0,0:0:0:0:
220,68,236304,2,0,B|212:144|212:144|236:240,1,153.75,8|4,0:0|0:0,0:0:0:0:
308,284,237166,2,0,P|260:320|232:352,1,102.5,8|0,0:0|0:0,0:0:0:0:
132,332,237855,6,0,L|108:196,1,102.5,6|4,0:0|0:0,0:0:0:0:
136,132,238545,2,0,P|200:100|284:144,1,153.75,8|8,0:0|0:0,0:0:0:0:
296,172,239235,2,0,L|321:72,1,102.5,2|4,0:0|0:0,0:0:0:0:
420,48,239924,2,0,L|424:156,1,102.5,8|0,0:0|0:0,0:0:0:0:
436,252,240614,5,6,0:0:0:0:
356,316,240959,1,4,0:0:0:0:
264,268,241304,2,0,P|216:272|163:287,1,102.5,8|0,0:0|0:0,0:0:0:0:
124,316,241821,2,0,B|96:268|96:268|108:220|108:124,1,153.75,8|4,0:0|0:0,0:0:0:0:
100,120,242511,1,8,0:0:0:0:
80,72,242683,2,0,P|140:48|192:48,1,102.5,8|8,0:0|0:0,0:0:0:0:
276,80,243373,6,0,P|336:88|424:84,1,102.5,14|4,0:1|0:0,0:0:0:0:
476,60,244062,2,0,L|464:161,1,102.5,8|0,0:0|0:0,0:0:0:0:
500,200,244580,2,0,P|420:203|328:212,1,153.75,8|4,0:0|0:0,0:0:0:0:
272,280,245442,2,0,P|224:268|160:248,1,102.5,8|0,0:0|0:0,0:0:0:0:
72,232,246131,6,0,P|76:176|100:112,1,102.5,6|4,0:0|0:0,0:0:0:0:
164,60,246821,2,0,B|216:48|216:48|356:80,1,153.75,8|8,0:0|0:0,0:0:0:0:
364,64,247511,2,0,P|376:124|376:172,1,102.5,2|4,0:0|0:0,0:0:0:0:
328,256,248200,1,8,0:0:0:0:
228,232,248545,1,0,0:0:0:0:
152,304,248890,6,0,P|128:252|132:188,1,102.5,6|4,0:0|0:0,0:0:0:0:
180,116,249580,2,0,L|296:104,1,102.5,8|0,0:0|0:0,0:0:0:0:
316,68,250097,2,0,B|372:52|392:80|392:80|384:120|405:150,1,153.75,8|4,0:0|0:0,0:0:0:0:
460,232,250959,2,0,P|452:288|428:340,1,102.5,8|0,0:0|0:0,0:0:0:0:
328,248,251649,6,0,L|212:240,1,102.5,6|4,0:0|0:0,0:0:0:0:
144,304,252338,2,0,P|124:268|108:207,1,102.5,8|0,0:0|0:0,0:0:0:0:
120,160,252855,1,8,0:0:0:0:
120,160,253028,2,0,B|168:112|228:132|228:132|264:104|280:56|280:56|308:104|376:120,1,307.5,6|2,0:0|0:0,0:0:0:0:
444,160,254407,6,0,P|393:188|357:220,1,102.5,2|0,0:0|0:0,0:0:0:0:
388,316,255097,2,0,L|484:300,2,51.25,0|0|0,0:0|0:0|0:0,0:0:0:0:
288,296,255787,2,0,L|180:288,1,102.5,2|0,0:0|0:0,0:0:0:0:
92,252,256476,2,0,L|36:240,2,51.25,0|0|0,0:0|0:0|0:0,0:0:0:0:
176,196,257166,6,0,L|296:180,1,102.5,2|0,0:0|0:0,0:0:0:0:
356,116,257855,2,0,L|432:128,2,51.25,0|0|0,0:0|0:0|0:0,0:0:0:0:
272,56,258545,2,0,L|164:40,1,102.5,2|0,0:0|0:0,0:0:0:0:
76,76,259235,2,0,P|72:136|88:192,1,102.5,0|0,0:0|0:0,0:0:0:0:
152,252,259924,6,0,B|224:228|280:264|280:264|336:212,1,205,2|0,0:0|0:0,0:0:0:0:
392,132,260959,1,0,0:0:0:0:
488,172,261304,2,0,B|516:228|516:228|516:304|460:364,1,205,2|0,0:0|0:0,0:0:0:0:
380,304,262338,1,0,0:0:0:0:
284,340,262683,6,0,L|176:332,1,102.5,2|0,0:0|0:0,0:0:0:0:
136,308,263200,2,0,P|152:256|176:212,1,102.5,0|0,0:0|0:0,0:0:0:0:
220,188,263718,2,0,B|328:224|328:160|428:196,1,205,0|0,0:0|0:0,0:0:0:0:
256,192,266131,5,0,0:0:0:0:
256,192,266304,12,0,273718,0:0:0:0:
