osu file format v14

[General]
AudioFilename: Centifolia.mp3
AudioLeadIn: 0
PreviewTime: 39749
Countdown: 0
SampleSet: Soft
StackLeniency: 0.7
Mode: 0
LetterboxInBreaks: 0
WidescreenStoryboard: 1

[Editor]
DistanceSpacing: 1
BeatDivisor: 4
GridSize: 4
TimelineZoom: 0.7800008

[Metadata]
Title:Centifolia
TitleUnicode:センティフォリア
Artist:Ceui
ArtistUnicode:Ceui
Creator:Lanturn
Version:Sweet Blue Flowers
Source:青い花
Tags:ED Ending Sweet Blue Flowers Aoi Hana
BeatmapID:1171217
BeatmapSetID:475642

[Difficulty]
HPDrainRate:5.3
CircleSize:4.2
OverallDifficulty:7
ApproachRate:7
SliderMultiplier:1.7
SliderTickRate:1

[Events]
//Background and Video events
0,0,"X.png",0,0
//Break Periods
//Storyboard Layer 0 (Background)
//Storyboard Layer 1 (Fail)
//Storyboard Layer 2 (Pass)
//Storyboard Layer 3 (Foreground)
//Storyboard Sound Samples

[TimingPoints]
1745,576.923076923077,4,2,1,60,1,0
40975,-83.3333333333333,4,2,1,70,0,1
59437,-100,4,2,1,60,0,0
68704,576.923076923077,4,2,1,40,1,0
72850,521.739130434783,4,2,1,30,1,0
73893,483.870967741935,4,2,1,10,1,0
77763,-100,4,2,1,30,0,0

[Colours]
Combo1 : 255,221,119
Combo2 : 166,255,166
Combo3 : 253,215,172
Combo4 : 150,189,254

[HitObjects]
264,52,10975,5,2,0:0:0:0:
264,184,11264,1,0,0:0:0:0:
156,112,11552,1,0,0:0:0:0:
340,120,11841,2,0,P|364:176|356:224,1,85,2|0,0:0|0:0,0:0:0:0:
308,272,12418,1,0,0:0:0:0:
264,184,12706,1,0,0:0:0:0:
271,364,12995,6,0,P|353:358|402:291,1,170,2|0,2:0|2:0,2:0:0:0:
264,184,13860,1,0,0:0:0:0:
304,52,14148,1,2,0:0:0:0:
404,168,14437,1,0,0:0:0:0:
304,52,14725,1,0,0:0:0:0:
188,172,15014,2,0,P|204:232|244:256,1,85,0|0,0:0|0:0,0:0:0:0:
352,292,15591,5,2,0:0:0:0:
264,184,15879,1,0,0:0:0:0:
404,168,16168,1,0,0:0:0:0:
212,259,16456,2,0,P|128:252|79:171,1,170,2|0,0:0|0:0,0:0:0:0:
100,36,17321,1,0,0:0:0:0:
176,168,17610,6,0,L|84:324,1,170,2|0,0:0|0:0,0:0:0:0:
72,168,18475,1,2,0:0:0:0:
240,76,18764,1,0,0:0:0:0:
120,76,19052,1,0,0:0:0:0:
288,168,19341,1,0,0:0:0:0:
214,277,19629,2,0,P|172:284|126:272,1,85
176,168,20206,5,2,0:0:0:0:
280,96,20495,1,0,0:0:0:0:
160,56,20783,1,0,0:0:0:0:
304,192,21071,2,0,P|372:128|364:48,1,170,2|0,0:0|0:0,0:0:0:0:
448,192,21937,1,0,0:0:0:0:
280,96,22225,6,0,P|212:160|220:240,1,170,2|0,0:0|0:0,0:0:0:0:
284,308,23091,2,0,P|228:336|188:332,1,85,2|0,0:0|0:0,0:0:0:0:
104,304,23668,1,0,0:0:0:0:
32,141,23956,1,0,0:0:0:0:
32,243,24245,1,0,0:0:0:0:
104,80,24533,1,0,0:0:0:0:
172,236,24821,6,0,P|236:256|288:244,1,85,2|0,0:0|0:0,0:0:0:0:
156,148,25398,1,0,0:0:0:0:
200,338,25687,2,0,P|288:346|346:282,1,170,2|0,0:0|0:0,0:0:0:0:
185,308,26552,1,0,0:0:0:0:
185,308,27129,5,2,0:0:0:0:
120,189,27418,1,0,0:0:0:0:
190,73,27706,1,0,0:0:0:0:
326,75,27995,1,0,0:0:0:0:
391,194,28283,1,0,0:0:0:0:
321,310,28571,1,0,0:0:0:0:
185,308,28860,1,0,0:0:0:0:
120,189,29148,1,0,0:0:0:0:
326,75,29437,6,0,P|376:140|368:236,1,170,2|0,0:0|0:0,0:0:0:0:
185,308,30302,2,0,P|135:243|143:147,1,170,2|0,0:0|0:0,0:0:0:0:
304,168,31168,2,0,L|204:228,1,85,0|0,0:0|0:0,0:0:0:0:
137,158,31745,5,2,0:0:0:0:
332,124,32033,1,0,0:0:0:0:
240,300,32321,1,0,0:0:0:0:
56,213,32610,2,0,P|54:129|110:63,1,170,2|0,0:0|0:0,0:0:0:0:
167,168,33475,1,0,0:0:0:0:
129,281,33764,1,0,0:0:0:0:
129,281,33908,1,0,0:0:0:0:
129,281,34052,5,2,0:0:0:0:
240,236,34341,2,0,B|324:212|320:260|408:232,1,170
480,161,35206,1,2,0:0:0:0:
308,96,35495,1,0,0:0:0:0:
407,232,35783,1,0,0:0:0:0:
372,44,36071,1,0,0:0:0:0:
188,168,36360,6,0,P|148:188|108:192,1,85,2|0,0:0|0:0,0:0:0:0:
120,88,36937,1,0,0:0:0:0:
243,244,37225,2,0,B|349:254|349:254|389:256|423:213,1,170,2|0,0:0|0:0,0:0:0:0:
404,96,38091,1,0,0:0:0:0:
404,96,38668,6,0,P|404:176|420:200,1,85,2|0,0:0|0:0,0:0:0:0:
428,208,39100,2,0,P|412:284|368:328,1,127.5,0|0,0:0|0:0,0:0:0:0:
256,352,39821,1,0,0:0:0:0:
240,336,40398,1,0,0:0:0:0:
220,320,40975,6,0,P|172:288|156:224,1,101.999996887207,4|0,0:0|0:0,0:0:0:0:
155,248,41408,1,2,0:0:0:0:
155,248,41552,1,8,0:0:0:0:
276,168,41841,1,0,0:0:0:0:
100,176,42129,2,0,B|74:121|106:68,1,101.999996887207,2|0,0:0|0:0,0:0:0:0:
280,32,42706,1,8,0:0:0:0:
192,128,42995,1,0,0:0:0:0:
416,188,43283,6,0,P|404:236|348:284,1,101.999996887207,2|0,0:0|0:0,0:0:0:0:
276,168,43860,1,8,0:0:0:0:
472,124,44148,2,0,B|488:172|488:172|488:225,1,101.999996887207,2|0,0:0|0:0,0:0:0:0:
360,248,44725,1,0,0:0:0:0:
276,72,45014,1,8,0:0:0:0:
204,292,45302,1,0,0:0:0:0:
120,44,45591,6,0,P|72:104|104:224,1,203.999993774414,2|8,0:0|0:0,0:0:0:0:
184,140,46456,1,0,0:0:0:0:
344,168,46745,2,0,P|364:228|356:264,1,101.999996887207,2|0,0:0|0:0,0:0:0:0:
336,300,47177,1,2,0:0:0:0:
336,300,47321,2,0,P|263:323|207:303,1,101.999996887207,8|0,0:0|0:0,0:0:0:0:
56,280,47898,6,0,B|56:216|116:188|116:188|108:160|120:128,1,152.999995330811,2|0,0:0|0:0,0:0:0:0:
154,121,48475,2,0,P|112:103|68:130,1,101.999996887207,8|0,0:0|0:0,0:0:0:0:
156,279,49052,2,0,P|200:291|272:242,1,101.999996887207,2|0,0:0|0:0,0:0:0:0:
294,246,49485,1,0,0:0:0:0:
294,246,49629,2,0,L|274:350,1,101.999996887207,10|0,0:0|0:0,0:0:0:0:
428,248,50206,6,0,L|452:132,1,101.999996887207,2|0,0:0|0:0,0:0:0:0:
449,149,50639,1,2,0:0:0:0:
449,149,50783,1,8,0:0:0:0:
360,32,51071,1,0,0:0:0:0:
248,220,51360,2,0,P|160:256|72:200,1,203.999993774414,2|8,0:0|0:0,0:0:0:0:
200,72,52225,1,0,0:0:0:0:
200,72,52370,1,0,0:0:0:0:
200,72,52514,6,0,P|164:120|168:164,1,101.999996887207,2|0,0:0|0:0,0:0:0:0:
326,265,53091,1,8,0:0:0:0:
484,152,53379,2,0,P|432:132|392:152,1,101.999996887207,2|0,0:0|0:0,0:0:0:0:
448,296,53956,1,0,0:0:0:0:
256,368,54245,1,8,0:0:0:0:
64,296,54533,1,0,0:0:0:0:
164,88,54821,6,0,P|256:48|348:88,1,203.999993774414,2|8,0:0|0:0,0:0:0:0:
256,264,55687,1,0,0:0:0:0:
164,76,55975,2,0,P|256:36|348:76,1,203.999993774414,2|8,0:0|0:0,0:0:0:0:
256,192,56841,1,0,0:0:0:0:
168,308,57129,6,0,P|256:352|344:308,1,203.999993774414,2|0,0:0|0:0,0:0:0:0:
352,152,57995,1,0,0:0:0:0:
160,152,58283,1,2,0:0:0:0:
144,168,58860,1,0,0:0:0:0:
128,188,59437,6,0,L|128:284,1,85,4|0,0:0|0:0,0:0:0:0:
24,208,60014,2,0,P|32:140|88:96,1,127.5,8|0,0:0|0:0,0:0:0:0:
108,92,60591,1,0,0:0:0:0:
208,192,60879,1,0,0:0:0:0:
320,88,61168,2,0,P|360:72|424:84,1,85,8|0,0:0|0:0,0:0:0:0:
496,224,61745,6,0,P|472:288|396:320,1,127.5,2|0,0:0|0:0,0:0:0:0:
384,296,62321,2,0,L|304:364,1,85,8|0,0:0|0:0,0:0:0:0:
220,288,62898,1,2,0:0:0:0:
168,120,63187,1,0,0:0:0:0:
168,340,63475,1,8,0:0:0:0:
320,180,63764,1,0,0:0:0:0:
112,56,64052,6,0,P|86:101|87:144,1,85,2|0,0:0|0:0,0:0:0:0:
245,92,64629,2,0,P|200:118|157:117,1,85,8|0,0:0|0:0,0:0:0:0:
320,180,65206,2,0,P|365:206|408:205,1,85,2|0,0:0|0:0,0:0:0:0:
356,52,65783,2,0,P|382:97|381:140,1,85,8|0,0:0|0:0,0:0:0:0:
196,248,66360,6,0,B|124:304|124:304|96:264|96:264|17:255|4:150|81:121,1,340,2|0,0:0|0:0,0:0:0:0:
425,118,68704,6,0,P|453:210|405:282,1,170,2|0,0:0|0:0,0:0:0:0:
264,192,69569,2,0,P|188:192|120:296,1,170,2|0,0:0|0:0,0:0:0:0:
244,360,70434,2,0,L|220:276,1,85,0|0,0:0|0:0,0:0:0:0:
96,168,71011,5,2,0:0:0:0:
191,82,71300,1,0,0:0:0:0:
321,82,71588,1,0,0:0:0:0:
416,168,71877,1,2,0:0:0:0:
424,184,72850,5,2,0:0:0:0:
256,192,73893,12,2,77763,0:0:0:0:
