osu file format v14

[General]
AudioFilename: Centifolia.mp3
AudioLeadIn: 0
PreviewTime: 39749
Countdown: 0
SampleSet: Soft
StackLeniency: 0.7
Mode: 0
LetterboxInBreaks: 0
WidescreenStoryboard: 1

[Editor]
DistanceSpacing: 1
BeatDivisor: 4
GridSize: 4
TimelineZoom: 0.6

[Metadata]
Title:Centifolia
TitleUnicode:センティフォリア
Artist:Ceui
ArtistUnicode:Ceui
Creator:Lanturn
Version:Normal
Source:青い花
Tags:ED Ending Sweet Blue Flowers Aoi Hana
BeatmapID:1016205
BeatmapSetID:475642

[Difficulty]
HPDrainRate:3
CircleSize:3.5
OverallDifficulty:4
ApproachRate:4
SliderMultiplier:1.2
SliderTickRate:1

[Events]
//Background and Video events
0,0,"X.png",0,0
//Break Periods
//Storyboard Layer 0 (Background)
//Storyboard Layer 1 (Fail)
//Storyboard Layer 2 (Pass)
//Storyboard Layer 3 (Foreground)
//Storyboard Sound Samples

[TimingPoints]
1745,576.923076923077,4,2,1,60,1,0
40975,-83.3333333333333,4,2,1,70,0,1
59437,-100,4,2,1,60,0,0
68704,576.923076923077,4,2,1,40,1,0
72850,521.739130434783,4,2,1,30,1,0
73893,483.870967741935,4,2,1,10,1,0
77763,-100,4,2,1,30,0,0

[Colours]
Combo1 : 255,221,119
Combo2 : 166,255,166
Combo3 : 253,215,172
Combo4 : 150,189,254

[HitObjects]
436,292,10975,6,0,L|312:340,1,120,2|0,0:0|0:0,0:0:0:0:
268,316,11841,2,0,P|216:304|152:320,1,120,2|0,0:0|0:0,0:0:0:0:
96,300,12706,1,0,0:0:0:0:
44,192,13283,2,0,P|24:160|20:112,2,60,2|0|0,0:0|0:0|0:0,0:0:0:0:
100,212,14148,1,2,0:0:0:0:
156,192,14437,2,0,P|220:180|288:200,1,120
384,244,15591,6,0,P|432:216|468:140,1,120,2|0,0:0|0:0,0:0:0:0:
436,108,16456,2,0,P|372:108|320:72,1,120,2|0,0:0|0:0,0:0:0:0:
276,44,17321,1,0,0:0:0:0:
176,108,17898,2,0,L|176:192,2,60,2|0|0,0:0|0:0|0:0,0:0:0:0:
136,64,18764,1,2,0:0:0:0:
76,76,19052,2,0,P|52:152|80:204,1,120
124,292,20206,6,0,B|188:312|188:312|256:292,1,120,2|0,0:0|0:0,0:0:0:0:
356,272,21360,2,0,B|340:208|340:208|352:144,1,120,2|0,0:0|0:0,0:0:0:0:
272,64,22514,2,0,L|184:56,2,60,2|0|0,0:0|0:0|0:0,0:0:0:0:
304,116,23379,1,2,0:0:0:0:
272,168,23668,2,0,P|196:180|144:160,1,120
48,112,24821,6,0,P|36:168|56:236,1,120,2|0,0:0|0:0,0:0:0:0:
96,268,25687,2,0,P|168:264|216:300,1,120,2|0,0:0|0:0,0:0:0:0:
244,336,26552,1,0,0:0:0:0:
348,276,27129,2,0,P|404:260|460:200,2,120,2|0|0,0:0|0:0|0:0,0:0:0:0:
296,244,28571,2,0,L|296:168,2,60
244,276,29437,6,0,B|184:284|184:284|120:272,1,120,2|0,0:0|0:0,0:0:0:0:
72,244,30302,2,0,B|84:300|84:300|76:376,2,120,2|0|0,0:0|0:0|0:0,0:0:0:0:
28,204,31745,2,0,B|16:148|16:148|24:72,1,120,2|0,0:0|0:0,0:0:0:0:
60,40,32610,2,0,B|120:56|120:56|192:48,1,120,2|0,0:0|0:0,0:0:0:0:
292,180,34052,6,0,L|292:96,2,60,2|0|0,0:0|0:0|0:0,0:0:0:0:
384,256,35206,2,0,L|452:256,2,60,2|0|0,0:0|0:0|0:0,0:0:0:0:
292,180,36360,2,0,P|266:257|320:356,2,180,2|2|0,0:0|0:0|0:0,0:0:0:0:
376,96,38668,5,2,0:0:0:0:
136,100,39821,2,0,L|176:220,1,120
248,304,40975,6,0,P|340:308|392:280,1,143.999995605469,4|8,0:0|0:0,0:0:0:0:
428,248,41841,1,0,0:0:0:0:
428,248,42129,2,0,P|409:178|437:110,1,143.999995605469,2|8,0:0|0:0,0:0:0:0:
420,56,42995,1,0,0:0:0:0:
364,44,43283,2,0,P|316:84|224:76,1,143.999995605469,2|8,0:0|0:0,0:0:0:0:
188,52,44148,2,0,L|220:200,1,143.999995605469,2|0,0:0|0:0,0:0:0:0:
176,232,45014,1,8,0:0:0:0:
92,308,45591,6,0,P|152:344|244:320,1,143.999995605469,2|8,0:0|0:0,0:0:0:0:
271,304,46456,1,0,0:0:0:0:
306,258,46745,2,0,P|246:222|154:246,1,143.999995605469,2|8,0:0|0:0,0:0:0:0:
124,252,47610,1,0,0:0:0:0:
124,252,47898,2,0,L|52:160,2,107.999996704102,2|0|0,0:0|0:0|0:0,0:0:0:0:
124,308,49052,2,0,B|160:320|179:352|179:352|217:334|280:340,1,143.999995605469,2|8,0:0|0:0,0:0:0:0:
364,352,50206,6,0,P|432:324|452:248,1,143.999995605469,2|8,0:0|0:0,0:0:0:0:
448,204,51071,1,0,0:0:0:0:
448,204,51360,2,0,L|380:72,1,143.999995605469,2|8,0:0|0:0,0:0:0:0:
340,36,52225,1,0,0:0:0:0:
284,32,52514,2,0,P|300:108|268:176,1,143.999995605469,2|8,0:0|0:0,0:0:0:0:
220,188,53379,2,0,P|208:256|260:336,1,143.999995605469,2|0,0:0|0:0,0:0:0:0:
284,356,54245,1,8,0:0:0:0:
396,333,54821,6,0,L|469:201,1,143.999995605469,2|8,0:0|0:0,0:0:0:0:
441,160,55687,1,0,0:0:0:0:
441,160,55975,2,0,P|371:143|305:175,1,143.999995605469,2|8,0:0|0:0,0:0:0:0:
267,214,56841,1,0,0:0:0:0:
267,214,57129,2,0,P|195:243|132:226,2,143.999995605469,2|0|0,0:0|0:0|0:0,0:0:0:0:
191,126,58860,1,0,0:0:0:0:
104,44,59437,6,0,B|52:84|52:84|32:104|30:133,1,120,4|8,0:0|0:0,0:0:0:0:
32,252,60591,2,0,B|34:281|54:301|54:301|106:341,1,120,0|8,0:0|0:0,0:0:0:0:
165,336,61456,1,0,0:0:0:0:
216,304,61745,2,0,P|280:292|308:300,2,90,2|0|0,0:0|0:0|0:0,0:0:0:0:
160,280,62898,2,0,P|140:220|164:168,1,120,2|8,0:0|0:0,0:0:0:0:
248,88,64052,5,2,0:0:0:0:
336,168,64629,1,8,0:0:0:0:
424,88,65206,1,2,0:0:0:0:
512,168,65783,1,8,0:0:0:0:
484,284,66360,2,0,P|408:356|276:360,1,240,2|0,0:0|0:0,0:0:0:0:
120,172,68704,6,0,B|32:92|32:92|32:16,2,180,2|2|0,0:0|0:0|0:0,0:0:0:0:
232,132,71011,2,0,P|284:112|344:140,1,120,2|0,0:0|0:0,0:0:0:0:
380,180,71877,1,2,0:0:0:0:
256,364,72850,5,2,0:0:0:0:
256,192,73893,12,2,77763,0:0:0:0:
