osu file format v14

[General]
AudioFilename: Centifolia.mp3
AudioLeadIn: 0
PreviewTime: 39749
Countdown: 0
SampleSet: Soft
StackLeniency: 0.7
Mode: 0
LetterboxInBreaks: 0
WidescreenStoryboard: 1

[Editor]
DistanceSpacing: 1
BeatDivisor: 4
GridSize: 4
TimelineZoom: 2.480001

[Metadata]
Title:Centifolia
TitleUnicode:センティフォリア
Artist:Ceui
ArtistUnicode:Ceui
Creator:Lanturn
Version:Hard
Source:青い花
Tags:ED Ending Sweet Blue Flowers Aoi Hana
BeatmapID:1016204
BeatmapSetID:475642

[Difficulty]
HPDrainRate:4.5
CircleSize:4
OverallDifficulty:6
ApproachRate:6
SliderMultiplier:1.4
SliderTickRate:1

[Events]
//Background and Video events
0,0,"X.png",0,0
//Break Periods
//Storyboard Layer 0 (Background)
//Storyboard Layer 1 (Fail)
//Storyboard Layer 2 (Pass)
//Storyboard Layer 3 (Foreground)
//Storyboard Sound Samples

[TimingPoints]
1745,576.923076923077,4,2,1,60,1,0
40975,-83.3333333333333,4,2,1,70,0,1
59437,-100,4,2,1,60,0,0
68704,576.923076923077,4,2,1,40,1,0
72850,521.739130434783,4,2,1,30,1,0
73893,483.870967741935,4,2,1,10,1,0
77763,-100,4,2,1,30,0,0

[Colours]
Combo1 : 255,221,119
Combo2 : 166,255,166
Combo3 : 253,215,172
Combo4 : 150,189,254

[HitObjects]
180,192,10975,6,0,P|164:236|128:264,1,70,2|0,0:0|0:0,0:0:0:0:
72,240,11552,1,0,0:0:0:0:
115,123,11841,2,0,P|187:97|250:129,1,140,2|0,0:0|0:0,0:0:0:0:
284,188,12706,1,0,0:0:0:0:
352,228,12995,1,2,0:0:0:0:
424,256,13283,6,0,P|464:256|496:240,2,70
444,180,14148,1,2,0:0:0:0:
424,104,14437,2,0,P|464:104|496:120,2,70
368,160,15302,1,0,0:0:0:0:
288,48,15591,6,0,P|264:72|260:120,1,70,2|0,0:0|0:0,0:0:0:0:
288,176,16168,1,0,0:0:0:0:
176,96,16456,2,0,P|112:64|40:64,1,140,2|0,0:0|0:0,0:0:0:0:
0,128,17321,1,0,0:0:0:0:
24,264,17610,6,0,P|88:296|160:296,1,140,2|0,0:0|0:0,0:0:0:0:
232,264,18475,2,0,L|284:120,1,140,2|0,0:0|0:0,0:0:0:0:
279,132,19918,1,0,0:0:0:0:
192,136,20206,6,0,P|220:192|252:212,1,70,2|0,0:0|0:0,0:0:0:0:
296,224,20783,1,0,0:0:0:0:
356,176,21071,2,0,P|433:170|498:215,1,140,2|0,0:0|0:0,0:0:0:0:
508,274,21937,1,0,0:0:0:0:
410,313,22225,6,0,P|332:318|267:273,1,140,2|0,0:0|0:0,0:0:0:0:
208,316,23091,2,0,P|172:324|128:316,2,70,2|0|0,0:0|0:0|0:0,0:0:0:0:
172,248,23956,1,0,0:0:0:0:
227,194,24245,1,0,0:0:0:0:
191,126,24533,1,0,0:0:0:0:
250,76,24821,6,0,P|282:100|334:108,1,70,2|0,0:0|0:0,0:0:0:0:
368,56,25398,1,0,0:0:0:0:
478,60,25687,2,0,P|462:124|396:170,1,140,2|0,0:0|0:0,0:0:0:0:
310,108,26552,1,0,0:0:0:0:
180,211,27129,5,2,0:0:0:0:
109,243,27418,1,0,0:0:0:0:
44,202,27706,1,0,0:0:0:0:
49,124,27995,1,0,0:0:0:0:
117,89,28283,1,0,0:0:0:0:
182,131,28571,1,0,0:0:0:0:
253,176,28860,2,0,P|291:181|339:155,1,70
397,71,29437,6,0,P|405:143|473:195,1,140,2|0,0:0|0:0,0:0:0:0:
452,188,30302,2,0,P|440:280|384:324,1,140,2|0,0:0|0:0,0:0:0:0:
409,311,31168,1,0,0:0:0:0:
340,272,31456,1,0,0:0:0:0:
272,308,31745,6,0,P|232:324|196:320,2,70,2|0|0,0:0|0:0|0:0,0:0:0:0:
124,296,32610,2,0,P|80:252|84:172,1,140,2|0,0:0|0:0,0:0:0:0:
128,108,33475,1,0,0:0:0:0:
44,108,33764,1,0,0:0:0:0:
152,220,34052,6,0,P|228:248|304:240,1,140,2|0,0:0|0:0,0:0:0:0:
350,201,34918,1,0,0:0:0:0:
388,134,35206,1,2,0:0:0:0:
350,67,35495,1,0,0:0:0:0:
273,67,35783,1,0,0:0:0:0:
234,134,36071,1,0,0:0:0:0:
272,200,36360,6,0,L|205:221,2,70,2|0|0,0:0|0:0|0:0,0:0:0:0:
147,282,37225,2,0,P|122:208|164:147,1,140,2|0,0:0|0:0,0:0:0:0:
272,200,38091,1,0,0:0:0:0:
288,216,38668,5,2,0:0:0:0:
288,216,39821,1,0,0:0:0:0:
196,112,40398,1,0,0:0:0:0:
260,296,40975,6,0,P|328:288|364:260,1,83.9999974365235,4|0,0:0|0:0,0:0:0:0:
352,236,41408,2,0,P|332:180|372:124,1,125.999996154785,2|0,0:0|0:0,0:0:0:0:
468,196,42129,2,0,P|476:256|452:288,1,83.9999974365235,2|0,0:0|0:0,0:0:0:0:
376,352,42706,1,8,0:0:0:0:
352,236,42995,1,0,0:0:0:0:
260,296,43283,6,0,L|168:276,1,83.9999974365235,2|0,0:0|0:0,0:0:0:0:
105,179,43860,1,8,0:0:0:0:
260,216,44148,2,0,P|344:180|348:100,1,167.999994873047,2|0,0:0|0:0,0:0:0:0:
276,136,45014,1,8,0:0:0:0:
428,136,45302,1,0,0:0:0:0:
352,111,45591,6,0,P|368:189|444:215,1,167.999994873047,2|8,0:0|0:0,0:0:0:0:
504,112,46456,1,0,0:0:0:0:
412,40,46745,2,0,P|373:24|314:29,1,83.9999974365235,2|0,0:0|0:0,0:0:0:0:
290,44,47177,2,0,L|200:133,1,125.999996154785,2|0,0:0|0:0,0:0:0:0:
107,204,47898,6,0,P|85:144|101:68,2,125.999996154785,2|0|0,0:0|0:0|0:0,0:0:0:0:
170,305,49052,2,0,P|238:309|298:277,1,125.999996154785,2|0,0:0|0:0,0:0:0:0:
326,257,49629,2,0,L|402:297,1,83.9999974365235,10|0,0:0|0:0,0:0:0:0:
464,212,50206,6,0,P|432:172|432:128,1,83.9999974365235,2|0,0:0|0:0,0:0:0:0:
420,96,50639,2,0,P|348:132|300:124,1,125.999996154785,2|0,0:0|0:0,0:0:0:0:
220,92,51360,2,0,L|112:92,1,83.9999974365235,2|0,0:0|0:0,0:0:0:0:
28,132,51937,1,8,0:0:0:0:
80,28,52225,1,0,0:0:0:0:
148,184,52514,6,0,P|192:208|252:200,1,83.9999974365235,2|0,0:0|0:0,0:0:0:0:
208,124,53091,1,8,0:0:0:0:
112,256,53379,2,0,L|20:316,1,83.9999974365235,2|0,0:0|0:0,0:0:0:0:
40,216,53956,1,0,0:0:0:0:
116,344,54245,1,8,0:0:0:0:
40,216,54533,1,0,0:0:0:0:
116,344,54821,6,0,P|204:344|272:288,1,167.999994873047,2|8,0:0|0:0,0:0:0:0:
280,180,55687,1,0,0:0:0:0:
188,48,55975,2,0,P|100:48|32:104,1,167.999994873047,2|8,0:0|0:0,0:0:0:0:
24,212,56841,1,0,0:0:0:0:
180,176,57129,6,0,B|251:140|281:198|345:168,1,167.999994873047,2|0,0:0|0:0,0:0:0:0:
408,91,57995,1,0,0:0:0:0:
306,90,58283,1,2,0:0:0:0:
228,248,58860,1,0,0:0:0:0:
228,248,59437,6,0,L|156:304,1,70,4|0,0:0|0:0,0:0:0:0:
80,256,60014,2,0,P|64:212|120:128,1,140,8|0,0:0|0:0,0:0:0:0:
196,92,60879,1,0,0:0:0:0:
268,160,61168,2,0,P|328:176|368:168,1,70,8|0,0:0|0:0,0:0:0:0:
412,112,61745,6,0,B|452:68|452:68|452:16,2,105,2|0|0,0:0|0:0|0:0,0:0:0:0:
476,188,62898,2,0,L|476:268,1,70,2|0,0:0|0:0,0:0:0:0:
404,328,63475,2,0,P|380:292|380:236,1,70,8|0,0:0|0:0,0:0:0:0:
276,260,64052,6,0,P|220:300|124:292,1,140,2|8,0:0|0:0,0:0:0:0:
68,252,64918,1,0,0:0:0:0:
100,160,65206,2,0,P|156:120|252:128,1,140,2|8,0:0|0:0,0:0:0:0:
412,172,66360,5,2,0:0:0:0:
256,52,67514,1,0,0:0:0:0:
112,192,68704,6,0,P|160:252|220:256,1,140,2|0,0:0|0:0,0:0:0:0:
324,216,69569,1,2,0:0:0:0:
324,216,70146,2,0,L|424:220,2,70
264,160,71011,5,2,0:0:0:0:
264,48,71300,1,0,0:0:0:0:
152,48,71588,1,0,0:0:0:0:
152,160,71877,1,2,0:0:0:0:
129,177,72850,5,2,0:0:0:0:
256,192,73893,12,2,77763,0:0:0:0:
