osu file format v9

[General]
AudioFilename: lo.mp3
AudioLeadIn: 0
PreviewTime: 73920
Countdown: 0
SampleSet: Soft
StackLeniency: 0.7
Mode: 1
LetterboxInBreaks: 1

[Editor]
Bookmarks: 63786
DistanceSpacing: 0.8
BeatDivisor: 4
GridSize: 32

[Metadata]
Title:Asphodelus (Short Ver.)
Artist:Ceui
Creator:Nyquill
Version:Taiko Oni
Source:Aiyoku no Eustia
Tags:Makar8000 xCherry opening

[Difficulty]
HPDrainRate:6
CircleSize:5
OverallDifficulty:6
ApproachRate:5
SliderMultiplier:1.3
SliderTickRate:1

[Events]
//Background and Video events
0,0,"Taiko BG1.png"
//Break Periods
//Storyboard Layer 0 (Background)
//Storyboard Layer 1 (Fail)
//Storyboard Layer 2 (Pass)
//Storyboard Layer 3 (Foreground)
//Storyboard Sound Samples
//Background Colour Transformations
3,100,163,162,255

[TimingPoints]
1907,375,3,2,1,25,1,0
19157,-100,3,1,1,60,0,0
19907,-100,3,2,1,60,0,0
32657,-100,3,1,1,60,0,0
33594,-100,3,2,1,60,0,0
69407,-100,3,1,1,25,0,0
70532,-100,3,1,1,35,0,0
71657,-100,3,1,1,45,0,0
72782,-100,3,1,1,60,0,0
73907,-100,3,2,1,60,0,0
75032,-100,3,2,1,60,0,1
99782,-100,3,2,1,60,0,0
104657,-100,3,2,1,60,0,0
112157,-100,3,2,1,55,0,0
112719,-100,3,2,1,70,0,0

[Colours]
Combo1 : 255,0,0
Combo2 : 0,0,255

[HitObjects]
320,288,18219,5,8
320,288,18407,1,8
320,288,18500,1,8
192,288,18594,5,0
320,288,18782,5,8
320,288,18969,1,8
192,288,19157,5,0
192,288,19344,1,0
320,288,19532,5,8
320,288,19625,1,8
192,288,19719,5,0
192,288,19813,1,0
192,288,19907,1,0
192,288,20282,1,0
192,288,20469,1,0
320,288,20657,5,8
192,288,21032,5,0
192,288,21219,1,0
320,288,21407,5,8
192,288,21594,5,0
192,288,21782,1,0
192,288,21875,1,0
192,288,21969,1,0
192,288,22157,1,0
192,288,22344,1,0
320,288,22532,5,8
192,288,22719,5,0
320,288,23094,5,8
192,288,23282,5,0
192,288,23469,1,0
320,288,23657,5,8
320,288,23844,1,8
192,288,24032,5,0
192,288,24125,1,0
192,288,24219,1,0
192,288,24313,1,0
320,288,24407,5,8
192,288,24782,5,0
192,288,24969,1,0
320,288,25157,5,8
192,288,25344,5,0
320,288,25532,5,8
320,288,25625,1,8
320,288,25719,1,8
192,288,25907,5,0
192,288,26000,1,0
192,288,26094,1,0
320,288,26282,5,8
192,288,26469,5,0
320,288,26657,5,8
320,288,27032,1,8
192,288,27219,5,0
192,288,27594,1,0
320,288,27782,5,8
320,288,28157,1,8
320,288,28344,1,8
192,288,28532,5,0
192,288,28625,1,0
192,288,28719,1,0
256,192,28907,12,0,31814
224,224,32282,5,0
192,288,32375,5,0
320,288,32469,5,8
320,288,32657,1,8
320,288,32844,1,8
192,288,33032,5,0
192,288,33125,1,0
320,288,33219,5,8
192,288,33313,5,0
192,288,33407,1,0
192,288,33782,1,0
320,288,33969,5,8
320,288,34344,1,8
192,288,34532,5,0
192,288,34907,1,0
192,288,35094,1,0
192,288,35282,1,0
320,288,35469,5,8
192,288,35657,5,0
192,288,36032,1,0
192,288,36219,1,0
320,288,36594,5,8
192,288,36782,5,0
192,288,37532,1,0
192,288,37719,1,0
320,288,37907,5,8
320,288,38094,1,8
192,288,38282,5,0
320,288,38469,5,8
320,288,38844,1,8
192,288,39032,5,0
192,288,39407,1,0
192,288,39782,1,0
192,288,40157,1,0
192,288,40344,1,0
192,288,40532,1,0
320,288,40719,5,8
320,288,41094,1,8
192,288,41282,5,4
192,288,41469,1,4
320,288,41657,5,8
320,288,41844,1,8
192,288,42032,5,0
192,288,42125,1,0
192,288,42219,1,0
192,288,42313,1,0
192,288,42407,1,0
192,288,42782,1,0
320,288,42969,5,8
320,288,43344,1,8
320,288,43438,1,8
192,288,43532,5,0
192,288,43907,1,0
320,288,44094,5,10
192,288,44282,5,0
192,288,44657,1,0
192,288,44844,1,0
320,288,45032,5,8
192,288,45125,5,0
320,288,45219,5,8
320,288,45407,1,8
192,288,45594,5,0
192,288,45782,1,0
320,288,46157,5,8
320,288,46250,1,8
320,288,46344,1,8
192,288,46532,5,0
192,288,46719,1,0
320,288,46907,5,8
320,288,47282,1,8
192,288,47469,5,0
192,288,47844,1,0
320,288,48032,5,8
320,288,48407,1,8
320,288,48594,1,8
192,288,48782,5,0
320,288,48969,5,8
192,288,49157,5,0
192,288,49250,1,0
320,288,49344,5,8
320,288,49532,1,8
192,288,49719,5,0
192,288,49907,1,0
320,288,50094,5,8
320,288,50282,1,8
192,288,50657,5,4
192,288,50844,1,4
320,288,51032,5,8
320,288,51407,1,8
192,288,51594,5,0
320,288,51782,5,8
320,288,51969,1,8
192,288,52157,5,0
320,288,52344,5,8
320,288,52438,1,8
192,288,52532,5,0
320,288,52907,5,8
192,288,53094,5,0
320,288,53282,5,8
192,288,53469,5,0
320,288,53657,5,8
320,288,53844,1,8
192,288,54032,5,0
320,288,54219,5,8
192,288,54407,5,0
192,288,54594,1,0
192,288,54688,1,0
320,288,54782,5,8
320,288,54969,1,8
192,288,55157,5,0
192,288,55250,1,0
320,288,55344,5,8
320,288,55532,1,8
320,288,55719,1,8
192,288,55907,5,0
192,288,56094,1,0
320,288,56282,5,8
320,288,56469,1,8
320,288,56657,1,8
192,288,57032,5,0
192,288,57219,1,0
320,288,57407,5,8
320,288,57594,5,0
192,288,57969,1,4
320,288,58157,5,12
192,288,58719,5,0
192,288,58813,1,0
192,288,58907,1,0
320,288,59094,5,8
320,288,59188,1,0
192,288,59282,5,0
192,288,59469,1,0
320,288,59657,5,8
320,288,59750,1,8
192,288,59844,5,0
192,288,60032,1,0
192,288,60125,1,0
192,288,60219,1,0
192,288,60313,1,0
192,288,60407,1,0
320,288,60782,5,8
320,288,60969,1,8
320,288,61344,1,8
192,288,61532,5,0
192,288,61907,1,0
320,288,62094,5,8
320,288,62282,1,8
320,288,62657,1,8
320,288,62844,1,8
192,288,63032,5,0
192,288,63219,1,0
320,288,63407,5,8
320,288,63594,1,8
320,288,63782,1,8
320,288,63875,1,8
192,288,63969,5,0
320,288,64157,5,8
320,288,64344,1,8
192,288,64532,5,0
192,288,64625,1,0
320,288,64719,5,8
256,192,64907,12,0,65844
320,288,66032,5,4
192,288,66407,1,0
192,288,66594,1,0
320,288,66782,5,8
320,288,67157,1,8
320,288,67907,1,8
320,288,68094,1,8
192,288,68282,5,0
192,288,68469,1,0
320,288,68657,5,8
320,288,68844,1,8
192,288,69032,5,0
192,288,69219,1,0
320,288,69407,5,8
192,288,69594,5,0
192,288,69782,1,0
320,288,69969,5,8
192,288,70156,5,0
192,288,70344,1,0
320,288,70532,5,8
192,288,70719,5,0
192,288,70907,1,0
320,288,71094,5,8
192,288,71281,5,0
192,288,71469,1,0
320,288,71657,5,8
320,288,71844,1,8
192,288,72032,5,0
192,288,72125,1,0
192,288,72219,1,0
320,288,72407,5,8
192,288,72594,5,0
320,288,72782,5,8
320,288,72969,1,8
192,288,73157,5,0
192,288,73250,1,0
192,288,73344,1,0
192,288,73438,1,0
320,288,73532,5,8
192,288,73719,5,0
192,288,73907,1,0
192,288,74282,1,0
192,288,74657,1,0
192,288,74750,1,0
192,288,74844,1,0
192,288,74938,1,0
192,288,75032,1,0
320,288,75219,5,8
320,288,75407,1,8
320,288,75501,1,8
192,288,75595,5,0
320,288,75782,5,8
192,288,75969,5,0
192,288,76157,1,0
192,288,76250,1,0
192,288,76344,1,0
320,288,76532,5,8
192,288,76719,5,0
192,288,76907,1,4
192,288,77094,1,4
320,288,77282,5,8
320,288,77375,1,8
192,288,77469,5,0
192,288,77563,1,0
192,288,77657,1,0
192,288,77844,1,0
320,288,78032,5,8
192,288,78219,5,0
320,288,78407,5,8
320,288,78782,1,8
320,288,78875,1,8
320,288,78969,1,8
320,288,79063,1,8
320,288,79157,1,8
192,288,79344,5,0
320,288,79532,5,8
320,288,79907,1,8
192,288,80094,5,0
320,288,80282,5,8
320,288,80657,1,8
320,288,81032,1,8
192,288,81219,5,0
320,288,81407,5,8
320,288,81500,1,8
192,288,81594,5,0
192,288,81688,1,0
320,288,81782,5,8
192,288,81969,5,0
192,288,82157,1,0
320,288,82344,5,8
192,288,82532,5,0
192,288,82719,1,0
320,288,82907,5,8
192,288,83094,5,0
192,288,83188,1,0
192,288,83282,1,0
192,288,83469,1,0
320,288,83657,5,8
320,288,83844,1,8
320,288,84032,1,12
192,288,84219,5,0
192,288,84594,1,0
320,288,84969,5,8
192,288,85063,5,0
320,288,85157,5,8
192,288,85344,5,0
192,288,85531,1,0
192,288,85719,1,0
320,288,85907,5,8
192,288,86094,5,0
320,288,86282,5,12
320,288,86657,1,12
192,288,86844,5,4
320,288,87032,5,12
320,288,87407,1,8
320,288,87500,1,8
320,288,87594,1,8
320,288,87688,1,8
192,288,87782,5,0
320,288,87876,5,8
192,288,87969,5,0
192,288,88063,1,0
192,288,88157,1,0
320,288,88344,5,8
320,288,88532,1,8
320,288,88907,1,8
192,288,89094,5,0
320,288,89469,5,8
192,288,89657,5,0
192,288,90032,1,0
192,288,90219,1,0
320,288,90407,5,8
192,288,90594,5,0
192,288,90688,1,0
192,288,90782,1,0
192,288,90969,1,0
320,288,91157,5,8
192,288,91344,5,0
320,288,91531,5,8
320,288,91625,1,8
192,288,91719,5,0
192,288,91812,1,0
192,288,91906,1,0
192,288,92094,1,0
320,288,92282,5,8
320,288,92376,1,8
192,288,92470,5,0
192,288,92563,1,0
192,288,92657,1,0
192,288,92845,1,0
320,288,93032,5,8
320,288,93125,1,8
192,288,93219,5,0
320,288,93407,5,8
320,288,93500,1,8
192,288,93594,5,0
320,288,93782,5,8
320,288,93969,1,8
192,288,94157,5,0
192,288,94344,1,0
192,288,94532,1,0
192,288,94719,1,0
320,288,94907,5,8
192,288,95094,5,0
320,288,95282,5,8
192,288,95469,5,0
192,288,95563,1,0
320,288,95657,5,8
192,288,95844,5,0
320,288,96032,5,8
192,288,96219,5,0
320,288,96407,5,8
320,288,96782,1,8
320,288,96969,1,8
192,288,97157,5,0
192,288,97344,1,0
320,288,97532,5,0
320,288,97907,1,8
320,288,98282,1,8
192,288,98469,5,0
192,288,98563,1,0
320,288,98657,5,8
192,288,98844,5,4
320,288,99032,5,12
192,288,99219,5,4
320,288,99407,5,12
192,288,99594,5,4
256,192,99782,12,0,104282
192,256,104469,5,0
192,288,104563,5,0
320,288,104657,5,8
320,288,104844,1,8
320,288,105032,1,8
192,288,105219,5,0
320,288,105407,5,8
192,288,105594,5,0
320,288,105782,5,8
320,288,105969,1,8
192,288,106157,5,0
192,288,106344,1,0
320,288,106532,5,8
320,288,106625,1,8
320,288,106719,1,8
320,288,106907,1,8
192,288,107094,5,0
192,288,107282,1,0
192,288,107469,1,0
320,288,107657,5,8
192,288,107844,5,0
320,288,108032,5,8
320,288,108125,1,8
192,288,108219,5,0
320,288,108407,5,8
192,288,108594,5,0
320,288,108782,5,8
320,288,109157,1,8
192,288,109344,5,0
192,288,109719,1,0
320,288,109907,5,8
320,288,110282,1,8
192,288,110469,5,0
192,288,110657,1,0
192,288,110844,1,0
320,288,111032,5,8
320,288,111407,1,8
192,288,111594,5,0
192,288,111969,1,0
320,288,112157,5,8
320,288,112344,1,8
192,288,112532,5,0
320,288,112719,5,8
320,288,112906,1,8
192,288,113094,5,0
192,288,113282,1,0
192,288,113375,1,0
320,288,113469,5,8
320,288,113657,1,8
320,288,113750,1,8
320,288,113844,1,8
192,288,114032,5,0
192,288,114125,1,0
320,288,114219,5,8
320,288,114407,1,8
320,288,114500,1,8
192,288,114594,5,0
320,288,114782,5,8
192,288,114875,5,0
192,288,114969,1,0
192,288,115063,1,0
320,288,115157,5,8
320,288,115250,1,8
192,288,115344,5,0
192,288,115531,1,0
192,288,115625,1,0
320,288,115719,5,8
320,288,115907,1,8
320,288,116000,1,8
320,288,116094,1,8
192,288,116282,5,0
192,288,116375,1,0
320,288,116469,5,8
320,288,116657,1,8
320,288,116750,1,8
192,288,116844,5,0
320,288,117032,5,8
192,288,117125,5,0
192,288,117219,1,0
192,288,117313,1,0
320,288,117407,5,8
192,288,117500,5,0
320,288,117594,5,8
192,288,117688,5,0
320,288,117782,5,8
