osu file format v14

[General]
AudioFilename: 01.Asphodelus.mp3
AudioLeadIn: 0
PreviewTime: 74113
Countdown: 0
SampleSet: Soft
StackLeniency: 0.7
Mode: 0
LetterboxInBreaks: 0
WidescreenStoryboard: 1

[Editor]
DistanceSpacing: 1
BeatDivisor: 4
GridSize: 32
TimelineZoom: 1.1

[Metadata]
Title:Asphodelus
TitleUnicode:Asphodelus -アスフォデルス-
Artist:Ceui
ArtistUnicode:Ceui
Creator:Giralda
Version:Normal
Source:穢翼のユースティア
Tags:august opening visual novel Active Planets aiyoku no eustia raose
BeatmapID:718697
BeatmapSetID:319976

[Difficulty]
HPDrainRate:4
CircleSize:3.5
OverallDifficulty:4
ApproachRate:5
SliderMultiplier:1.1
SliderTickRate:1

[Events]
//Background and Video events
0,0,"Konachan.com - 103162 aiyoku_no_eustia bekkankou eustia_astraea pink_hair purple_eyes seifuku.jpg",0,0
//Break Periods
2,103938,107038
2,191688,203788
2,216238,224038
//Storyboard Layer 0 (Background)
//Storyboard Layer 1 (Fail)
//Storyboard Layer 2 (Pass)
//Storyboard Layer 3 (Foreground)
//Storyboard Sound Samples

[TimingPoints]
1363,375,3,2,1,60,1,0
20113,-100,3,2,3,60,0,0
20863,-100,3,2,1,60,0,0
22175,-100,3,2,3,60,0,0
22550,-100,3,2,1,60,0,0
22738,-100,3,2,3,60,0,0
23488,-100,3,2,1,60,0,0
23863,-100,3,2,3,60,0,0
24425,-100,3,2,1,60,0,0
24613,-100,3,2,3,60,0,0
26113,-100,3,2,1,60,0,0
27238,-100,3,2,3,60,0,0
27988,-100,3,2,1,60,0,0
32863,-100,3,2,3,60,0,0
45988,-100,3,2,1,60,0,0
46363,-100,3,2,3,60,0,0
46925,-100,3,2,1,60,0,0
47863,-100,3,2,3,60,0,0
49175,-100,3,2,1,60,0,0
50863,-100,3,2,3,60,0,0
51988,-100,3,2,1,60,0,0
52363,-100,3,2,3,60,0,0
53675,-100,3,2,1,60,0,0
54238,-100,3,2,3,60,0,0
54988,-100,3,2,1,60,0,0
55363,-100,3,2,3,60,0,0
59488,-100,3,2,1,60,0,0
60238,-100,3,2,3,60,0,0
62113,-100,3,2,1,60,0,0
62863,-100,3,2,3,60,0,0
63988,-100,3,2,1,60,0,0
64363,-100,3,2,3,60,0,0
67175,-100,3,2,1,60,0,0
69425,-100,3,2,3,60,0,0
69988,-100,3,2,1,60,0,0
73363,-100,3,2,3,70,0,0
74488,-100,3,2,1,75,0,1
75238,-100,3,2,3,75,0,1
76363,-100,3,2,1,75,0,1
77488,-100,3,2,3,75,0,1
79550,-100,3,2,1,75,0,1
79738,-100,3,2,3,75,0,1
83488,-100,3,2,1,75,0,1
84238,-100,3,2,3,75,0,1
84988,-100,3,2,1,75,0,1
85363,-100,3,2,3,75,0,1
92113,-100,3,2,1,75,0,1
93050,-100,3,2,3,75,0,1
96613,-100,3,2,1,75,0,1
96988,-100,3,2,3,75,0,1
99238,-100,3,2,1,60,0,0
103738,-100,3,2,3,10,0,0
108238,-100,3,2,3,50,0,0
116863,-100,3,2,1,60,0,0
123238,-100,3,2,3,60,0,0
123988,-100,3,2,1,60,0,0
124550,-100,3,2,3,60,0,0
125113,-100,3,2,1,60,0,0
125863,-100,3,2,3,60,0,0
126800,-100,3,2,1,60,0,0
127738,-100,3,2,3,60,0,0
129050,-100,3,2,1,60,0,0
131300,-100,3,2,3,60,0,0
131863,-100,3,2,1,60,0,0
132238,-100,3,2,3,60,0,0
134863,-100,3,2,1,60,0,0
136363,-100,3,2,3,60,0,0
138050,-100,3,2,1,60,0,0
139738,-100,3,2,3,60,0,0
141238,-100,3,2,1,60,0,0
141613,-100,3,2,3,60,0,0
142550,-100,3,2,1,60,0,0
143113,-100,3,2,3,60,0,0
143488,-100,3,2,1,60,0,0
144238,-100,3,2,3,60,0,0
144800,-100,3,2,1,60,0,0
145738,-100,3,2,3,60,0,0
148363,-100,3,2,1,60,0,0
150425,-100,3,2,3,60,0,0
153800,-100,3,2,1,60,0,0
156613,-100,3,2,3,60,0,0
157363,-100,3,2,1,60,0,0
159238,-100,3,2,3,60,0,0
160925,-100,3,2,1,60,0,0
162238,-100,3,2,1,75,0,1
162988,-100,3,2,3,75,0,1
163925,-100,3,2,1,75,0,1
165238,-100,3,2,3,75,0,1
171238,-100,3,2,1,75,0,1
171988,-100,3,2,3,75,0,1
172363,-100,3,2,1,75,0,1
173113,-100,3,2,3,75,0,1
179863,-100,3,2,1,75,0,1
180613,-100,3,2,3,75,0,1
184363,-100,3,2,1,75,0,1
184738,-100,3,2,3,75,0,1
186988,-100,3,2,1,60,0,0
205738,-100,3,2,3,60,0,0
210050,-100,3,2,1,60,0,0
211738,-100,3,2,3,60,0,0
225238,-100,3,2,1,45,0,0
226363,-100,3,2,3,45,0,0
235363,-100,3,2,1,60,0,0
236488,-100,3,2,1,80,0,1
237238,-100,3,2,3,80,0,1
238363,-100,3,2,1,80,0,1
239488,-100,3,2,3,80,0,1
246613,-100,3,2,1,80,0,1
247363,-100,3,2,3,80,0,1
254113,-100,3,2,1,80,0,1
255050,-100,3,2,3,80,0,1
258613,-100,3,2,1,80,0,1
258988,-100,3,2,3,80,0,1
261238,-100,3,2,1,60,0,0
265738,-100,3,2,1,5,0,0

[Colours]
Combo1 : 0,255,255
Combo2 : 255,128,192
Combo3 : 255,128,64
Combo4 : 255,255,128
Combo5 : 128,255,128

[HitObjects]
64,79,19363,6,0,P|131:125|210:112,1,165,4|2,0:2|0:0,0:0:0:0:
256,82,20113,2,0,L|268:191,1,110,2|2,0:0|1:2,0:0:0:0:
375,214,20863,2,0,L|370:160,2,55,8|0|2,1:2|1:0|0:0,0:0:0:0:
432,307,21613,6,0,P|372:361|293:352,1,165,4|2,1:2|0:0,0:0:0:0:
199,295,22550,1,2,0:0:0:0:
199,295,22738,2,0,L|87:286,2,110,2|10|8,1:2|1:2|0:2,0:0:0:0:
274,215,23863,6,0,P|345:175|423:195,1,165,2|2,0:2|0:0,0:0:0:0:
461,234,24613,2,0,L|454:124,1,110,0|2,1:0|1:2,0:0:0:0:
377,44,25363,2,0,L|320:40,2,55,10|2|0,1:2|0:0|0:0,0:0:0:0:
357,152,26113,6,0,B|337:123|337:123|208:115,2,165,2|0|2,1:2|1:0|1:2,0:0:0:0:
273,224,27613,2,0,L|163:216,1,110,2|0,1:2|0:0,0:0:0:0:
256,192,28363,12,4,32863,0:0:0:0:
335,224,33988,6,0,L|445:220,2,110,2|2|2,0:0|0:0|0:0,0:0:0:0:
237,272,35113,2,0,P|157:275|113:210,2,165,2|2|2,0:0|0:0|0:0,0:0:0:0:
326,71,36988,2,0,L|320:133,1,55,2|2,0:0|0:0,0:0:0:0:
308,179,37363,6,0,P|244:226|168:203,2,165,2|2|2,0:0|0:0|0:0,0:0:0:0:
218,117,38863,2,0,L|108:107,1,110,2|2,0:0|0:0,0:0:0:0:
36,191,39613,6,0,P|21:243|35:296,1,110,2|0,0:0|0:0,0:0:0:0:
80,327,40175,2,0,L|246:323,1,165,2|8,0:0|3:0,0:0:0:0:
355,321,41113,1,0,1:0:0:0:
287,234,41488,1,0,3:0:0:0:
385,186,41863,6,0,P|413:109|407:27,2,165,6|2|2,1:2|0:0|1:2,0:0:0:0:
282,144,43363,2,0,L|167:137,1,110,2|2,0:0|0:0,0:0:0:0:
61,146,44113,6,0,P|35:222|66:296,2,165,10|10|2,0:0|0:0|0:0,0:0:0:0:
165,107,45613,1,10,1:2:0:0:
256,168,45988,1,2,0:0:0:0:
334,90,46363,6,0,P|415:78|498:74,2,165,2|2|0,1:2|0:0|1:0,0:0:0:0:
256,168,47863,1,2,0:0:0:0:
322,256,48238,1,2,0:0:0:0:
244,333,48613,6,0,B|220:292|220:292|103:278,2,165,0|2|0,1:0|0:0|1:0,0:0:0:0:
352,316,50113,2,0,L|412:311,2,55,2|8|4,0:0|0:3|3:0,0:0:0:0:
296,221,50863,6,0,L|278:102,2,110,4|2|2,0:0|0:0|0:0,0:0:0:0:
393,272,51988,1,0,1:0:0:0:
310,344,52363,1,2,0:0:0:0:
215,287,52738,1,2,0:0:0:0:
115,334,53113,6,0,P|86:259|101:178,2,165,2|2|2,1:2|0:0|0:0,0:0:0:0:
225,347,54613,2,0,L|290:340,2,55,2|0|2,1:2|1:0|0:0,0:0:0:0:
286,255,55363,2,0,L|395:244,2,110,2|2|2,1:2|0:0|0:0,0:0:0:0:
197,190,56488,1,2,1:2:0:0:
250,93,56863,6,0,P|318:136|392:106,1,165,2|2,0:0|0:0,0:0:0:0:
438,76,57613,2,0,L|445:185,1,110,4|2,1:2|0:0,0:0:0:0:
453,295,58363,1,2,0:0:0:0:
353,248,58738,1,0,1:0:0:0:
270,321,59113,2,0,L|211:316,2,55,2|2|2,1:2|0:0|0:0,0:0:0:0:
209,229,59863,6,0,P|133:200|56:224,2,165,0|0|0,0:0|1:0|1:0,0:0:0:0:
299,292,61363,2,0,L|315:349,2,55
191,315,62113,6,0,L|81:310,2,110,2|0|2,0:0|0:0|0:0,0:0:0:0:
256,226,63238,2,0,L|365:221,2,110,2|0|2,1:2|1:0|0:0,0:0:0:0:
170,156,64363,2,0,P|97:119|20:142,2,165,2|2|0,0:0|0:0|1:0,0:0:0:0:
263,98,65863,2,0,L|375:93,1,110,0|2,1:0|0:0,0:0:0:0:
482,107,66613,6,0,B|501:153|501:153|482:266,2,165,0|2|2,1:0|0:0|1:2,0:0:0:0:
382,60,68113,2,0,L|324:55,2,55,0|0|2,1:0|1:0|0:0,0:0:0:0:
328,155,68863,2,0,P|259:196|186:165,2,165,4|2|0,1:2|0:0|1:0,0:0:0:0:
405,234,70363,2,0,L|411:343,1,110,0|2,0:0|0:0,0:0:0:0:
256,192,71113,12,4,73363,0:3:0:0:
151,203,74488,6,0,P|229:224|293:177,1,165,4|2,1:2|0:0,0:0:0:0:
334,141,75238,2,0,L|349:249,1,110,2|0,1:2|1:0,0:0:0:0:
450,293,75988,1,10,0:0:0:0:
366,365,76363,1,4,1:3:0:0:
263,321,76738,6,0,P|188:292|112:319,1,165,4|2,1:2|0:0,0:0:0:0:
75,360,77488,2,0,L|63:251,1,110,2|4,0:0|1:3,0:0:0:0:
55,140,78238,2,0,L|-2:132,2,55,10|2|0,0:0|0:0|1:0,0:0:0:0:
165,133,78988,6,0,P|236:96|313:120,1,165,2|4,1:2|1:3,0:0:0:0:
355,156,79738,2,0,L|350:40,1,110,2|2,0:0|1:2,0:0:0:0:
445,101,80488,1,10,1:2:0:0:
439,210,80863,1,2,1:2:0:0:
430,318,81238,6,0,P|363:364|284:350,1,165,2|4,1:2|0:3,0:0:0:0:
256,302,81988,2,0,L|146:292,1,110,2|2,0:0|0:0,0:0:0:0:
66,217,82738,2,0,L|11:206,2,55,2|2|0,0:0|1:2|1:0,0:0:0:0:
156,153,83488,6,0,P|227:190|303:164,1,165,4|4,1:2|0:3,0:0:0:0:
329,121,84238,2,0,L|347:232,1,110,2|2,0:0|1:2,0:0:0:0:
412,317,84988,2,0,L|470:297,2,55,2|4|2,0:0|0:3|1:2,0:0:0:0:
305,346,85738,6,0,P|243:295|164:309,1,165,4|4,1:2|1:3,0:0:0:0:
119,340,86488,2,0,L|108:230,1,110,2|2,0:0|1:2,0:0:0:0:
85,122,87238,2,0,L|27:109,2,55,2|2|2,1:2|0:2|1:2,0:0:0:0:
186,81,87988,6,0,P|234:106|287:94,1,110,4|2,1:2|0:0,0:0:0:0:
332,62,88550,2,0,P|379:37|432:49,1,110,4|4,0:3|0:3,0:0:0:0:
475,84,89113,1,0,1:0:0:0:
413,174,89488,1,2,0:0:0:0:
484,257,89863,1,2,1:2:0:0:
403,331,90238,6,0,P|325:345|275:284,2,165,2|8|2,1:2|0:3|1:2,0:0:0:0:
438,227,91738,2,0,L|498:241,2,55,8|8|2,0:3|0:3|0:0,0:0:0:0:
353,156,92488,2,0,B|323:122|323:122|203:112,1,165,2|4,1:2|0:3,0:0:0:0:
64,201,93613,6,0,P|46:149|48:94,2,110,0|0|2,1:0|1:0|1:2,0:0:0:0:
147,272,94738,2,0,P|72:246|16:301,2,165,4|10|10,1:2|0:0|1:2,0:0:0:0:
254,298,96238,2,0,L|315:314,2,55,0|8|2,1:0|0:0|0:0,0:0:0:0:
238,188,96988,6,0,B|270:155|270:155|389:152,2,165,2|4|2,1:2|1:3|1:2,0:0:0:0:
150,121,98488,1,2,1:2:0:0:
83,208,98863,1,2,1:2:0:0:
166,279,99238,5,6,0:0:0:0:
256,192,99331,12,0,103738,0:0:0:0:
81,103,108238,6,0,P|155:134|228:101,1,165,4|0,0:0|0:0,0:0:0:0:
268,64,108988,2,0,L|279:173,1,110,2|2,1:2|0:0,0:0:0:0:
317,276,109738,2,0,L|357:326,2,55,0|0|0,1:0|0:0|1:0,0:0:0:0:
210,248,110488,6,0,L|41:243,2,165,2|0|2,1:2|0:0|1:2,0:0:0:0:
303,189,111988,1,2,1:2:0:0:
378,268,112363,1,2,1:2:0:0:
437,175,112738,6,0,L|495:155,2,55,2|2|2,1:2|0:0|1:2,0:0:0:0:
378,267,113488,2,0,P|341:308|288:317,1,110,2|2,1:2|1:2,0:0:0:0:
191,265,114238,2,0,L|67:256,1,110,2|0,1:2|1:0,0:0:0:0:
54,150,114988,6,0,B|75:116|75:116|199:109,2,165,2|2|2,1:2|0:0|1:2,0:0:0:0:
130,229,116488,2,0,L|242:222,1,110,2|2,1:2|1:2,0:0:0:0:
256,192,117238,12,4,121738,1:2:0:0:
139,150,122863,6,0,P|126:202|136:256,2,110,0|2|2,1:0|0:0|0:0,0:0:0:0:
238,101,123988,2,0,P|301:148|379:130,2,165,2|2|0,0:0|0:0|1:0,0:0:0:0:
145,41,125488,2,0,L|152:95,2,55,0|2|2,1:0|0:0|1:2,0:0:0:0:
57,108,126238,6,0,B|35:147|35:147|46:276,2,165,2|2|0,1:2|0:0|1:0,0:0:0:0:
140,179,127738,1,2,0:0:0:0:
225,110,128113,1,2,0:0:0:0:
304,185,128488,6,0,P|357:194|404:168,1,110,0|8,1:0|0:0,0:0:0:0:
430,119,129050,2,0,L|442:283,1,165,2|8,0:0|0:3,0:0:0:0:
348,342,129988,1,0,1:0:0:0:
248,294,130363,1,0,3:0:0:0:
154,352,130738,6,0,B|126:326|126:326|119:199,2,165,6|2|2,1:2|0:0|1:2,0:0:0:0:
247,294,132238,2,0,P|301:283|356:284,1,110,2|10,0:0|0:0,0:0:0:0:
415,190,132988,6,0,P|333:195|255:167,2,165,0|2|2,1:0|0:0|0:0,0:0:0:0:
483,104,134488,2,0,L|488:49,2,55,0|0|2,1:0|1:0|0:0,0:0:0:0:
382,58,135238,6,0,B|334:38|334:38|221:46,2,165,0|2|2,1:0|0:0|1:2,0:0:0:0:
393,167,136738,2,0,L|399:228,2,55,2|0|2,0:0|1:0|0:0,0:0:0:0:
285,142,137488,2,0,L|300:312,2,165,0|2|0,1:0|0:0|1:0,0:0:0:0:
184,95,138988,2,0,L|116:90,2,55,2|8|4,0:0|0:3|3:0,0:0:0:0:
191,204,139738,6,0,P|140:223|89:206,2,110,4|2|2,0:0|0:0|0:0,0:0:0:0:
244,301,140863,1,2,1:2:0:0:
326,227,141238,1,2,0:0:0:0:
404,304,141613,1,2,0:0:0:0:
479,224,141988,6,0,P|510:150|475:77,2,165,2|2|2,1:2|0:0|0:0,0:0:0:0:
368,227,143488,2,0,L|294:223,2,55,2|2|2,0:0|0:0|0:0,0:0:0:0:
304,317,144238,6,0,P|229:287|157:323,1,165,2|2,1:2|0:0,0:0:0:0:
118,362,144988,2,0,L|107:253,1,110,2|2,0:0|1:2,0:0:0:0:
69,148,145738,2,0,L|16:132,2,55,2|0|0,0:0|1:0|0:0,0:0:0:0:
166,97,146488,6,0,P|239:61|314:88,2,165,4|0|0,1:2|1:0|1:0,0:0:0:0:
245,173,147988,2,0,L|253:235,2,55,0|2|2,1:0|1:2|0:0,0:0:0:0:
367,235,148738,6,0,B|400:215|400:215|407:88,2,165,4|2|0,1:2|0:0|1:0,0:0:0:0:
294,318,150238,2,0,L|323:377,2,55,0|2|2,0:0|1:2|0:0,0:0:0:0:
190,281,150988,6,0,L|73:276,2,110,0|0|2,1:0|0:0|0:0,0:0:0:0:
260,196,152113,2,0,L|369:191,2,110,2|0|2,0:0|1:0|0:0,0:0:0:0:
158,153,153238,6,0,P|94:177|22:119,2,165,0|2|2,1:0|0:0|1:2,0:0:0:0:
231,71,154738,2,0,L|223:15,2,55,2|2|0,0:0|0:0|0:0,0:0:0:0:
317,139,155488,2,0,B|359:166|359:166|362:281,2,165,0|2|0,1:0|0:0|1:0,0:0:0:0:
267,237,156988,2,0,L|269:291,2,55,0|0|2,1:0|1:0|0:0,0:0:0:0:
177,172,157738,6,0,P|104:139|38:182,1,165,4|2,1:2|0:0,0:0:0:0:
22,234,158488,2,0,L|28:343,1,110,0|0,1:0|1:0,0:0:0:0:
124,290,159238,1,2,0:0:0:0:
220,342,159613,1,0,1:0:0:0:
289,257,159988,6,0,P|365:226|445:241,2,165,0|2|4,1:0|0:0|0:3,0:0:0:0:
181,234,161488,2,0,L|164:120,1,110,0|0,0:0|0:0,0:0:0:0:
272,103,162238,6,0,P|347:127|407:76,1,165,4|2,1:0|0:0,0:0:0:0:
449,40,162988,2,0,L|466:159,1,110,2|0,1:2|1:2,0:0:0:0:
474,258,163738,2,0,L|464:329,2,55,0|2|4,0:0|0:0|1:3,0:0:0:0:
365,242,164488,6,0,P|291:208|220:242,1,165,4|2,1:2|0:0,0:0:0:0:
185,285,165238,2,0,L|168:169,1,110,2|4,0:0|1:3,0:0:0:0:
118,78,165988,2,0,L|59:74,2,55,2|2|0,0:0|0:0|1:0,0:0:0:0:
223,43,166738,6,0,P|291:83|362:49,1,165,2|4,1:2|1:3,0:0:0:0:
403,12,167488,2,0,L|417:120,1,110,2|2,0:0|1:2,0:0:0:0:
427,230,168238,1,10,1:2:0:0:
324,189,168613,1,2,1:2:0:0:
240,259,168988,6,0,P|167:293|96:258,1,165,2|4,1:2|0:3,0:0:0:0:
70,209,169738,2,0,L|66:96,1,110,2|2,0:0|0:0,0:0:0:0:
157,37,170488,2,0,L|158:102,2,55,2|2|2,0:0|1:2|1:2,0:0:0:0:
243,102,171238,6,0,P|315:138|384:99,1,165,4|4,1:2|0:3,0:0:0:0:
423,60,171988,2,0,L|436:169,1,110,2|2,0:0|1:2,0:0:0:0:
458,277,172738,2,0,L|483:331,2,55,2|0|2,0:0|0:0|1:2,0:0:0:0:
358,228,173488,6,0,P|297:282|218:274,1,165,4|4,1:2|1:3,0:0:0:0:
172,243,174238,2,0,L|152:129,1,110,2|2,0:0|1:2,0:0:0:0:
69,63,174988,2,0,L|1:57,2,55,2|2|2,1:2|0:0|1:2,0:0:0:0:
177,45,175738,6,0,P|240:29|284:38,1,110,4|2,1:2|0:0,0:0:0:0:
329,66,176300,2,0,P|381:81|435:73,1,110,4|4,0:3|0:3,0:0:0:0:
485,50,176863,1,0,1:0:0:0:
451,154,177238,1,2,0:0:0:0:
509,247,177613,1,2,1:2:0:0:
415,303,177988,6,0,P|340:333|270:296,2,165,2|8|2,1:2|0:3|1:2,0:0:0:0:
454,201,179488,2,0,L|464:137,2,55,8|8|2,0:3|0:3|0:0,0:0:0:0:
346,179,180238,2,0,B|316:148|316:148|194:134,1,165,2|4,1:2|0:3,0:0:0:0:
131,286,181363,6,0,P|185:276|239:280,2,110,0|0|2,1:0|1:0|1:2,0:0:0:0:
92,183,182488,2,0,P|173:187|251:161,2,165,4|0|10,1:2|0:0|1:2,0:0:0:0:
30,91,183988,2,0,L|21:22,2,55,0|8|2,1:0|0:0|0:0,0:0:0:0:
138,71,184738,6,0,B|166:39|166:39|288:30,2,165,2|4|2,1:2|1:3|1:2,0:0:0:0:
99,174,186238,1,2,1:2:0:0:
160,264,186613,1,2,1:2:0:0:
234,182,186988,5,6,0:0:0:0:
256,192,187081,12,4,191488,0:0:0:0:
204,95,204988,6,0,L|90:87,2,110,4|0|2,0:0|0:0|0:0,0:0:0:0:
308,129,206113,2,0,L|422:121,2,110,0|8|2,1:0|0:0|0:0,0:0:0:0:
220,195,207238,6,0,L|106:187,2,110,0|8|2,1:0|0:0|0:0,0:0:0:0:
297,272,208363,1,2,0:0:0:0:
380,200,208738,1,0,1:0:0:0:
405,307,209113,1,8,0:0:0:0:
296,271,209488,6,0,P|218:255|151:299,2,165,0|2|0,1:0|0:0|1:0,0:0:0:0:
386,335,210988,2,0,L|390:219,1,110,8|8,0:0|0:0,0:0:0:0:
399,115,211738,1,2,0:0:0:0:
70,81,212863,1,2,0:0:0:0:
395,27,213988,1,4,0:3:0:0:
123,117,225238,6,0,P|87:189|127:257,2,165,2|2|2,0:0|0:0|0:0,0:0:0:0:
232,103,226738,2,0,L|296:96,2,55,8|2|8,0:0|0:0|0:0,0:0:0:0:
210,210,227488,6,0,L|389:197,1,165,2|0,0:0|0:0,0:0:0:0:
429,194,228238,1,8,0:0:0:0:
481,97,228613,1,2,0:0:0:0:
386,41,228988,1,2,0:0:0:0:
290,96,229363,1,2,0:0:0:0:
204,26,229738,6,0,P|167:96|204:166,2,165,2|0|2,1:2|0:0|1:2,0:0:0:0:
290,96,231238,2,0,L|405:86,1,110,10|10,0:0|0:0,0:0:0:0:
466,173,231988,2,0,B|437:212|437:212|321:228,2,165,4|4|0,1:2|3:0|1:0,0:0:0:0:
487,280,233488,2,0,L|493:351,2,55,4|4|2,0:3|0:3|0:0,0:0:0:0:
398,345,234238,6,0,P|323:315|227:344,1,165,6|4,0:0|0:3,0:0:0:0:
196,362,234988,2,0,L|183:252,1,110,2|8,0:0|0:3,0:0:0:0:
109,171,235738,1,8,0:3:0:0:
180,87,236113,1,4,0:3:0:0:
255,166,236488,6,0,P|314:188|403:130,1,165,4|2,1:2|0:0,0:0:0:0:
431,97,237238,2,0,L|453:212,2,110,2|0|10,1:2|1:2|0:0,0:0:0:0:
345,27,238363,1,4,1:3:0:0:
247,77,238738,6,0,L|76:73,1,165,4|2,1:2|0:0,0:0:0:0:
27,76,239488,2,0,P|12:129|25:181,1,110,2|4,0:0|1:3,0:0:0:0:
120,237,240238,2,0,L|112:307,2,55,2|2|0,0:0|0:0|1:0,0:0:0:0:
209,173,240988,6,0,P|281:137|353:172,1,165,0|4,1:0|0:3,0:0:0:0:
395,208,241738,2,0,L|393:82,2,110,2|2|10,0:0|1:2|1:2,0:0:0:0:
340,303,242863,1,2,1:2:0:0:
233,274,243238,6,0,P|163:316|84:300,1,165,0|4,1:0|0:3,0:0:0:0:
43,263,243988,2,0,L|35:149,1,110,2|2,0:0|0:0,0:0:0:0:
99,63,244738,1,2,0:0:0:0:
178,138,245113,1,0,1:0:0:0:
256,60,245488,6,0,P|329:27|403:56,1,165,4|4,1:2|0:3,0:0:0:0:
438,100,246238,2,0,L|449:209,1,110,2|2,0:0|1:2,0:0:0:0:
379,294,246988,2,0,L|330:320,2,55,0|0|2,0:0|0:0|1:2,0:0:0:0:
301,213,247738,6,0,P|229:179|152:205,1,165,4|4,1:2|1:3,0:0:0:0:
100,223,248488,2,0,L|92:113,1,110,2|2,0:0|1:2,0:0:0:0:
195,74,249238,2,0,L|180:13,2,55,2|2|2,1:2|0:0|1:2,0:0:0:0:
304,60,249988,6,0,P|321:111|308:163,1,110,4|0,1:2|0:0,0:0:0:0:
274,206,250550,2,0,P|258:258|275:309,1,110,4|4,0:3|0:3,0:0:0:0:
325,333,251113,2,0,L|442:323,2,110,0|2|0,1:0|0:0|1:2,0:0:0:0:
213,337,252238,6,0,P|146:293|68:311,2,165,2|8|2,1:2|0:3|1:2,0:0:0:0:
291,260,253738,2,0,L|370:253,2,55,8|8|2,0:3|0:3|0:0,0:0:0:0:
191,210,254488,6,0,P|164:134|192:58,2,165,2|4|0,1:2|0:3|1:0,0:0:0:0:
272,136,255988,1,0,1:0:0:0:
348,215,256363,1,2,1:2:0:0:
267,289,256738,6,0,B|239:322|239:322|118:305,2,165,4|10|10,1:0|0:0|1:2,0:0:0:0:
348,215,258238,2,0,L|426:205,2,55,0|8|2,1:0|0:0|0:0,0:0:0:0:
291,120,258988,5,0,1:2:0:0:
214,198,259363,1,0,0:0:0:0:
123,135,259738,1,2,1:2:0:0:
54,219,260113,2,0,P|39:272|55:329,2,110,2|2|2,1:2|1:2|1:2,0:0:0:0:
123,135,261238,5,2,0:0:0:0:
256,192,261613,12,0,265738,0:0:0:0:
