osu file format v14

[General]
AudioFilename: 01.Asphodelus.mp3
AudioLeadIn: 0
PreviewTime: 74113
Countdown: 0
SampleSet: Soft
StackLeniency: 0.5
Mode: 0
LetterboxInBreaks: 0
WidescreenStoryboard: 1

[Editor]
Bookmarks: 25550,276800,279238
DistanceSpacing: 0.6
BeatDivisor: 4
GridSize: 32
TimelineZoom: 1.8

[Metadata]
Title:Asphodelus
TitleUnicode:Asphodelus -アスフォデルス-
Artist:Ceui
ArtistUnicode:Ceui
Creator:Giralda
Version:Insane
Source:穢翼のユースティア
Tags:august opening visual novel Active Planets aiyoku no eustia raose
BeatmapID:718642
BeatmapSetID:319976

[Difficulty]
HPDrainRate:8
CircleSize:4
OverallDifficulty:8
ApproachRate:9
SliderMultiplier:1.8
SliderTickRate:1

[Events]
//Background and Video events
0,0,"Konachan.com - 103162 aiyoku_no_eustia bekkankou eustia_astraea pink_hair purple_eyes seifuku.jpg",0,0
//Break Periods
2,103938,107638
2,216238,224638
//Storyboard Layer 0 (Background)
//Storyboard Layer 1 (Fail)
//Storyboard Layer 2 (Pass)
//Storyboard Layer 3 (Foreground)
//Storyboard Sound Samples

[TimingPoints]
1363,375,3,2,1,60,1,0
1363,-133.333333333333,3,2,1,60,0,0
1550,-133.333333333333,3,2,3,60,0,0
10363,-133.333333333333,3,2,2,60,0,0
10738,-133.333333333333,3,2,3,60,0,0
12613,-133.333333333333,3,2,2,60,0,0
12800,-133.333333333333,3,2,3,60,0,0
14863,-133.333333333333,3,2,2,60,0,0
15238,-133.333333333333,3,2,3,60,0,0
17113,-133.333333333333,3,2,2,60,0,0
17300,-133.333333333333,3,2,3,60,0,0
19363,-100,3,2,1,60,0,0
19738,-100,3,2,3,60,0,0
19925,-100,3,2,1,60,0,0
20113,-100,3,2,3,60,0,0
20300,-100,3,2,1,60,0,0
20488,-100,3,2,3,60,0,0
20863,-100,3,2,1,60,0,0
21425,-100,3,2,3,60,0,0
21613,-100,3,2,1,60,0,0
22175,-100,3,2,3,60,0,0
22550,-100,3,2,1,60,0,0
22738,-100,3,2,3,60,0,0
23488,-100,3,2,1,60,0,0
23863,-100,3,2,3,60,0,0
24425,-100,3,2,1,60,0,0
24613,-100,3,2,3,60,0,0
26113,-100,3,2,1,60,0,0
26488,-100,3,2,3,60,0,0
27800,-100,3,2,1,60,0,0
29675,-100,3,2,3,60,0,0
31550,-100,3,2,1,60,0,0
31738,-100,3,2,3,60,0,0
32863,-133.333333333333,3,2,3,60,0,0
42800,-133.333333333333,3,2,1,60,0,0
42988,-133.333333333333,3,2,3,60,0,0
43925,-133.333333333333,3,2,1,60,0,0
44113,-133.333333333333,3,2,3,60,0,0
45988,-133.333333333333,3,2,1,60,0,0
46363,-133.333333333333,3,2,3,60,0,0
46738,-133.333333333333,3,2,1,60,0,0
47863,-133.333333333333,3,2,3,60,0,0
48988,-133.333333333333,3,2,1,60,0,0
50863,-133.333333333333,3,2,3,60,0,0
51800,-133.333333333333,3,2,1,60,0,0
52363,-133.333333333333,3,2,3,60,0,0
53675,-133.333333333333,3,2,1,60,0,0
54050,-133.333333333333,3,2,3,60,0,0
54988,-133.333333333333,3,2,1,60,0,0
55363,-133.333333333333,3,2,3,60,0,0
55925,-133.333333333333,3,2,1,60,0,0
56113,-133.333333333333,3,2,3,60,0,0
56300,-133.333333333333,3,2,1,60,0,0
56488,-133.333333333333,3,2,3,60,0,0
57050,-133.333333333333,3,2,1,60,0,0
57425,-133.333333333333,3,2,3,60,0,0
58175,-133.333333333333,3,2,1,60,0,0
58363,-133.333333333333,3,2,3,60,0,0
59488,-133.333333333333,3,2,1,60,0,0
59675,-133.333333333333,3,2,3,60,0,0
59863,-133.333333333333,3,2,1,60,0,0
60238,-133.333333333333,3,2,3,60,0,0
60613,-133.333333333333,3,2,1,60,0,0
61550,-133.333333333333,3,2,3,60,0,0
62113,-133.333333333333,3,2,1,60,0,0
62863,-133.333333333333,3,2,3,60,0,0
63988,-133.333333333333,3,2,1,60,0,0
64363,-133.333333333333,3,2,3,60,0,0
64738,-133.333333333333,3,2,1,60,0,0
64925,-133.333333333333,3,2,3,60,0,0
66425,-133.333333333333,3,2,1,60,0,0
66613,-133.333333333333,3,2,3,60,0,0
66988,-133.333333333333,3,2,1,60,0,0
67363,-133.333333333333,3,2,3,60,0,0
67738,-125,3,2,1,60,0,0
69238,-125,3,2,3,60,0,0
69800,-125,3,2,1,60,0,0
72425,-125,3,2,3,60,0,0
72988,-125,3,2,1,60,0,0
73175,-125,3,2,3,60,0,0
73363,-125,3,2,3,70,0,0
74113,-100,3,2,1,45,0,0
74488,-100,3,2,1,75,0,1
75238,-100,3,2,3,75,0,1
76175,-100,3,2,1,75,0,1
77488,-100,3,2,3,75,0,1
78050,-100,3,2,1,75,0,1
78238,-100,3,2,3,75,0,1
79550,-100,3,2,1,75,0,1
79738,-100,3,2,3,75,0,1
81050,-100,3,2,1,75,0,1
81238,-100,3,2,3,75,0,1
82175,-100,3,2,1,75,0,1
82363,-100,3,2,3,75,0,1
83300,-100,3,2,1,75,0,1
84238,-100,3,2,3,75,0,1
84988,-100,3,2,1,75,0,1
85363,-100,3,2,3,75,0,1
89675,-100,3,2,1,75,0,1
89863,-100,3,2,3,75,0,1
90050,-100,3,2,1,75,0,1
90238,-100,3,2,3,75,0,1
92113,-100,3,2,1,75,0,1
92863,-100,3,2,3,75,0,1
93238,-100,3,2,1,75,0,1
94363,-100,3,2,3,75,0,1
96613,-100,3,2,1,75,0,1
96988,-100,3,2,3,75,0,1
99238,-100,3,2,1,60,0,0
103738,-100,3,2,3,10,0,0
108238,-100,3,2,3,50,0,0
116675,-100,3,2,1,60,0,0
118550,-100,3,2,3,50,0,0
120238,-100,3,2,1,60,0,0
120425,-100,3,2,3,50,0,0
121738,-133.333333333333,3,2,1,60,0,0
122300,-133.333333333333,3,2,3,60,0,0
122675,-133.333333333333,3,2,1,60,0,0
123238,-133.333333333333,3,2,3,60,0,0
123800,-133.333333333333,3,2,1,60,0,0
124550,-133.333333333333,3,2,3,60,0,0
124925,-133.333333333333,3,2,1,60,0,0
125863,-133.333333333333,3,2,3,60,0,0
126050,-133.333333333333,3,2,1,60,0,0
126238,-133.333333333333,3,2,3,60,0,0
126800,-133.333333333333,3,2,1,60,0,0
127738,-133.333333333333,3,2,3,60,0,0
129050,-133.333333333333,3,2,1,60,0,0
131113,-133.333333333333,3,2,3,60,0,0
131863,-133.333333333333,3,2,1,60,0,0
132238,-133.333333333333,3,2,3,60,0,0
133363,-133.333333333333,3,2,1,60,0,0
133550,-133.333333333333,3,2,3,60,0,0
134863,-133.333333333333,3,2,1,60,0,0
136363,-133.333333333333,3,2,3,60,0,0
138050,-133.333333333333,3,2,1,60,0,0
139738,-133.333333333333,3,2,3,60,0,0
141238,-133.333333333333,3,2,1,60,0,0
141613,-133.333333333333,3,2,3,60,0,0
142550,-133.333333333333,3,2,1,60,0,0
143113,-133.333333333333,3,2,3,60,0,0
143488,-133.333333333333,3,2,1,60,0,0
144050,-133.333333333333,3,2,3,60,0,0
144800,-133.333333333333,3,2,1,60,0,0
145550,-133.333333333333,3,2,3,60,0,0
148363,-133.333333333333,3,2,1,60,0,0
149113,-133.333333333333,3,2,3,60,0,0
149300,-133.333333333333,3,2,1,60,0,0
150425,-133.333333333333,3,2,3,60,0,0
151550,-133.333333333333,3,2,1,60,0,0
151738,-133.333333333333,3,2,3,60,0,0
153800,-133.333333333333,3,2,1,60,0,0
153988,-133.333333333333,3,2,3,60,0,0
156050,-133.333333333333,3,2,1,60,0,0
156238,-133.333333333333,3,2,3,60,0,0
156425,-133.333333333333,3,2,1,60,0,0
156613,-125,3,2,3,60,0,0
157363,-125,3,2,1,60,0,0
159238,-125,3,2,3,60,0,0
160363,-125,3,2,1,60,0,0
160550,-125,3,2,3,60,0,0
160925,-125,3,2,1,60,0,0
162238,-100,3,2,1,75,0,1
162988,-100,3,2,3,75,0,1
163925,-100,3,2,1,75,0,1
165238,-100,3,2,3,75,0,1
165800,-100,3,2,1,75,0,1
165988,-100,3,2,3,75,0,1
168800,-100,3,2,1,75,0,1
168988,-100,3,2,3,75,0,1
169925,-100,3,2,1,75,0,1
170113,-100,3,2,3,75,0,1
171050,-100,3,2,1,75,0,1
171988,-100,3,2,3,75,0,1
172363,-100,3,2,1,75,0,1
173113,-100,3,2,3,75,0,1
177425,-100,3,2,1,75,0,1
177613,-100,3,2,3,75,0,1
177800,-100,3,2,1,75,0,1
177988,-100,3,2,3,75,0,1
179863,-100,3,2,1,75,0,1
180613,-100,3,2,3,75,0,1
180988,-100,3,2,1,75,0,1
182113,-100,3,2,3,75,0,1
184363,-100,3,2,1,75,0,1
184738,-100,3,2,3,75,0,1
186988,-100,3,2,1,60,0,0
192238,-100,3,2,3,60,0,0
202175,-100,3,2,1,60,0,0
204988,-133.333333333333,3,2,1,60,0,0
205738,-133.333333333333,3,2,3,60,0,0
210050,-133.333333333333,3,2,1,60,0,0
211738,-133.333333333333,3,2,3,60,0,0
225238,-166.666666666667,3,2,1,45,0,0
226363,-166.666666666667,3,2,3,45,0,0
235363,-142.857142857143,3,2,1,60,0,0
235738,-125,3,2,1,60,0,0
236113,-111.111111111111,3,2,1,60,0,0
236488,-100,3,2,1,80,0,1
237238,-100,3,2,3,80,0,1
238175,-100,3,2,1,80,0,1
239488,-100,3,2,3,80,0,1
240050,-100,3,2,1,80,0,1
240238,-100,3,2,3,80,0,1
244175,-100,3,2,1,80,0,1
244363,-100,3,2,3,80,0,1
245300,-100,3,2,1,80,0,1
246238,-100,3,2,3,80,0,1
246613,-100,3,2,1,80,0,1
247363,-100,3,2,3,80,0,1
251675,-100,3,2,1,80,0,1
251863,-100,3,2,3,80,0,1
252050,-100,3,2,1,80,0,1
252238,-100,3,2,3,80,0,1
254113,-100,3,2,1,80,0,1
254863,-100,3,2,3,80,0,1
258613,-100,3,2,1,80,0,1
258988,-100,3,2,3,80,0,1
261238,-100,3,2,1,60,0,0
266113,-100,3,2,3,60,0,0
266300,-100,3,2,1,60,0,0
266675,-100,3,2,3,60,0,0
267988,-100,3,2,1,60,0,0
268363,-100,3,2,3,60,0,0
270050,-100,3,2,1,60,0,0
272113,-100,3,2,3,60,0,0
272300,-100,3,2,1,60,0,0
274738,-100,3,2,3,45,0,0
279238,-100,3,2,2,60,0,0

[Colours]
Combo1 : 0,255,255
Combo2 : 255,128,192
Combo3 : 255,128,64
Combo4 : 255,255,128
Combo5 : 128,255,128

[HitObjects]
167,39,1363,5,2,0:0:0:0:
137,114,1550,1,2,0:0:0:0:
181,182,1738,2,0,P|183:216|176:255,1,67.5000025749208,0|2,0:0|0:0,0:0:0:0:
137,323,2113,1,2,0:0:0:0:
272,353,2300,6,0,L|251:287,1,67.5000025749208,2|0,0:0|0:0,0:0:0:0:
294,120,2675,1,2,0:0:0:0:
275,199,2863,1,2,0:0:0:0:
345,239,3050,2,0,P|378:233|411:230,2,67.5000025749208,0|2|0,0:0|0:0|0:0,0:0:0:0:
268,210,3613,5,2,0:0:0:0:
199,253,3800,1,2,0:0:0:0:
118,242,3988,2,0,P|107:209|104:176,1,67.5000025749208,0|2,0:0|0:0,0:0:0:0:
129,94,4363,1,2,0:0:0:0:
252,45,4550,6,0,L|240:111,1,67.5000025749208,0|2,0:0|0:0,0:0:0:0:
336,155,4925,1,2,0:0:0:0:
248,203,5113,1,0,0:0:0:0:
384,298,5300,2,0,P|393:265|397:232,2,67.5000025749208,2|0|2,0:0|0:0|0:0,0:0:0:0:
310,335,5863,5,2,0:0:0:0:
239,295,6050,1,2,0:0:0:0:
163,324,6238,2,0,P|130:333|97:336,1,67.5000025749208,0|2,0:0|0:0,0:0:0:0:
18,314,6613,1,2,0:0:0:0:
52,190,6800,6,0,L|117:206,1,67.5000025749208,2|2,0:0|0:0,0:0:0:0:
240,142,7175,1,0,0:0:0:0:
206,229,7363,1,2,0:0:0:0:
326,284,7550,2,0,P|332:250|333:217,2,67.5000025749208,0|2|0,0:0|0:0|0:0,0:0:0:0:
459,346,8113,5,2,0:0:0:0:
426,271,8300,1,2,0:0:0:0:
456,196,8488,2,0,P|466:163|470:130,1,67.5000025749208,2|2,0:0|0:0,0:0:0:0:
449,52,8863,1,2,0:0:0:0:
329,90,9050,6,0,L|261:84,1,67.5000025749208,0|2,0:0|0:0,0:0:0:0:
163,40,9425,1,0,0:0:0:0:
188,117,9613,1,2,0:0:0:0:
115,163,9800,2,0,P|81:156|48:152,2,67.5000025749208,0|2|0,0:0|0:0|0:0,0:0:0:0:
163,337,10363,5,2,0:0:0:0:
132,262,10550,1,0,0:0:0:0:
237,182,10738,2,0,P|242:215|236:248,2,67.5000025749208,2|2|2,0:0|0:0|0:0,0:0:0:0:
188,117,11300,1,0,0:0:0:0:
242,39,11488,6,0,P|275:45|308:49,1,67.5000025749208,2|2,0:0|0:0,0:0:0:0:
456,100,11863,2,0,L|383:108,1,67.5000025749208,2|0,0:0|0:0,0:0:0:0:
275,198,12238,2,0,P|308:194|341:187,1,67.5000025749208,2|2,0:0|0:0,0:0:0:0:
456,100,12613,5,2,0:0:0:0:
496,171,12800,1,2,0:0:0:0:
440,230,12988,2,0,P|440:263|450:295,2,67.5000025749208,0|2|2,0:0|0:0|0:0,0:0:0:0:
496,171,13550,1,0,0:0:0:0:
414,107,13738,6,0,P|381:116|348:119,1,67.5000025749208,2|2,0:0|0:0,0:0:0:0:
213,170,14113,2,0,P|246:173|278:182,1,67.5000025749208,0|2,0:0|0:0,0:0:0:0:
376,286,14488,2,0,P|366:253|363:220,1,67.5000025749208,2|2,0:0|0:0,0:0:0:0:
252,324,14863,5,2,0:0:0:0:
179,288,15050,1,0,0:0:0:0:
120,344,15238,2,0,L|52:353,2,67.5000025749208,0|2|2,0:0|0:0|0:0,0:0:0:0:
179,288,15800,1,2,0:0:0:0:
83,239,15988,6,0,P|51:227|18:222,1,67.5000025749208,0|2,0:0|0:0,0:0:0:0:
97,132,16363,2,0,P|104:99|108:65,1,67.5000025749208,0|2,0:0|0:0,0:0:0:0:
197,144,16738,2,0,P|204:176|208:210,1,67.5000025749208,2|2,0:0|0:0,0:0:0:0:
290,138,17113,6,0,P|297:105|301:71,1,67.5000025749208,2|0,0:0|0:0,0:0:0:0:
468,153,17488,1,2,0:0:0:0:
369,162,17676,1,0,1:0:0:0:
378,261,17863,1,0,1:0:0:0:
477,251,18051,5,0,3:0:0:0:
477,251,18144,1,0,3:0:0:0:
477,251,18238,1,8,1:3:0:0:
287,227,18425,1,2,0:0:0:0:
423,206,18613,1,0,1:0:0:0:
325,304,18801,1,8,3:0:0:0:
347,167,18988,1,4,0:3:0:0:
410,290,19176,1,4,0:3:0:0:
272,122,19363,6,0,P|346:79|422:121,1,180,4|10,0:2|0:0,0:0:0:0:
479,324,19925,1,2,0:0:0:0:
334,221,20113,2,0,P|291:212|245:213,1,90,2|2,0:0|0:0,0:0:0:0:
43,248,20488,6,0,P|8:167|43:86,1,180,2|8,1:2|1:2,0:0:0:0:
145,282,21050,2,0,L|134:373,1,90,0|2,1:0|0:0,0:0:0:0:
110,190,21425,1,2,0:0:0:0:
188,133,21613,6,0,P|277:128|367:126,1,180,4|2,1:2|0:0,0:0:0:0:
447,81,22175,2,0,P|459:124|465:168,1,90,2|0,0:0|0:0,0:0:0:0:
351,297,22550,1,2,0:0:0:0:
280,239,22738,6,0,P|359:206|430:256,1,180,2|10,1:2|1:2,0:0:0:0:
476,177,23300,1,2,0:0:0:0:
351,297,23488,1,8,0:2:0:0:
491,344,23675,1,2,1:2:0:0:
430,256,23863,6,0,P|359:206|280:239,1,180,2|10,0:2|0:0,0:0:0:0:
131,311,24425,2,0,L|125:218,1,90,2|0,0:0|1:0,0:0:0:0:
49,335,24800,1,2,0:0:0:0:
211,276,24988,6,0,L|205:183,1,90,2|0,1:2|0:0,0:0:0:0:
195,62,25363,1,10,1:2:0:0:
125,111,25550,2,0,P|202:148|273:101,1,180,2|2,0:0|0:0,0:0:0:0:
479,204,26113,6,0,P|407:156|330:194,1,180,2|10,1:2|0:0,0:0:0:0:
290,316,26675,2,0,P|218:364|141:326,1,180,0|2,1:0|0:0,0:0:0:0:
106,198,27238,6,0,L|95:108,1,90,2|0,1:2|0:0,0:0:0:0:
10,164,27613,2,0,P|6:208|0:253,1,90,2|0,1:2|1:0,0:0:0:0:
208,222,27988,2,0,P|202:177|195:129,1,90,0|2,0:0|0:0,0:0:0:0:
195,132,28363,6,0,B|274:120|282:184|364:177,1,180,0|10,1:0|0:0,0:0:0:0:
424,97,28925,2,0,P|462:176|428:256,1,180,2|0,0:0|1:0,0:0:0:0:
301,351,29488,6,0,L|293:261,1,90,0|2,1:0|0:0,0:0:0:0:
237,63,29863,1,2,1:2:0:0:
209,229,30050,1,2,1:2:0:0:
327,154,30238,1,2,1:2:0:0:
327,154,30331,1,2,0:0:0:0:
327,154,30425,1,2,0:0:0:0:
327,154,30519,1,0,0:0:0:0:
327,154,30613,6,0,P|237:146|147:143,1,180,2|0,1:2|1:0,0:0:0:0:
30,89,31175,2,0,P|23:135|20:182,1,90,2|2,0:0|0:0,0:0:0:0:
169,274,31550,1,2,0:0:0:0:
95,141,31738,5,2,0:0:0:0:
94,287,31925,1,0,0:0:0:0:
164,192,32113,1,2,1:2:0:0:
30,89,32300,1,2,0:0:0:0:
94,287,32488,1,2,0:0:0:0:
97,303,32675,1,0,0:0:0:0:
100,318,32863,6,0,P|167:310|234:307,1,135.000005149842,4|0,0:0|0:0,0:0:0:0:
299,242,33425,2,0,P|366:249|433:252,1,135.000005149842,2|0,0:0|0:0,0:0:0:0:
486,184,33988,1,2,0:0:0:0:
426,42,34363,5,2,0:0:0:0:
426,42,34550,1,2,0:0:0:0:
426,42,34738,2,0,P|388:45|355:50,1,67.5000025749208,2|2,0:0|0:0,0:0:0:0:
349,134,35113,6,0,P|282:125|214:120,1,135.000005149842,2|2,0:0|0:0,0:0:0:0:
180,44,35675,2,0,P|113:52|45:57,1,135.000005149842,2|0,0:0|0:0,0:0:0:0:
105,149,36238,5,2,0:0:0:0:
44,222,36425,1,10,0:0:0:0:
131,256,36613,2,0,P|163:249|197:244,1,67.5000025749208,2|2,0:0|0:0,0:0:0:0:
326,275,36988,1,2,0:0:0:0:
285,174,37175,1,2,0:0:0:0:
396,84,37363,6,0,P|414:148|393:211,1,135.000005149842,2|2,0:0|0:0,0:0:0:0:
326,275,37925,2,0,P|264:249|198:257,1,135.000005149842,2|0,0:0|0:0,0:0:0:0:
28,186,38488,6,0,P|35:153|39:119,1,67.5000025749208,2|0,0:0|0:0,0:0:0:0:
114,186,38863,2,0,P|118:219|125:252,1,67.5000025749208,2|0,0:0|0:0,0:0:0:0:
203,181,39238,2,0,P|210:148|214:114,1,67.5000025749208,2|0,0:0|0:0,0:0:0:0:
234,28,39613,6,0,B|282:25|302:62|361:67,1,135.000005149842,2|2,0:0|0:0,0:0:0:0:
449,78,40175,2,0,P|470:141|451:205,1,135.000005149842,2|0,0:0|0:0,0:0:0:0:
257,197,40738,5,8,3:0:0:0:
358,147,40925,1,8,3:0:0:0:
274,103,41113,1,0,1:0:0:0:
339,244,41300,1,0,1:0:0:0:
171,238,41488,1,0,3:0:0:0:
144,235,41581,1,0,3:0:0:0:
116,233,41675,1,0,3:0:0:0:
88,231,41769,1,0,3:0:0:0:
60,230,41863,6,0,P|40:166|56:101,1,135.000005149842,6|2,1:2|0:0,0:0:0:0:
182,33,42425,2,0,P|191:65|194:98,1,67.5000025749208,2|0,0:0|0:0,0:0:0:0:
143,235,42800,1,2,0:0:0:0:
113,136,42988,6,0,P|180:139|229:184,1,135.000005149842,2|2,1:2|0:0,0:0:0:0:
47,312,43550,1,2,0:0:0:0:
143,235,43738,1,2,0:0:0:0:
239,313,43925,1,2,0:0:0:0:
47,312,44113,6,0,P|24:249|43:185,1,135.000005149842,10|8,0:0|0:0,0:0:0:0:
113,136,44675,2,0,P|179:147|246:154,1,135.000005149842,10|8,0:0|0:0,0:0:0:0:
338,104,45238,5,2,0:0:0:0:
372,220,45425,1,0,0:0:0:0:
253,190,45613,1,10,1:2:0:0:
292,25,45800,5,2,0:0:0:0:
326,141,45988,1,2,0:0:0:0:
207,111,46175,1,0,0:0:0:0:
437,25,46363,6,0,P|447:91|435:157,1,135.000005149842,2|2,1:2|0:0,0:0:0:0:
372,220,46925,2,0,P|361:286|373:352,1,135.000005149842,2|2,0:0|0:0,0:0:0:0:
262,301,47488,6,0,L|190:294,1,67.5000025749208,0|0,1:0|0:0,0:0:0:0:
40,199,47863,1,2,0:0:0:0:
80,348,48050,1,0,1:0:0:0:
162,263,48238,1,2,0:0:0:0:
40,199,48425,1,0,0:0:0:0:
29,283,48613,6,0,P|95:270|162:263,1,135.000005149842,0|2,1:0|0:0,0:0:0:0:
195,188,49175,2,0,P|261:200|328:207,1,135.000005149842,2|2,0:0|0:0,0:0:0:0:
463,196,49738,5,0,1:0:0:0:
361,285,49925,1,0,3:0:0:0:
392,152,50113,1,2,0:0:0:0:
446,278,50300,1,8,0:3:0:0:
328,207,50488,1,4,3:0:0:0:
328,207,50863,5,4,0:0:0:0:
446,278,51050,1,0,0:0:0:0:
392,152,51238,1,2,0:0:0:0:
361,285,51425,1,2,0:0:0:0:
463,195,51613,2,0,P|469:162|472:129,1,67.5000025749208,2|2,0:0|0:0,0:0:0:0:
418,40,51988,5,0,1:0:0:0:
255,180,52175,1,0,0:0:0:0:
392,152,52363,1,2,0:0:0:0:
303,72,52550,5,0,0:0:0:0:
336,221,52738,1,2,0:0:0:0:
201,178,52925,1,0,0:0:0:0:
392,152,53113,6,0,P|421:211|405:275,1,135.000005149842,2|2,1:2|0:0,0:0:0:0:
340,327,53675,2,0,B|294:312|261:364|210:349,1,135.000005149842,2|2,0:0|0:0,0:0:0:0:
81,200,54238,5,2,0:0:0:0:
107,341,54425,1,0,0:0:0:0:
20,288,54613,1,2,1:2:0:0:
171,257,54800,1,0,1:0:0:0:
108,102,54988,5,2,0:0:0:0:
75,229,55175,1,0,0:0:0:0:
200,193,55363,1,2,1:2:0:0:
9,45,55550,5,2,0:0:0:0:
115,64,55738,1,2,0:0:0:0:
49,151,55925,1,2,0:0:0:0:
9,45,56113,2,0,L|76:38,1,67.5000025749208,2|0,0:0|0:0,0:0:0:0:
200,193,56488,6,0,P|256:226|321:213,1,135.000005149842,2|2,1:2|0:0,0:0:0:0:
480,302,57050,2,0,P|415:288|358:322,1,135.000005149842,2|2,0:0|0:0,0:0:0:0:
149,121,57613,6,0,P|214:107|271:141,1,135.000005149842,4|2,1:2|0:0,0:0:0:0:
332,78,58175,1,2,0:0:0:0:
200,193,58363,1,2,0:0:0:0:
160,32,58550,1,0,3:0:0:0:
160,32,58644,1,0,3:0:0:0:
160,32,58738,1,0,1:0:0:0:
310,234,58925,5,0,0:0:0:0:
200,193,59113,1,2,1:2:0:0:
281,120,59300,1,2,0:0:0:0:
224,304,59488,5,2,0:0:0:0:
200,193,59675,1,2,0:0:0:0:
379,173,59863,6,0,P|403:234|379:296,1,135.000005149842,4|2,1:2|0:0,0:0:0:0:
224,304,60425,1,0,0:0:0:0:
310,234,60613,1,2,0:0:0:0:
200,193,60800,1,0,0:0:0:0:
379,295,60988,6,0,P|403:234|379:173,1,135.000005149842,0|0,1:0|0:0,0:0:0:0:
242,59,61550,1,2,0:0:0:0:
163,157,61738,1,0,0:0:0:0:
282,183,61925,1,2,0:0:0:0:
101,93,62113,6,0,P|76:155|99:216,1,135.000005149842,2|0,0:0|0:0,0:0:0:0:
177,254,62675,1,2,0:0:0:0:
264,257,62863,2,0,L|342:251,1,67.5000025749208,2|0,0:0|0:0,0:0:0:0:
408,306,63238,6,0,P|380:245|400:182,1,135.000005149842,2|0,1:2|1:0,0:0:0:0:
464,125,63800,1,0,1:0:0:0:
399,184,63988,1,2,0:0:0:0:
326,135,64175,1,2,0:0:0:0:
262,194,64363,6,0,P|206:230|142:215,1,135.000005149842,2|2,0:0|0:0,0:0:0:0:
62,260,64925,2,0,L|55:192,1,67.5000025749208,2|2,0:0|0:0,0:0:0:0:
4,97,65300,1,2,0:0:0:0:
173,35,65488,6,0,P|161:101|159:168,1,135.000005149842,0|0,1:0|1:0,0:0:0:0:
182,253,66050,1,0,1:0:0:0:
287,199,66238,2,0,L|257:133,1,67.5000025749208,2|2,0:0|0:0,0:0:0:0:
466,241,66613,6,0,P|414:280|350:266,1,135.000005149842,0|2,1:0|0:0,0:0:0:0:
182,253,67175,1,2,0:0:0:0:
287,199,67363,1,2,0:0:0:0:
188,137,67550,1,0,0:0:0:0:
255,291,67738,6,0,P|186:278|128:318,1,144,2|0,1:2|1:0,0:0:0:0:
111,208,68300,1,0,1:0:0:0:
204,361,68488,1,2,0:0:0:0:
287,199,68675,1,2,0:0:0:0:
193,76,68863,6,0,L|39:86,1,144,4|0,1:2|0:0,0:0:0:0:
49,85,69425,1,2,0:0:0:0:
254,134,69613,2,0,L|294:212,1,72,2|2,0:0|0:0,0:0:0:0:
123,278,69988,6,0,P|100:212|126:146,2,144,0|0|2,1:0|0:0|0:0,0:0:0:0:
268,212,70925,1,2,0:0:0:0:
268,212,71113,6,0,L|182:216,1,72,0|0,1:0|1:0,0:0:0:0:
395,251,71488,1,2,0:0:0:0:
288,130,71675,1,0,1:0:0:0:
248,295,71863,1,2,0:0:0:0:
448,148,72050,5,2,0:0:0:0:
322,152,72238,1,2,0:0:0:0:
462,60,72425,5,2,0:0:0:0:
501,238,72613,1,4,3:0:0:0:
344,189,72800,1,2,0:0:0:0:
483,149,72988,5,2,0:0:0:0:
248,128,73175,1,2,0:0:0:0:
358,70,73363,2,0,B|353:112|384:146|384:146|375:173|343:189,1,144,4|4,0:3|0:3,0:0:0:0:
65,347,74113,5,0,0:0:0:0:
90,321,74206,1,0,0:0:0:0:
90,284,74300,1,0,0:0:0:0:
75,251,74394,1,0,0:0:0:0:
54,221,74488,6,0,P|47:131|44:41,1,180,4|8,1:2|0:0,0:0:0:0:
248,128,75050,1,2,0:0:0:0:
128,149,75238,2,0,L|123:59,1,90,2|0,1:2|0:0,0:0:0:0:
337,188,75613,6,0,P|273:246|189:223,1,180,0|10,1:0|0:0,0:0:0:0:
128,149,76175,1,2,0:0:0:0:
362,207,76363,2,0,L|367:297,1,90,4|0,1:3|0:0,0:0:0:0:
99,241,76738,6,0,P|50:169|89:93,1,180,4|10,1:2|0:0,0:0:0:0:
356,64,77300,2,0,L|266:71,1,90,2|2,0:0|0:0,0:0:0:0:
441,147,77675,1,0,0:0:0:0:
333,306,77863,5,4,1:3:0:0:
248,184,78050,1,2,0:0:0:0:
427,231,78238,1,10,0:0:0:0:
424,266,78331,1,2,0:0:0:0:
404,296,78425,1,2,0:0:0:0:
371,310,78519,1,0,0:0:0:0:
333,306,78613,2,0,P|289:300|244:298,1,90,0|0,1:0|0:0,0:0:0:0:
39,310,78988,6,0,P|125:299|156:219,1,180,2|8,1:2|0:0,0:0:0:0:
248,184,79550,1,4,1:3:0:0:
70,234,79738,2,0,L|66:144,1,90,2|0,0:0|0:0,0:0:0:0:
181,23,80113,5,2,1:2:0:0:
248,184,80300,1,0,0:0:0:0:
168,126,80488,1,10,1:2:0:0:
318,75,80675,1,2,0:0:0:0:
283,228,80863,1,2,1:2:0:0:
254,139,81050,1,2,0:0:0:0:
372,249,81238,6,0,P|311:310|225:298,1,180,2|10,1:2|0:0,0:0:0:0:
447,184,81800,2,0,L|461:275,1,90,4|2,0:3|0:0,0:0:0:0:
283,228,82175,1,2,0:0:0:0:
419,83,82363,5,2,0:0:0:0:
431,78,82456,1,0,0:0:0:0:
443,73,82550,1,2,0:0:0:0:
325,130,82738,1,2,0:0:0:0:
291,142,82831,1,2,0:0:0:0:
254,139,82925,1,2,1:2:0:0:
219,129,83019,1,0,0:0:0:0:
187,111,83113,2,0,P|142:103|98:106,1,90,0|2,1:0|0:0,0:0:0:0:
353,34,83488,6,0,P|336:122|335:211,1,180,4|0,1:2|0:0,0:0:0:0:
374,307,84050,1,4,0:3:0:0:
196,272,84238,2,0,P|208:229|216:185,1,90,2|4,0:0|0:3,0:0:0:0:
75,34,84613,6,0,P|47:118|67:205,1,180,2|2,1:2|0:0,0:0:0:0:
266,77,85175,1,4,0:3:0:0:
173,198,85363,1,2,1:2:0:0:
169,171,85456,1,0,0:0:0:0:
165,144,85550,1,2,0:0:0:0:
366,90,85738,6,0,L|395:267,1,180,4|0,1:2|1:0,0:0:0:0:
173,198,86300,1,4,1:3:0:0:
465,154,86488,2,0,L|483:259,1,90,2|4,0:0|0:3,0:0:0:0:
299,344,86863,6,0,L|314:255,1,90,2|0,1:2|0:0,0:0:0:0:
183,63,87238,1,2,1:2:0:0:
198,95,87331,1,0,0:0:0:0:
198,131,87425,1,2,0:2:0:0:
188,165,87519,1,0,0:0:0:0:
173,198,87613,2,0,L|157:288,1,90,2|2,1:2|0:0,0:0:0:0:
73,330,87988,6,0,P|155:302|222:357,1,180,4|2,1:2|0:0,0:0:0:0:
45,244,88550,2,0,L|38:154,1,90,4|0,0:3|0:0,0:0:0:0:
5,68,88925,1,4,0:3:0:0:
211,32,89113,6,0,L|204:122,1,90,0|0,1:0|0:0,0:0:0:0:
351,222,89488,2,0,L|344:132,1,90,2|2,0:0|0:0,0:0:0:0:
247,200,89863,1,2,1:2:0:0:
451,175,90050,1,2,0:0:0:0:
286,91,90238,5,2,1:2:0:0:
268,89,90331,1,0,0:0:0:0:
250,86,90425,1,2,0:0:0:0:
350,171,90613,1,2,0:0:0:0:
306,12,90800,1,8,0:3:0:0:
198,142,90988,1,2,0:0:0:0:
372,199,91175,5,0,0:0:0:0:
297,94,91363,1,2,1:2:0:0:
265,265,91550,1,0,0:0:0:0:
448,206,91738,5,8,0:3:0:0:
279,175,91925,1,8,0:3:0:0:
402,50,92113,2,0,P|414:92|417:137,1,90,2|2,0:0|0:0,0:0:0:0:
155,215,92488,6,0,P|118:136|161:62,1,180,2|2,1:2|0:0,0:0:0:0:
333,107,93050,1,4,0:3:0:0:
198,142,93238,1,2,0:0:0:0:
285,27,93425,1,4,0:3:0:0:
279,175,93613,6,0,L|294:278,1,90,0|2,1:0|0:0,0:0:0:0:
199,56,93988,1,0,1:0:0:0:
390,213,94175,1,2,1:2:0:0:
255,248,94363,1,2,1:2:0:0:
261,100,94550,1,0,0:0:0:0:
446,136,94738,6,0,P|479:216|441:295,1,180,4|10,1:2|0:0,0:0:0:0:
346,335,95300,1,10,0:0:0:0:
346,335,95488,2,0,L|245:328,1,90,8|0,0:0|0:0,0:0:0:0:
16,285,95863,6,0,B|95:271|101:342|181:348,1,180,10|0,1:2|1:0,0:0:0:0:
179,348,96425,1,8,0:0:0:0:
183,162,96613,2,0,L|173:251,1,90,2|0,0:0|0:0,0:0:0:0:
258,119,96988,6,0,P|183:76|109:121,1,180,2|0,1:2|1:0,0:0:0:0:
82,209,97550,1,4,1:3:0:0:
314,175,97738,1,2,1:2:0:0:
331,171,97831,1,0,0:0:0:0:
348,167,97925,1,2,0:0:0:0:
237,219,98113,5,2,1:2:0:0:
324,86,98300,1,0,0:0:0:0:
387,241,98488,1,2,1:2:0:0:
151,96,98675,5,0,0:0:0:0:
284,128,98863,1,2,1:2:0:0:
201,189,99050,1,0,1:0:0:0:
240,39,99238,5,6,0:0:0:0:
256,192,99331,8,0,103738,0:0:0:0:
56,152,108238,6,0,P|145:147|235:144,1,180,4|0,0:0|1:0,0:0:0:0:
359,153,108800,1,0,0:0:0:0:
218,241,108988,1,2,1:2:0:0:
196,62,109175,1,0,0:0:0:0:
417,76,109363,6,0,P|450:156|410:234,1,180,2|0,1:2|1:0,0:0:0:0:
307,246,109925,2,0,L|217:240,1,90,0|0,0:0|1:0,0:0:0:0:
359,153,110300,1,2,0:0:0:0:
196,62,110488,5,2,1:2:0:0:
178,61,110581,1,0,0:0:0:0:
159,60,110675,1,2,0:0:0:0:
348,45,110863,1,2,1:2:0:0:
189,149,111050,2,0,P|144:152|102:136,1,90,0|0,0:0|1:0,0:0:0:0:
3,63,111425,1,0,0:0:0:0:
43,256,111613,6,0,L|132:242,1,90,2|0,1:2|0:0,0:0:0:0:
346,282,111988,1,2,1:2:0:0:
219,233,112175,1,0,0:0:0:0:
350,198,112363,1,2,1:2:0:0:
263,303,112550,1,0,0:0:0:0:
273,167,112738,6,0,L|277:77,1,90,2|2,1:2|0:0,0:0:0:0:
356,18,113113,1,2,1:2:0:0:
196,55,113300,1,0,0:0:0:0:
363,37,113488,2,0,L|463:33,1,90,2|0,1:2|0:0,0:0:0:0:
179,71,113863,6,0,L|79:67,1,90,2|0,1:2|0:0,0:0:0:0:
1,34,114238,1,2,1:2:0:0:
90,241,114425,1,0,0:0:0:0:
125,128,114613,1,0,1:0:0:0:
6,163,114800,1,2,0:0:0:0:
169,206,114988,6,0,P|212:131|171:55,1,180,2|2,1:2|1:2,0:0:0:0:
300,139,115550,2,0,B|380:182|386:108|473:144,1,180,2|2,0:0|0:0,0:0:0:0:
326,237,116113,2,0,P|314:280|306:324,1,90,2|0,1:2|0:0,0:0:0:0:
214,365,116488,2,0,P|206:320|194:277,1,90,2|2,1:2|0:0,0:0:0:0:
103,213,116863,2,0,P|91:256|83:300,1,90,2|0,1:2|0:0,0:0:0:0:
184,177,117238,6,0,P|115:124|34:155,1,180,0|10,1:0|0:0,0:0:0:0:
214,73,117800,2,0,L|401:66,1,180,2|0,0:0|1:0,0:0:0:0:
266,319,118363,2,0,L|253:224,1,90,0|0,1:0|0:0,0:0:0:0:
319,48,118738,1,2,1:2:0:0:
390,229,118925,1,2,1:2:0:0:
452,129,119113,1,2,1:2:0:0:
452,129,119207,1,2,0:0:0:0:
452,129,119301,1,2,0:0:0:0:
452,129,119394,1,0,0:0:0:0:
452,129,119488,6,0,P|362:137|272:141,1,180,4|0,1:2|1:0,0:0:0:0:
80,282,120050,2,0,P|71:237|70:192,1,90,2|2,0:0|0:0,0:0:0:0:
360,152,120425,1,2,0:0:0:0:
221,282,120613,5,2,1:2:0:0:
206,176,120800,1,2,0:0:0:0:
380,205,120988,1,2,1:2:0:0:
389,88,121175,1,2,0:0:0:0:
207,156,121363,1,2,0:0:0:0:
188,158,121550,1,0,0:0:0:0:
169,160,121738,6,0,P|139:99|134:32,1,135.000005149842,4|0,1:2|0:0,0:0:0:0:
40,77,122300,2,0,P|35:110|27:143,1,67.5000025749208,2|0,0:0|0:0,0:0:0:0:
99,212,122675,1,2,0:0:0:0:
169,160,122863,6,0,P|235:151|303:145,2,135.000005149842,0|2|2,1:0|0:0|0:0,0:0:0:0:
99,212,123800,1,2,0:0:0:0:
99,211,123988,6,0,P|72:271|94:333,1,135.000005149842,2|2,0:0|0:0,0:0:0:0:
180,317,124550,2,0,B|246:293|245:340|311:312,1,135.000005149842,2|2,0:0|0:0,0:0:0:0:
394,194,125113,5,0,1:0:0:0:
434,347,125300,1,0,0:0:0:0:
338,294,125488,1,0,1:0:0:0:
483,254,125675,1,2,0:0:0:0:
372,100,125863,1,2,1:2:0:0:
300,208,126050,1,2,0:0:0:0:
482,254,126238,6,0,P|505:191|484:129,1,135.000005149842,2|0,1:2|0:0,0:0:0:0:
372,99,126800,2,0,P|305:109|237:114,1,135.000005149842,2|0,0:0|0:0,0:0:0:0:
155,81,127363,6,0,P|143:49|138:16,1,67.5000025749208,0|0,1:0|0:0,0:0:0:0:
34,98,127738,2,0,P|28:131|17:162,1,67.5000025749208,2|0,0:0|1:0,0:0:0:0:
127,241,128113,2,0,P|121:207|110:176,1,67.5000025749208,2|0,0:0|0:0,0:0:0:0:
70,299,128488,6,0,P|129:325|187:295,1,135.000005149842,0|8,1:0|0:0,0:0:0:0:
279,349,129050,2,0,L|345:360,1,67.5000025749208,2|0,0:0|0:0,0:0:0:0:
460,329,129425,1,0,0:0:0:0:
391,127,129613,5,8,0:3:0:0:
337,275,129800,1,8,0:3:0:0:
430,222,129988,1,0,1:0:0:0:
299,181,130175,1,0,1:0:0:0:
379,24,130363,1,0,3:0:0:0:
382,50,130456,1,0,3:0:0:0:
386,76,130550,1,0,3:0:0:0:
388,102,130644,1,0,3:0:0:0:
391,127,130738,6,0,P|333:158|270:139,1,135.000005149842,6|2,1:2|0:0,0:0:0:0:
222,229,131300,2,0,P|163:197|100:217,1,135.000005149842,2|2,0:0|0:0,0:0:0:0:
81,122,131863,6,0,L|8:109,1,67.5000025749208,2|0,1:2|0:0,0:0:0:0:
157,282,132238,2,0,P|164:314|168:348,1,67.5000025749208,2|8,0:0|0:0,0:0:0:0:
367,286,132613,2,0,P|370:252|378:219,1,67.5000025749208,10|8,0:0|0:0,0:0:0:0:
449,162,132988,6,0,P|385:181|327:149,1,135.000005149842,0|2,1:0|0:0,0:0:0:0:
267,212,133550,2,0,P|208:181|145:200,1,135.000005149842,2|2,0:0|0:0,0:0:0:0:
102,123,134113,5,2,0:0:0:0:
200,260,134300,1,2,0:0:0:0:
45,277,134488,1,0,1:0:0:0:
114,79,134675,5,0,1:0:0:0:
157,230,134863,1,2,0:0:0:0:
59,174,135050,1,2,0:0:0:0:
181,16,135238,6,0,P|207:76|182:137,1,135.000005149842,0|2,1:0|0:0,0:0:0:0:
250,191,135800,2,0,P|223:251|249:312,1,135.000005149842,2|2,0:0|0:0,0:0:0:0:
377,247,136363,6,0,L|309:252,1,67.5000025749208,2|0,1:2|0:0,0:0:0:0:
422,136,136738,2,0,L|489:130,1,67.5000025749208,2|0,0:0|1:0,0:0:0:0:
352,43,137113,2,0,L|284:48,1,67.5000025749208,2|0,0:0|0:0,0:0:0:0:
149,62,137488,6,0,P|122:123|149:183,1,135.000005149842,0|0,1:0|0:0,0:0:0:0:
221,229,138050,2,0,B|284:206|285:253|352:229,1,135.000005149842,2|2,0:0|0:0,0:0:0:0:
425,114,138613,5,0,1:0:0:0:
434,249,138800,1,0,3:0:0:0:
347,144,138988,1,2,0:0:0:0:
480,176,139175,1,8,0:3:0:0:
352,228,139363,1,4,3:0:0:0:
352,228,139738,5,4,0:0:0:0:
480,176,139925,1,0,0:0:0:0:
347,144,140113,1,2,0:0:0:0:
434,249,140300,1,2,0:0:0:0:
425,113,140488,2,0,P|420:80|413:47,1,67.5000025749208,2|2,0:0|0:0,0:0:0:0:
228,137,140863,6,0,P|287:168|347:143,1,135.000005149842,2|2,1:2|0:0,0:0:0:0:
290,88,141425,1,2,0:0:0:0:
233,235,141613,1,2,0:0:0:0:
137,109,141800,1,2,0:0:0:0:
130,97,141894,1,0,0:0:0:0:
123,85,141988,6,0,P|112:152|103:220,1,135.000005149842,2|0,1:2|1:0,0:0:0:0:
243,353,142550,2,0,P|235:320|223:288,1,67.5000025749208,2|0,0:0|0:0,0:0:0:0:
398,187,142925,1,2,0:0:0:0:
419,327,143113,5,2,0:0:0:0:
339,270,143300,1,0,1:0:0:0:
482,248,143488,1,2,0:0:0:0:
363,94,143675,5,2,0:0:0:0:
376,210,143863,1,2,0:0:0:0:
263,166,144050,1,2,0:0:0:0:
249,164,144144,1,0,0:0:0:0:
235,162,144238,6,0,P|224:130|220:96,1,67.5000025749208,2|0,1:2|0:0,0:0:0:0:
409,21,144613,1,2,1:2:0:0:
419,155,144800,1,2,0:0:0:0:
298,101,144988,1,2,0:0:0:0:
456,130,145175,1,0,0:0:0:0:
379,292,145363,5,2,1:2:0:0:
328,199,145550,1,2,0:0:0:0:
490,236,145738,1,2,0:0:0:0:
379,292,145925,2,0,P|314:307|257:275,1,135.000005149842,0|10,1:0|0:0,0:0:0:0:
248,250,146394,1,0,0:0:0:0:
248,250,146488,6,0,L|237:173,1,67.5000025749208,4|2,1:2|0:0,0:0:0:0:
203,23,146863,1,2,0:0:0:0:
237,150,147050,1,0,1:0:0:0:
332,61,147238,1,0,0:0:0:0:
99,78,147425,5,0,1:0:0:0:
88,76,147519,1,0,1:0:0:0:
77,74,147613,1,0,1:0:0:0:
149,257,147800,1,0,0:0:0:0:
246,132,147988,1,0,1:0:0:0:
58,175,148175,5,2,1:2:0:0:
135,299,148363,1,2,0:0:0:0:
169,183,148550,1,2,0:0:0:0:
60,329,148738,6,0,P|107:376|172:373,1,135.000005149842,4|2,1:2|0:0,0:0:0:0:
246,312,149300,2,0,B|311:285|311:325|378:304,1,135.000005149842,2|2,0:0|0:0,0:0:0:0:
448,241,149863,6,0,P|456:209|462:176,1,67.5000025749208,0|0,1:0|0:0,0:0:0:0:
272,56,150238,1,0,0:0:0:0:
374,78,150425,1,2,1:2:0:0:
350,180,150613,1,2,0:0:0:0:
250,158,150800,1,2,0:0:0:0:
407,6,150988,6,0,P|449:57|438:122,1,135.000005149842,0|0,1:0|0:0,0:0:0:0:
350,180,151550,1,2,0:0:0:0:
350,180,151738,2,0,L|283:171,1,67.5000025749208,2|0,0:0|0:0,0:0:0:0:
402,270,152113,6,0,L|468:261,1,67.5000025749208,2|0,0:0|0:0,0:0:0:0:
177,282,152488,1,0,1:0:0:0:
309,352,152675,1,0,1:0:0:0:
218,364,152863,1,2,0:0:0:0:
324,261,153050,1,2,0:0:0:0:
242,217,153238,6,0,P|226:152|225:85,1,135.000005149842,0|0,1:0|1:0,0:0:0:0:
251,6,153800,1,2,0:0:0:0:
110,83,153988,2,0,P|105:116|97:149,1,67.5000025749208,2|2,0:0|0:0,0:0:0:0:
21,205,154363,6,0,P|85:193|138:232,1,135.000005149842,2|2,1:2|0:0,0:0:0:0:
83,338,154925,1,2,0:0:0:0:
83,338,155113,2,0,P|70:306|67:273,1,67.5000025749208,0|0,0:0|0:0,0:0:0:0:
209,108,155488,6,0,P|228:172|230:239,1,135.000005149842,0|0,1:0|1:0,0:0:0:0:
203,323,156050,1,2,0:0:0:0:
373,282,156238,2,0,L|351:213,1,67.5000025749208,2|2,0:0|0:0,0:0:0:0:
370,24,156613,5,0,1:0:0:0:
332,137,156800,1,0,0:0:0:0:
450,111,156988,1,0,1:0:0:0:
263,66,157175,5,0,1:0:0:0:
232,222,157363,1,2,0:0:0:0:
345,160,157550,1,2,0:0:0:0:
165,160,157738,6,0,P|141:227|173:289,1,144,4|0,1:2|1:0,0:0:0:0:
274,317,158300,1,2,0:0:0:0:
274,316,158488,2,0,P|308:307|344:304,1,72,0|0,1:0|0:0,0:0:0:0:
487,310,158863,6,0,P|467:280|451:247,1,72,0|0,1:0|0:0,0:0:0:0:
356,89,159238,2,0,P|352:124|344:159,1,72,2|0,0:0|0:0,0:0:0:0:
168,200,159613,2,0,L|96:191,1,72,0|0,1:0|0:0,0:0:0:0:
309,268,159988,5,0,1:0:0:0:
157,301,160175,1,0,1:0:0:0:
342,353,160363,1,2,0:0:0:0:
277,141,160550,5,2,0:0:0:0:
246,327,160738,1,0,0:0:0:0:
408,249,160925,1,2,0:0:0:0:
286,55,161113,5,4,0:3:0:0:
240,240,161300,1,2,0:0:0:0:
421,183,161488,1,8,0:3:0:0:
278,35,161675,1,8,0:3:0:0:
203,246,161863,1,0,0:0:0:0:
200,217,161956,1,0,0:0:0:0:
196,188,162050,1,0,0:0:0:0:
191,159,162144,1,0,0:0:0:0:
186,130,162238,6,0,P|111:87|37:132,1,180,4|8,1:2|0:0,0:0:0:0:
37,130,162800,1,2,0:0:0:0:
281,166,162988,2,0,L|268:74,1,90,2|0,1:2|0:0,0:0:0:0:
128,291,163363,6,0,P|204:333|279:289,1,180,0|0,1:2|0:0,0:0:0:0:
278,290,163925,1,2,0:0:0:0:
191,159,164113,2,0,L|204:247,1,90,4|0,1:3|0:0,0:0:0:0:
276,43,164488,6,0,B|185:17|178:69|99:43,1,180,4|10,1:2|0:0,0:0:0:0:
309,133,165050,2,0,L|398:124,1,90,2|2,0:0|0:0,0:0:0:0:
191,159,165425,1,0,0:0:0:0:
303,337,165613,5,4,1:3:0:0:
364,220,165800,1,2,0:0:0:0:
145,95,165988,1,2,0:0:0:0:
122,122,166081,1,2,0:0:0:0:
113,157,166175,1,2,0:0:0:0:
120,192,166269,1,0,0:0:0:0:
142,220,166363,2,0,P|152:263|141:306,1,90,0|0,1:0|0:0,0:0:0:0:
284,183,166738,6,0,P|354:133|435:163,1,180,2|0,1:2|0:0,0:0:0:0:
485,237,167300,1,4,1:3:0:0:
309,278,167488,2,0,L|219:266,1,90,2|0,0:0|0:0,0:0:0:0:
61,208,167863,5,2,1:2:0:0:
153,295,168050,1,0,0:0:0:0:
40,335,168238,1,10,1:2:0:0:
146,90,168425,5,2,0:0:0:0:
231,183,168613,1,2,1:2:0:0:
117,215,168800,1,2,0:0:0:0:
283,105,168988,6,0,P|326:179|285:255,1,180,2|10,1:2|0:0,0:0:0:0:
236,22,169550,2,0,L|325:27,1,90,4|2,0:3|0:0,0:0:0:0:
231,183,169925,1,2,0:0:0:0:
98,94,170113,5,2,0:0:0:0:
95,76,170206,1,0,0:0:0:0:
92,58,170300,1,2,0:0:0:0:
176,230,170488,1,2,0:0:0:0:
203,253,170581,1,2,0:0:0:0:
238,258,170675,1,2,1:2:0:0:
272,246,170769,1,0,0:0:0:0:
295,218,170863,2,0,P|338:208|383:208,1,90,2|2,1:2|0:0,0:0:0:0:
203,108,171238,6,0,L|23:99,1,180,4|0,1:2|0:0,0:0:0:0:
23,99,171800,1,4,0:3:0:0:
105,285,171988,2,0,P|120:243|125:198,1,90,2|4,0:0|0:3,0:0:0:0:
273,39,172363,6,0,P|278:128|294:217,1,180,2|2,1:2|0:0,0:0:0:0:
341,300,172925,1,0,0:0:0:0:
177,133,173113,1,2,1:2:0:0:
150,130,173206,1,0,0:0:0:0:
123,127,173300,1,2,0:0:0:0:
282,204,173488,6,0,B|461:193,1,180,4|0,1:2|1:0,0:0:0:0:
273,39,174050,1,4,1:3:0:0:
324,283,174238,2,0,L|420:276,1,90,2|4,0:0|0:3,0:0:0:0:
185,321,174613,6,0,L|95:314,1,90,2|0,1:2|0:0,0:0:0:0:
273,39,174988,1,2,1:2:0:0:
293,68,175081,1,0,0:0:0:0:
298,103,175175,1,2,0:0:0:0:
289,137,175269,1,0,0:0:0:0:
274,170,175363,2,0,P|262:212|264:257,1,90,2|2,1:2|0:0,0:0:0:0:
340,336,175738,6,0,P|265:290|184:320,1,180,4|2,1:2|0:0,0:0:0:0:
429,295,176300,2,0,L|442:199,1,90,4|0,0:3|0:0,0:0:0:0:
493,119,176675,1,4,0:3:0:0:
262,80,176863,6,0,L|274:169,1,90,0|0,1:0|0:0,0:0:0:0:
93,287,177238,2,0,L|105:197,1,90,2|2,0:0|0:0,0:0:0:0:
362,155,177613,1,2,1:2:0:0:
184,198,177800,1,2,0:0:0:0:
390,253,177988,5,2,1:2:0:0:
407,254,178081,1,0,0:0:0:0:
425,255,178175,1,2,0:0:0:0:
151,190,178363,1,2,0:0:0:0:
397,164,178550,1,8,0:3:0:0:
225,273,178738,1,2,0:0:0:0:
246,80,178925,1,0,0:0:0:0:
313,166,179113,5,2,1:2:0:0:
139,109,179300,1,0,0:0:0:0:
287,29,179488,1,8,0:3:0:0:
225,273,179675,1,8,0:3:0:0:
61,197,179863,2,0,L|150:189,1,90,2|2,0:0|0:0,0:0:0:0:
313,166,180238,6,0,P|357:93|315:18,1,180,2|2,1:2|0:0,0:0:0:0:
176,97,180800,2,0,L|278:92,1,90,4|2,0:3|0:0,0:0:0:0:
61,197,181175,5,4,3:0:0:0:
117,37,181363,1,0,1:0:0:0:
198,181,181550,1,2,0:0:0:0:
28,89,181738,5,0,1:0:0:0:
176,97,181925,1,2,1:2:0:0:
96,254,182113,1,2,1:2:0:0:
80,155,182300,1,0,0:0:0:0:
179,282,182488,6,0,P|116:341|33:316,1,180,4|10,1:2|0:0,0:0:0:0:
254,338,183050,1,0,0:0:0:0:
254,338,183238,2,0,L|343:328,1,90,10|8,0:0|0:0,0:0:0:0:
495,311,183613,6,0,B|417:297|424:236|338:230,1,180,10|0,1:2|1:0,0:0:0:0:
338,230,184175,1,8,0:0:0:0:
482,207,184363,2,0,P|493:163|496:118,1,90,2|0,0:0|0:0,0:0:0:0:
270,26,184738,6,0,P|233:105|267:185,1,180,2|0,1:2|1:0,0:0:0:0:
338,230,185300,1,4,1:3:0:0:
127,163,185488,1,2,1:2:0:0:
109,160,185581,1,0,0:0:0:0:
91,158,185675,1,2,0:0:0:0:
189,246,185863,5,2,1:2:0:0:
135,69,186050,1,0,0:0:0:0:
25,217,186238,1,2,1:2:0:0:
275,119,186425,5,0,0:0:0:0:
109,166,186613,1,2,1:2:0:0:
169,62,186800,1,2,1:2:0:0:
212,221,186988,5,6,0:0:0:0:
256,192,187081,8,4,191113,0:0:0:0:
93,359,191488,6,0,P|85:315|85:270,1,90,4|0,1:2|0:0,0:0:0:0:
128,81,191863,1,2,0:0:0:0:
176,216,192050,1,0,0:0:0:0:
45,182,192238,1,2,1:2:0:0:
45,182,192331,1,0,0:0:0:0:
45,182,192425,1,2,0:0:0:0:
261,109,192613,6,0,P|277:197|285:287,1,180,2|0,1:2|1:0,0:0:0:0:
229,345,193175,1,0,0:0:0:0:
395,278,193363,1,2,1:2:0:0:
421,274,193456,1,0,0:0:0:0:
447,271,193550,1,2,0:0:0:0:
262,224,193738,5,2,1:2:0:0:
473,267,193925,1,2,0:0:0:0:
316,335,194113,1,0,1:0:0:0:
499,261,194300,2,0,P|511:172|505:83,1,180,2|2,1:2|0:0,0:0:0:0:
399,35,194863,6,0,P|355:42|310:45,1,90,0|0,1:0|0:0,0:0:0:0:
158,116,195238,2,0,P|202:119|247:126,1,90,0|0,1:0|0:0,0:0:0:0:
350,232,195613,2,0,P|339:188|337:143,1,90,2|0,1:2|0:0,0:0:0:0:
428,255,195988,6,0,P|363:312|283:283,1,180,4|2,1:2|1:2,0:0:0:0:
91,289,196550,2,0,L|180:298,1,90,2|0,0:0|1:0,0:0:0:0:
23,213,196925,1,0,0:0:0:0:
147,105,197113,5,2,1:2:0:0:
150,78,197206,1,0,0:0:0:0:
153,51,197300,1,2,0:0:0:0:
197,204,197488,1,2,1:2:0:0:
18,188,197675,1,2,0:0:0:0:
227,122,197863,2,0,L|237:30,1,90,2|0,1:2|0:0,0:0:0:0:
459,87,198238,6,0,P|385:132|306:96,1,180,2|0,1:2|1:0,0:0:0:0:
306,96,198800,1,0,0:0:0:0:
325,245,198988,1,2,1:2:0:0:
323,218,199081,1,0,0:0:0:0:
321,190,199175,1,2,0:0:0:0:
468,337,199363,6,0,P|425:322|380:321,1,90,2|0,1:2|0:0,0:0:0:0:
357,335,199644,1,0,0:0:0:0:
329,340,199737,1,2,1:2:0:0:
302,335,199831,1,0,0:0:0:0:
277,324,199925,1,2,0:2:0:0:
189,216,200113,1,2,1:2:0:0:
191,244,200207,1,0,0:0:0:0:
193,271,200300,1,2,0:0:0:0:
50,283,200488,6,0,P|66:194|71:104,1,180,4|2,1:2|1:2,0:0:0:0:
36,15,201050,1,2,0:0:0:0:
201,22,201238,2,0,P|206:66|214:111,1,90,0|0,1:0|0:0,0:0:0:0:
318,147,201613,6,0,P|231:134|170:196,1,180,2|0,1:2|1:0,0:0:0:0:
242,349,202175,1,2,0:0:0:0:
257,225,202363,1,0,1:0:0:0:
146,277,202550,1,2,0:0:0:0:
391,268,202738,6,0,P|410:180|404:90,1,180,0|0,1:0|1:0,0:0:0:0:
245,43,203300,1,8,0:0:0:0:
191,167,203488,1,8,1:2:0:0:
325,156,203675,1,8,0:0:0:0:
141,104,203863,5,4,1:3:0:0:
152,239,204051,1,2,0:0:0:0:
265,167,204238,1,2,1:2:0:0:
43,46,204425,1,2,0:0:0:0:
96,145,204613,1,2,0:0:0:0:
103,161,204800,1,2,0:0:0:0:
108,174,204988,6,0,P|131:110|134:43,2,135.000005149842,4|0|2,0:0|0:0|0:0,0:0:0:0:
375,231,206113,6,0,P|351:167|348:100,2,135.000005149842,0|8|2,1:0|0:0|0:0,0:0:0:0:
139,313,207238,6,0,P|162:249|165:182,2,135.000005149842,0|8|2,1:0|0:0|0:0,0:0:0:0:
257,340,208363,5,2,0:0:0:0:
350,242,208738,1,0,1:0:0:0:
463,314,209113,1,8,0:0:0:0:
257,340,209488,6,0,P|236:275|252:209,1,135.000005149842,0|0,1:0|0:0,0:0:0:0:
305,150,210050,2,0,L|371:137,2,67.5000025749208,2|0|0,0:0|1:0|0:0,0:0:0:0:
221,136,210613,6,0,L|87:113,2,135.000005149842,0|8|8,1:0|0:0|0:0,0:0:0:0:
352,59,211738,5,2,0:0:0:0:
345,85,212863,1,2,0:0:0:0:
337,110,213988,1,4,0:3:0:0:
67,126,225238,6,0,P|121:120|175:118,1,107.999996704102,2|8,0:0|0:0,0:0:0:0:
246,141,225800,1,2,0:0:0:0:
246,141,225988,2,0,P|272:149|299:152,1,53.9999983520508,0|8,0:0|0:0,0:0:0:0:
374,139,226363,6,0,P|398:186|410:239,1,107.999996704102,2|8,0:0|0:0,0:0:0:0:
410,239,226925,1,2,0:0:0:0:
314,327,227113,2,0,P|308:300|306:273,1,53.9999983520508,8|8,0:0|0:0,0:0:0:0:
221,162,227488,6,0,P|223:215|210:268,1,107.999996704102,2|8,0:0|0:0,0:0:0:0:
103,329,228050,2,0,P|97:302|97:275,2,53.9999983520508,0|8|0,0:0|0:0|0:0,0:0:0:0:
36,171,228613,6,0,P|31:197|20:222,1,53.9999983520508,2|0,0:0|0:0,0:0:0:0:
166,124,228988,2,0,P|170:150|181:175,1,53.9999983520508,2|8,0:0|0:0,0:0:0:0:
85,34,229363,2,0,P|83:60|75:86,1,53.9999983520508,2|0,0:0|0:0,0:0:0:0:
6,127,229738,6,0,P|59:123|101:156,2,107.999996704102,2|0|0,1:2|0:0|0:0,0:0:0:0:
6,127,230675,1,2,0:0:0:0:
35,204,230863,6,0,L|41:257,1,53.9999983520508,2|0,1:2|0:0,0:0:0:0:
117,320,231238,2,0,L|123:266,1,53.9999983520508,10|0,0:0|0:0,0:0:0:0:
214,205,231613,2,0,L|220:258,1,53.9999983520508,10|0,0:0|0:0,0:0:0:0:
300,321,231988,6,0,P|349:299|402:305,1,107.999996704102,4|8,1:2|0:0,0:0:0:0:
402,305,232550,1,4,3:0:0:0:
475,264,232738,2,0,P|483:238|484:211,1,53.9999983520508,0|2,0:0|0:0,0:0:0:0:
429,156,233113,6,0,L|321:150,1,107.999996704102,0|4,1:0|0:3,0:0:0:0:
179,89,233675,2,0,L|229:106,1,53.9999983520508,4|2,0:3|0:0,0:0:0:0:
86,136,234050,1,2,0:0:0:0:
85,136,234238,6,0,P|74:188|72:242,1,107.999996704102,6|2,0:0|0:0,0:0:0:0:
113,341,234800,1,4,0:3:0:0:
234,341,234988,2,0,L|226:284,1,53.9999983520508,2|2,0:0|0:0,0:0:0:0:
364,226,235363,6,0,L|356:291,1,62.9999980773926,8|2,0:3|0:0,0:0:0:0:
175,230,235738,2,0,L|167:158,1,72,8|2,0:3|0:0,0:0:0:0:
387,55,236113,2,0,L|377:135,1,80.9999975280763,4|2,0:3|0:0,0:0:0:0:
85,101,236488,6,0,P|156:53|236:85,1,180,4|0,1:2|0:0,0:0:0:0:
296,176,237050,1,2,0:0:0:0:
175,230,237238,2,0,L|165:140,1,90,2|2,1:2|0:0,0:0:0:0:
320,319,237613,6,0,B|239:350|230:294|143:321,1,180,0|10,1:2|0:0,0:0:0:0:
45,364,238175,1,2,0:0:0:0:
95,180,238363,2,0,P|139:188|184:190,1,90,4|0,1:3|0:0,0:0:0:0:
449,284,238738,6,0,P|371:252|319:318,1,180,4|10,1:2|0:0,0:0:0:0:
405,151,239300,2,0,P|415:107|417:62,1,90,2|2,0:0|0:0,0:0:0:0:
493,186,239675,1,0,0:0:0:0:
390,321,239863,5,4,1:3:0:0:
314,177,240050,1,2,0:0:0:0:
477,87,240238,1,2,0:0:0:0:
496,116,240331,1,2,0:0:0:0:
502,151,240425,1,2,0:0:0:0:
493,186,240519,1,0,0:0:0:0:
471,215,240613,2,0,P|455:256|459:301,1,90,0|0,1:0|0:0,0:0:0:0:
271,334,240988,6,0,P|295:247|286:158,1,180,0|0,1:0|0:0,0:0:0:0:
202,70,241550,1,4,0:3:0:0:
110,202,241738,2,0,L|199:207,1,90,2|0,0:0|0:0,0:0:0:0:
78,101,242113,5,2,1:2:0:0:
34,266,242300,1,0,0:0:0:0:
191,235,242488,1,10,1:2:0:0:
50,90,242675,5,2,0:0:0:0:
108,283,242863,1,2,1:2:0:0:
150,123,243050,1,2,0:0:0:0:
33,170,243238,6,0,P|118:199|207:209,1,180,0|0,1:0|0:0,0:0:0:0:
442,338,243800,2,0,P|399:323|354:317,1,90,4|2,0:3|0:0,0:0:0:0:
207,283,244175,1,2,0:0:0:0:
392,187,244363,5,2,0:0:0:0:
409,180,244456,1,0,0:0:0:0:
425,173,244550,1,0,0:0:0:0:
289,238,244738,1,2,0:0:0:0:
255,250,244831,1,2,0:0:0:0:
218,247,244925,1,2,1:2:0:0:
183,237,245019,1,0,0:0:0:0:
151,219,245113,2,0,P|106:211|62:214,1,90,0|2,1:0|0:0,0:0:0:0:
160,79,245488,6,0,P|246:102|336:106,1,180,4|0,1:2|0:0,0:0:0:0:
432,71,246050,1,4,0:3:0:0:
289,238,246238,2,0,P|246:222|202:220,1,90,2|0,0:0|0:0,0:0:0:0:
359,322,246613,6,0,P|401:245|366:166,1,180,2|0,1:2|0:0,0:0:0:0:
118,203,247175,1,0,0:0:0:0:
283,292,247363,1,2,1:2:0:0:
286,265,247456,1,0,0:0:0:0:
289,238,247550,1,2,0:0:0:0:
262,34,247738,6,0,L|292:211,1,180,4|0,1:2|1:0,0:0:0:0:
118,203,248300,1,4,1:3:0:0:
359,88,248488,2,0,L|376:188,1,90,2|4,0:0|0:3,0:0:0:0:
190,335,248863,6,0,L|205:246,1,90,2|0,1:2|0:0,0:0:0:0:
49,21,249238,1,2,1:2:0:0:
69,50,249331,1,0,0:0:0:0:
74,85,249425,1,2,0:0:0:0:
65,119,249519,1,0,0:0:0:0:
50,152,249613,2,0,P|38:194|40:239,1,90,2|2,1:2|0:0,0:0:0:0:
0,334,249988,6,0,P|58:270|145:279,1,180,4|0,1:2|0:0,0:0:0:0:
326,281,250550,2,0,L|236:286,1,90,4|0,0:3|0:0,0:0:0:0:
376,359,250925,1,4,0:3:0:0:
274,202,251113,6,0,L|184:207,1,90,0|0,1:0|0:0,0:0:0:0:
376,359,251488,1,2,0:0:0:0:
438,191,251675,1,0,0:0:0:0:
488,321,251863,1,0,1:2:0:0:
267,267,252050,1,2,0:0:0:0:
455,186,252238,5,2,1:2:0:0:
472,181,252331,1,0,0:0:0:0:
489,177,252425,1,2,0:0:0:0:
348,262,252613,1,2,0:0:0:0:
401,102,252800,1,8,0:3:0:0:
497,251,252988,1,2,0:0:0:0:
301,157,253175,1,0,0:0:0:0:
417,195,253363,5,2,1:2:0:0:
267,267,253550,1,0,0:0:0:0:
317,67,253738,1,8,0:3:0:0:
355,313,253925,5,8,0:3:0:0:
193,148,254113,1,2,0:0:0:0:
329,190,254300,1,2,0:0:0:0:
147,221,254488,6,0,P|107:144|151:69,1,180,2|2,1:2|0:0,0:0:0:0:
329,190,255050,1,4,0:3:0:0:
192,148,255238,1,2,0:0:0:0:
327,93,255425,1,4,0:3:0:0:
244,219,255613,6,0,L|203:315,1,90,0|2,1:0|0:0,0:0:0:0:
237,74,255988,1,0,1:0:0:0:
321,309,256175,1,2,1:2:0:0:
186,268,256363,1,2,1:2:0:0:
268,144,256550,1,0,0:0:0:0:
267,292,256738,6,0,P|204:350|122:323,1,180,4|10,1:2|0:0,0:0:0:0:
79,248,257300,1,10,0:0:0:0:
79,248,257488,2,0,L|67:156,1,90,8|0,0:0|0:0,0:0:0:0:
158,47,257863,6,0,L|179:225,1,180,10|0,1:2|1:0,0:0:0:0:
179,225,258425,1,8,0:0:0:0:
270,128,258613,2,0,L|258:36,1,90,2|0,0:0|0:0,0:0:0:0:
447,219,258988,6,0,B|354:257|356:194|271:221,1,180,0|0,1:2|0:0,0:0:0:0:
394,145,259550,1,4,1:3:0:0:
310,297,259738,1,2,1:2:0:0:
458,313,259925,1,2,0:0:0:0:
250,164,260113,5,2,1:2:0:0:
280,339,260300,1,0,0:0:0:0:
361,231,260488,1,2,1:2:0:0:
172,269,260675,1,0,0:0:0:0:
298,83,260863,2,0,P|337:162|300:241,1,180,2|2,1:2|0:0,0:0:0:0:
256,192,261613,12,2,265363,1:2:0:0:
259,231,265738,6,0,L|257:141,1,90,0|2,1:2|0:0,0:0:0:0:
167,203,266113,1,10,0:0:0:0:
352,266,266300,1,2,0:0:0:0:
177,343,266488,1,0,1:0:0:0:
362,257,266675,1,2,0:0:0:0:
152,172,266863,5,2,1:2:0:0:
244,271,267050,1,0,0:0:0:0:
292,84,267238,1,10,1:2:0:0:
140,140,267425,1,2,0:0:0:0:
312,137,267613,1,8,0:0:0:0:
242,9,267800,1,2,0:0:0:0:
253,206,267988,6,0,P|338:222|401:162,1,180,6|10,1:2|0:0,0:0:0:0:
195,76,268550,2,0,B|114:35|101:94|19:67,1,180,0|2,1:0|0:0,0:0:0:0:
123,227,269113,6,0,P|133:184|139:139,1,90,2|0,1:2|0:0,0:0:0:0:
225,215,269488,2,0,P|235:258|241:303,1,90,2|0,1:2|1:0,0:0:0:0:
336,229,269863,2,0,P|342:184|352:140,1,90,0|2,0:0|0:0,0:0:0:0:
438,94,270238,6,0,P|352:113|285:58,1,180,4|10,1:2|0:0,0:0:0:0:
128,119,270800,2,0,L|217:114,1,90,0|0,1:0|0:0,0:0:0:0:
59,51,271175,1,0,1:0:0:0:
34,218,271363,6,0,P|123:206|212:211,1,180,2|10,1:2|0:0,0:0:0:0:
432,261,271925,1,0,1:0:0:0:
305,231,272113,1,2,0:0:0:0:
345,350,272300,1,2,1:2:0:0:
398,183,272488,6,0,P|328:130|242:148,1,180,2|10,1:2|1:2,0:0:0:0:
64,95,273050,1,2,1:2:0:0:
157,174,273238,1,8,0:0:0:0:
46,210,273425,1,2,1:2:0:0:
241,76,273613,6,0,P|259:164|266:253,1,180,4|0,1:2|1:0,0:0:0:0:
238,333,274175,1,0,0:0:0:0:
385,339,274363,2,0,P|374:295|370:250,1,90,0|0,1:0|0:0,0:0:0:0:
456,70,274738,6,0,L|505:65,3,45,2|0|2|0,1:2|0:0|1:2|0:0,0:0:0:0:
390,165,275113,2,0,L|434:169,3,45,2|0|2|0,1:2|0:0|1:2|0:0,0:0:0:0:
330,44,275488,2,0,L|379:39,3,45,2|0|2|0,1:2|0:0|0:0|0:0,0:0:0:0:
262,184,275863,6,0,L|306:188,3,45,2|0|2|0,1:2|0:0|0:0|0:0,0:0:0:0:
239,94,276238,1,2,1:2:0:0:
204,84,276331,1,0,0:0:0:0:
168,83,276425,1,2,0:0:0:0:
133,90,276519,1,0,0:0:0:0:
98,99,276613,2,0,L|90:54,1,45,2|0,1:2|0:0,0:0:0:0:
16,114,276800,2,0,L|9:158,1,45,2|0,1:2|0:0,0:0:0:0:
86,186,276988,6,0,L|92:230,3,45,2|0|2|0,1:2|0:0|1:2|0:0,0:0:0:0:
8,255,277363,2,0,L|1:299,3,45,2|0|2|0,1:2|0:0|1:2|0:0,0:0:0:0:
113,316,277738,1,2,1:2:0:0:
149,314,277831,1,0,0:0:0:0:
184,322,277925,1,2,0:0:0:0:
215,340,278019,1,0,0:0:0:0:
238,368,278113,6,0,L|253:318,3,45,2|0|2|0,1:2|0:0|0:0|0:0,0:0:0:0:
346,274,278488,2,0,L|358:317,3,45,2|0|2|0,1:2|0:0|0:0|0:0,0:0:0:0:
243,227,278863,2,0,L|234:182,1,45,0|0,1:0|0:0,0:0:0:0:
310,149,279050,2,0,L|319:102,1,45,2|0,0:0|0:0,0:0:0:0:
246,36,279238,5,6,1:2:0:0:
