osu file format v9

[General]
AudioFilename: DIRECHQ.mp3
AudioLeadIn: 0
PreviewTime: 29367
Countdown: 1
SampleSet: Normal
StackLeniency: 0.7
Mode: 0
LetterboxInBreaks: 1

[Editor]
DistanceSpacing: 1
BeatDivisor: 4
GridSize: 8

[Metadata]
Title:Mariposa
Artist:Cesar Franco
Creator:Gonzvlo
Version:Hard-mon
Source:Digimon Adventure
Tags:butterfly erufenrito verdisphena

[Difficulty]
HPDrainRate:5
CircleSize:4
OverallDifficulty:5
ApproachRate:7
SliderMultiplier:1.6
SliderTickRate:1

[Events]
//Background and Video events
0,0,"BG.jpg"
Video,0,"NQD.avi"
//Break Periods
//Storyboard Layer 0 (Background)
//Storyboard Layer 1 (Fail)
//Storyboard Layer 2 (Pass)
//Storyboard Layer 3 (Foreground)
//Storyboard Sound Samples
//Background Colour Transformations
3,100,163,162,255

[TimingPoints]
18273,363.746363636364,4,1,0,50,1,0
56102,-100,4,1,0,50,0,1
93010,-100,4,1,0,50,0,0

[Colours]
Combo1 : 32,249,102
Combo2 : 248,218,7
Combo3 : 252,87,39
Combo4 : 33,136,211
Combo5 : 249,66,94

[HitObjects]
168,80,18272,1,0
208,16,18454,1,0
256,80,18636,1,8
304,16,18818,1,0
344,80,19000,1,0
176,176,19364,2,0,B|176:256,1,80,8|0
336,256,19909,2,0,B|336:176,1,80,0|8
72,80,20819,5,8
56,152,21001,2,0,B|88:192|128:168,1,80
168,96,21364,1,0
240,56,21546,2,0,B|288:48|304:88,1,80,8|0
264,160,21910,1,0
360,288,22274,1,8
296,336,22456,2,0,B|264:304|280:264,1,80
336,200,22819,1,0
384,136,23001,1,8
176,8,23547,5,0
216,80,23729,1,8
296,80,23911,1,0
336,8,24092,1,4
184,336,25002,6,0,B|144:264,2,80,0|8|0
328,336,25729,2,0,B|368:264,2,80,0|8|0
256,208,26457,1,0
256,208,26639,1,8
256,48,27002,5,4
392,136,27366,1,8
336,192,27548,1,0
256,208,27730,1,0
176,192,27912,1,0
120,136,28094,1,8
120,136,28276,1,0
32,360,28639,5,0
40,280,28821,1,8
104,232,29003,1,0
168,280,29185,1,0
176,360,29367,1,0
256,376,29549,1,8
328,344,29731,6,0,B|376:344|392:296,1,80,0|4
408,232,30094,1,0
408,232,30276,1,8
352,184,30458,1,0
384,120,30640,1,0
256,24,31004,1,8
256,24,31185,1,0
128,120,31549,5,0
160,184,31731,1,8
104,232,31913,1,0
104,232,32095,1,0
122,302,32277,2,0,B|136:344|184:344,1,80,0|8
256,344,32640,5,0
320,216,33004,1,0
256,184,33186,1,8
256,184,33368,1,0
192,216,33550,1,0
256,88,33914,2,0,B|256:8,1,80,8|0
144,120,34459,5,0
216,160,34641,1,8
296,160,34823,1,0
368,120,35005,1,0
344,200,35187,6,0,B|336:248|288:264,1,80,0|8
214,260,35550,2,0,B|176:248|168:200,1,80,0|4
256,72,36096,1,8
352,288,36642,6,0,B|400:304|408:344,2,80,0|8|0
256,160,37369,1,0
256,240,37551,1,8
256,160,37733,1,0
160,288,38097,2,0,B|112:304|104:344,2,80,0|8|0
256,240,38642,5,4
376,192,39006,1,8
360,112,39188,1,0
296,64,39370,1,0
216,64,39552,1,0
152,112,39734,1,8
136,192,39915,1,0
256,296,40279,6,0,B|256:384,2,80,0|8|0
256,216,40825,1,4
328,176,41007,5,0
296,104,41189,1,0
216,104,41370,1,0
184,176,41552,1,0
256,192,41734,8,8,43371
328,80,43735,5,0
256,48,43917,1,0
184,80,44098,1,8
216,152,44280,2,0,B|256:168|296:152,1,80,0|4
192,256,44826,5,8
256,296,45008,1,0
320,256,45190,1,0
360,184,45372,1,0
320,112,45553,1,8
320,40,45735,1,0
192,112,46099,1,0
192,40,46281,1,8
256,168,46645,1,0
256,248,46827,5,0
296,312,47008,1,8
216,312,47190,1,0
256,376,47372,1,0
256,192,47554,8,0,49191
176,152,49918,5,8
336,152,50282,1,4
200,240,50646,1,8
256,88,51010,1,0
312,240,51373,1,8
312,320,51555,6,0,B|304:368|256:384|208:368|200:320,1,160
200,240,52101,2,0,B|208:192|256:176|304:192|312:240,2,160,8|0|8
256,192,53192,8,4,54647
256,200,54829,5,0
256,200,54920,1,0
256,200,55011,1,0
256,120,55193,1,0
256,120,55284,1,0
256,120,55375,1,0
216,56,55557,1,4
296,56,55738,1,4
392,192,56102,5,4
296,320,56466,1,8
216,320,56648,1,0
256,80,57193,1,8
256,80,57557,1,0
216,232,57921,2,0,B|256:216|296:232,1,80,8|0
184,120,58466,1,0
256,80,58648,1,8
328,120,58830,1,0
256,352,59376,1,8
256,32,60103,5,8
256,32,60285,1,0
256,32,60467,1,0
256,32,60649,1,0
120,120,61013,1,0
256,208,61376,1,0
392,120,61740,1,0
176,360,62468,5,0
336,360,62831,1,0
336,360,63013,1,8
256,344,63195,1,4
320,200,63559,1,0
256,248,63741,1,8
192,200,63923,1,4
256,56,64286,5,0
256,56,64468,1,8
320,104,64650,2,0,B|408:104,1,80
256,152,65014,2,0,B|256:240,1,80,0|8
192,104,65378,2,0,B|104:104,1,80
152,176,65741,1,0
192,248,65923,1,8
256,296,66105,1,0
416,264,66469,5,0
384,192,66651,1,8
336,128,66833,1,0
264,88,67015,1,0
184,64,67196,1,0
296,272,67742,5,4
136,272,68106,1,8
136,272,68288,1,0
376,272,68833,1,8
216,272,69197,1,0
256,120,69561,1,8
256,120,69743,1,0
256,120,70106,1,0
216,192,70288,1,8
296,192,70470,1,0
480,344,71016,1,8
160,352,71743,5,8
208,288,71925,1,0
240,216,72107,1,0
256,136,72289,1,0
256,136,72653,1,0
256,136,72834,1,0
272,216,73016,1,0
304,288,73198,1,8
352,352,73380,1,0
352,32,74108,5,0
312,184,74471,1,0
256,128,74653,1,8
200,184,74835,1,4
160,32,75199,1,0
256,32,75381,1,8
256,32,75563,1,4
376,360,76472,6,0,B|152:304|120:184|256:40|392:184|360:304|136:360,2,640,0|0|4
256,192,79564,8,4,83747
256,352,84292,5,4
16,112,85202,2,0,B|-8:192|16:272,1,160,4|8
96,272,85747,1,0
80,192,85929,1,0
96,112,86111,1,0
176,112,86293,2,0,B|152:192|176:272,1,160,8|4
176,270,87202,1,4
496,112,88112,6,0,B|520:192|496:272,1,160,4|8
416,272,88657,1,0
432,192,88839,1,0
416,112,89021,1,0
336,112,89203,2,0,B|360:192|336:272,1,160,8|4
376,32,90112,1,4
136,32,90658,1,4
256,192,90840,8,0,92477
184,192,92659,5,0
256,152,92841,1,0
328,192,93022,1,4
