osu file format v9

[General]
AudioFilename: DIRECHQ.mp3
AudioLeadIn: 0
PreviewTime: 29367
Countdown: 1
SampleSet: Normal
StackLeniency: 0.7
Mode: 0
LetterboxInBreaks: 1

[Editor]
DistanceSpacing: 0.9
BeatDivisor: 4
GridSize: 8

[Metadata]
Title:Mariposa
Artist:Cesar Franco
Creator:Gonzvlo
Version:Easy-mon
Source:Digimon Adventure
Tags:butterfly erufenrito verdisphena

[Difficulty]
HPDrainRate:1
CircleSize:3
OverallDifficulty:1
ApproachRate:1
SliderMultiplier:1
SliderTickRate:1

[Events]
//Background and Video events
0,0,"BG.jpg"
Video,0,"NQD.avi"
//Break Periods
//Storyboard Layer 0 (Background)
//Storyboard Layer 1 (Fail)
//Storyboard Layer 2 (Pass)
//Storyboard Layer 3 (Foreground)
//Storyboard Sound Samples
//Background Colour Transformations
3,100,163,162,255

[TimingPoints]
18273,363.74658987572,4,1,0,50,1,0
56102,-100,4,1,0,50,0,1
93010,-100,4,1,0,50,0,0

[Colours]
Combo1 : 32,249,102
Combo2 : 248,218,7
Combo3 : 252,87,39
Combo4 : 33,136,211
Combo5 : 249,66,94

[HitObjects]
344,136,18273,2,0,B|352:40|256:0|160:40|168:136,2,300,0|8|0
256,120,20819,1,8
376,256,21546,1,8
304,312,21910,1,0
256,232,22274,1,8
208,312,22637,1,0
136,256,23001,1,8
208,88,23729,6,0,B|184:32|256:-24|328:32|304:88,1,200,8|8
336,216,25002,2,0,B|343:269|306:307,1,100
206,307,25729,2,0,B|169:269|176:216,1,100
256,168,26457,1,0
256,120,26639,2,0,B|256:16,1,100,8|4
256,168,27730,5,4
256,192,27912,8,4,29912
256,72,30640,5,0
336,112,31004,2,0,B|408:104|440:160|408:216|336:208,1,200,8|8
176,112,32459,2,0,B|104:104|72:160|104:216|176:208,1,200,8|8
256,256,33550,1,0
256,168,33914,2,0,B|256:64,2,100,8|0|8
40,336,35732,5,4
208,128,36824,2,0,B|192:184|256:248|320:184|304:128,1,200,8|8
472,336,38642,1,4
256,336,39370,5,4
256,248,39734,1,8
168,224,40097,1,0
208,144,40461,1,8
304,144,40825,1,0
344,224,41189,1,8
256,192,41552,8,8,43371
208,304,44099,6,0,B|256:328|304:304,1,100,8|0
256,232,44826,1,8
336,72,45553,2,0,B|312:24|256:0|200:24|176:72,1,200,8|8
280,160,46827,2,0,B|256:168|232:160,1,50,0|8
216,248,47372,6,0,B|168:208|128:240|120:288|176:328|208:352|248:384|248:384|288:352|320:328|376:288|368:240|328:208|280:248,1,500,0|8
160,8,50282,6,0,B|256:64|352:8,3,200,4|4|4|4
256,192,52647,8,4,54647
208,112,56102,5,4
304,112,56466,1,8
184,248,57193,2,0,B|160:296|184:344,1,100,8|0
256,296,57921,1,8
328,248,58285,2,0,B|352:296|328:344,2,100,0|8|0
304,8,60103,6,0,B|256:32|208:8,1,100,8|0
216,192,61195,2,0,B|192:240|216:288,2,100,0|8|0
296,216,62286,2,0,B|320:168|296:120,2,100,8|0|8
304,352,63559,2,0,B|256:376|208:352,1,100,0|4
56,184,64832,5,0
96,104,65196,1,8
168,48,65560,1,0
256,24,65923,1,8
344,48,66287,1,0
416,104,66651,1,8
456,184,67015,1,0
304,280,67742,5,4
208,280,68106,1,8
304,104,68833,2,0,B|320:176|256:200|192:176|208:104,2,200,8|8|8
256,24,70652,1,4
128,264,71743,6,0,B|184:264|208:216,3,100,0|0|8|0
304,216,73198,2,0,B|328:264|384:264,1,100,8|0
344,88,74289,2,0,B|312:48|256:32|200:48|168:88,1,200,0|4
232,152,75381,2,0,B|296:152,1,50,8|4
256,192,76472,12,4,77927
256,192,79382,12,4,84293
416,272,85202,6,0,B|464:248|488:192|464:136|416:112,2,200,4|0|4
304,192,87202,1,4
96,272,88112,6,0,B|48:248|24:192|48:136|96:112,2,200,4|0|4
208,192,90112,1,4
256,64,90658,1,4
256,192,91022,12,4,93022
