osu file format v14

[General]
AudioFilename: Back-On - Cerulean.mp3
AudioLeadIn: 0
PreviewTime: 58807
Countdown: 0
SampleSet: None
StackLeniency: 0.7
Mode: 0
LetterboxInBreaks: 1
WidescreenStoryboard: 1

[Editor]
DistanceSpacing: 1
BeatDivisor: 4
GridSize: 8
TimelineZoom: 1

[Metadata]
Title:BACK-ON (TV Size)
TitleUnicode:BACK-ON (TV Size)
Artist:Cerulean
ArtistUnicode:Cerulean
Creator:Punsniper
Version:Normal
Source:Gundam build fighter TRY
Tags:Gundam Build fighter try Back-on
BeatmapID:892837
BeatmapSetID:411490

[Difficulty]
HPDrainRate:3
CircleSize:4
OverallDifficulty:4
ApproachRate:4
SliderMultiplier:1
SliderTickRate:1

[Events]
//Background and Video events
Video,0,"GBF Try Opening OSU_xvid.avi"
0,0,"gundamkitscollectionSS012.jpg",0,0
//Break Periods
2,27858,29456
2,50387,57750
//Storyboard Layer 0 (Background)
//Storyboard Layer 1 (Fail)
//Storyboard Layer 2 (Pass)
//Storyboard Layer 3 (Foreground)
//Storyboard Sound Samples

[TimingPoints]
15011.4558823529,235.294117647059,4,2,1,40,1,0
58907,-100,4,2,1,40,0,1

[Colours]
Combo1 : 128,0,255
Combo2 : 0,202,0
Combo3 : 18,124,255
Combo4 : 242,24,57
Combo5 : 255,192,0

[HitObjects]
435,81,5129,6,0,P|441:292|423:314,1,250
343,268,5952,1,4,0:0:0:0:
300,183,6187,2,0,P|218:102|176:100,1,150,0|2,0:0|0:0,0:0:0:0:
115,140,6776,1,4,0:0:0:0:
115,221,7011,2,0,P|213:308|310:318,2,225,0|0|4,0:0|0:0|0:0,0:0:0:0:
166,155,8305,1,0,0:0:0:0:
224,143,8540,1,2,0:0:0:0:
271,184,8717,2,0,P|392:209|453:163,1,200,0|4,0:0|0:0,0:0:0:0:
321,64,9717,5,0,0:0:0:0:
259,76,9893,1,2,0:0:0:0:
214,107,10070,2,0,P|277:220|304:226,1,150
334,195,10599,1,4,0:0:0:0:
391,181,10776,1,0,0:0:0:0:
448,193,10952,2,0,P|327:359|275:357,1,275
223,313,11834,1,4,0:0:0:0:
167,254,12070,2,0,P|168:97|176:77,1,175
247,62,12717,1,4,0:0:0:0:
332,68,13011,1,6,0:0:0:0:
407,123,13305,1,4,0:0:0:0:
443,204,13599,1,6,0:0:0:0:
435,286,14834,6,0,P|227:273|202:250,1,250,0|4,0:0|0:0,0:0:0:0:
197,182,15658,1,0,0:0:0:0:
249,135,15893,1,2,0:0:0:0:
318,99,16129,2,0,P|186:44|180:45,1,150
133,83,16717,1,4,0:0:0:0:
77,144,16952,2,0,L|79:288,1,125,0|2,0:0|0:0,0:0:0:0:
132,309,17482,1,4,0:0:0:0:
212,311,17717,2,0,P|314:269|322:239,1,150
336,184,18305,2,0,P|326:34|304:32,1,200,0|4,0:0|0:0,0:0:0:0:
245,53,19070,2,0,P|93:77|87:92,2,175,4|2|0,0:0|0:0|0:0,0:0:0:0:
278,124,20187,1,4,0:0:0:0:
281,197,20423,2,0,L|190:221,2,75
352,192,20952,2,0,L|428:235,2,75,0|0|4,0:0|0:0|0:0,0:0:0:0:
206,232,21893,5,2,0:0:0:0:
208,289,22129,1,0,0:0:0:0:
246,330,22364,2,0,P|369:261|381:228,2,175,0|0|2,0:0|0:0|0:0,0:0:0:0:
167,315,23423,1,4,0:0:0:0:
119,252,23658,2,0,P|196:120|264:101,2,225
177,298,24952,1,6,0:0:0:0:
256,192,25187,12,6,27658,0:0:0:0:
220,75,30776,6,0,B|75:235|94:213,1,175
142,260,31423,1,2,0:0:0:0:
208,272,31658,2,0,P|288:206|292:138,2,175
169,211,32717,1,2,0:0:0:0:
166,146,32952,2,0,P|251:49|292:48,2,175
225,159,34011,1,2,0:0:0:0:
283,170,34246,2,0,P|289:296|246:325,2,175,0|0|2,0:0|0:0|0:0,0:0:0:0:
225,159,35305,1,0,0:0:0:0:
439,201,35599,6,0,P|430:78|417:66,1,150
367,51,36187,1,4,0:0:0:0:
331,119,36423,2,0,P|202:151|167:129,1,175
108,110,37070,2,0,P|92:220|121:275,1,175
185,279,37717,1,6,0:0:0:0:
253,267,37952,2,0,P|319:149|321:134,1,150
320,136,38540,6,0,L|235:91,2,75
370,183,39129,1,0,0:0:0:0:
380,237,39305,1,2,0:0:0:0:
360,288,39482,2,0,L|269:224,1,100,0|4,0:0|0:0,0:0:0:0:
283,74,40540,6,0,L|342:167,1,100
336,158,40952,2,0,L|248:233,1,100
260,222,41364,2,0,L|188:141,1,100
193,147,41776,1,4,0:0:0:0:
77,62,42070,2,0,L|71:178,1,100
71,161,42482,2,0,L|149:231,1,100
146,228,42893,2,0,L|76:318,2,100,0|0|6,0:0|0:0|0:0,0:0:0:0:
375,69,44129,6,0,L|385:186,1,100
320,187,44599,1,2,0:0:0:0:
271,197,44834,1,4,0:0:0:0:
225,162,45070,2,0,P|116:89|97:95,1,150
72,135,45599,1,4,0:0:0:0:
72,196,45776,1,0,0:0:0:0:
89,248,46011,2,0,P|267:271|275:255,1,225
295,227,46776,1,2,0:0:0:0:
345,192,47011,1,6,0:0:0:0:
381,153,47246,2,0,P|268:58|263:61,2,175
420,194,48305,5,0,0:0:0:0:
456,241,48540,2,0,P|307:306|293:296,1,200
283,231,49246,1,0,0:0:0:0:
254,181,49423,1,4,0:0:0:0:
214,152,49599,2,0,P|110:135|74:126,2,125,0|0|6,0:0|0:0|0:0,0:0:0:0:
372,85,59070,6,0,P|387:214|322:256,1,200,0|4,0:0|0:0,0:0:0:0:
281,208,59776,1,2,0:0:0:0:
280,134,60011,2,0,P|198:80|175:88,1,125
122,120,60540,1,4,0:0:0:0:
101,181,60776,2,0,P|140:274|197:321,1,175
266,324,61423,5,4,0:0:0:0:
313,307,61599,1,0,0:0:0:0:
355,281,61776,2,0,P|321:108|305:101,1,200,4|0,0:0|0:0,0:0:0:0:
273,96,62423,1,0,0:0:0:0:
217,106,62658,1,4,0:0:0:0:
183,163,62893,2,0,L|194:249,2,75,0|0|4,0:0|0:0|0:0,0:0:0:0:
121,155,63423,5,0,0:0:0:0:
78,200,63658,1,0,0:0:0:0:
81,254,63893,2,0,P|207:297|267:289,1,175,4|0,0:0|0:0,0:0:0:0:
246,293,64482,2,0,P|371:147|370:119,1,225
345,91,65246,1,6,0:0:0:0:
298,69,65482,2,0,L|211:53,2,75
345,91,66070,5,0,0:0:0:0:
375,136,66305,1,4,0:0:0:0:
369,194,66540,2,0,L|210:179,1,150
219,179,67070,2,0,L|137:233,1,75,4|0,0:0|0:0,0:0:0:0:
156,220,67423,2,0,L|212:296,1,75,0|6,0:0|0:0,0:0:0:0:
461,170,68834,6,0,P|441:72|371:38,1,175
344,50,69482,1,2,0:0:0:0:
311,94,69717,2,0,P|205:154|194:143,1,150
165,129,70305,1,4,0:0:0:0:
109,131,70540,2,0,P|100:242|136:258,1,150
182,264,71129,5,2,0:0:0:0:
255,264,71364,1,0,0:0:0:0:
329,284,71599,2,0,P|407:164|402:64,1,225,4|0,0:0|0:0,0:0:0:0:
345,55,72364,1,0,0:0:0:0:
316,121,72599,2,0,L|264:242,2,125,0|2|4,0:0|0:0|0:0,0:0:0:0:
345,55,73423,6,0,P|188:46|183:54,1,175
155,86,74070,1,4,0:0:0:0:
140,158,74305,2,0,P|152:257|188:315,1,150
256,194,74893,2,0,P|290:329|289:344,1,150,4|0,0:0|0:0,0:0:0:0:
385,275,75482,2,0,P|383:161|360:134,1,150
303,106,76070,5,6,0:0:0:0:
241,78,76305,2,0,P|132:55|91:84,2,150
303,106,77246,1,0,0:0:0:0:
255,160,77482,2,0,P|121:207|119:201,1,225
83,170,78246,1,4,0:0:0:0:
25,190,78482,2,0,P|13:306|37:337,1,150
132,330,79070,2,0,P|150:212|127:180,1,150
256,192,79658,12,6,82011,0:0:0:0:
256,192,82364,12,4,85482,0:0:0:0:
256,136,85893,5,4,0:0:0:0:
200,200,86187,5,4,0:0:0:0:
312,200,86482,5,6,0:0:0:0:
256,192,86952,12,6,88423,0:0:0:0:
