osu file format v14

[General]
AudioFilename: Back-On - Cerulean.mp3
AudioLeadIn: 0
PreviewTime: 58807
Countdown: 0
SampleSet: None
StackLeniency: 0.7
Mode: 0
LetterboxInBreaks: 1
WidescreenStoryboard: 0

[Editor]
DistanceSpacing: 1
BeatDivisor: 4
GridSize: 8
TimelineZoom: 1

[Metadata]
Title:BACK-ON (TV Size)
TitleUnicode:BACK-ON (TV Size)
Artist:Cerulean
ArtistUnicode:Cerulean
Creator:Punsniper
Version:Easy
Source:Gundam build fighter TRY
Tags:Gundam Build fighter try Back-on
BeatmapID:892834
BeatmapSetID:411490

[Difficulty]
HPDrainRate:1
CircleSize:3
OverallDifficulty:2
ApproachRate:2
SliderMultiplier:0.8
SliderTickRate:1

[Events]
//Background and Video events
Video,0,"GBF Try Opening OSU_xvid.avi"
0,0,"gundamkitscollectionSS012.jpg",0,0
//Break Periods
2,27352,29022
2,49980,57384
//Storyboard Layer 0 (Background)
//Storyboard Layer 1 (Fail)
//Storyboard Layer 2 (Pass)
//Storyboard Layer 3 (Foreground)
//Storyboard Sound Samples

[TimingPoints]
58807,204.778156996587,4,2,1,40,1,0
58907,-100,4,2,1,40,0,1

[Colours]
Combo1 : 128,0,255
Combo2 : 0,202,0
Combo3 : 18,124,255
Combo4 : 242,24,57
Combo5 : 255,192,0

[HitObjects]
341,81,4985,6,0,P|371:227|339:293,1,220,0|4,0:0|0:0,0:0:0:0:
166,234,6060,2,0,P|183:89|283:61,1,260,0|4,0:0|0:0,0:0:0:0:
372,131,7237,6,0,L|382:257,2,120,0|0|4,0:0|0:0|0:0,0:0:0:0:
268,48,8363,2,0,L|149:161,2,160,0|0|4,0:0|0:0|0:0,0:0:0:0:
355,44,9490,1,2,0:0:0:0:
361,132,9797,6,0,P|271:244|215:250,1,200
221,173,10565,2,0,L|221:72,2,100,0|0|4,0:0|0:0|0:0,0:0:0:0:
220,257,11349,2,0,L|221:358,2,100,0|0|4,0:0|0:0|0:0,0:0:0:0:
312,167,12305,5,2,0:0:0:0:
320,263,12561,2,0,P|125:250|129:190,2,320,0|0|4,0:0|0:0|0:0,0:0:0:0:
280,78,14660,6,0,P|312:261|297:271,1,240,0|4,0:0|0:0,0:0:0:0:
144,208,15787,2,0,L|279:74,2,180
212,151,17015,6,0,L|342:113,1,120
211,255,17834,2,0,P|58:169|59:163,1,220
148,188,18654,1,6,0:0:0:0:
308,81,19421,6,0,L|306:205,2,120
375,75,20292,1,2,0:0:0:0:
361,149,20548,2,0,L|234:183,2,120
402,221,21418,1,4,0:0:0:0:
319,207,21981,6,0,P|231:125|251:106,1,180
320,91,22698,1,2,0:0:0:0:
411,92,22954,2,0,P|411:234|338:204,1,280,0|4,0:0|0:0,0:0:0:0:
150,173,24490,5,2,0:0:0:0:
236,135,24746,2,0,P|378:102|407:124,1,180
256,192,25462,12,6,27152,0:0:0:0:
256,193,30582,5,0,0:0:0:0:
345,203,30838,2,0,P|344:76|304:78,1,200
230,77,31606,1,2,0:0:0:0:
148,111,31862,2,0,L|149:293,2,180,0|0|2,0:0|0:0|0:0,0:0:0:0:
259,192,33619,6,0,L|380:123,1,140
454,132,34233,2,0,P|430:258|402:254,1,200,0|2,0:0|0:0,0:0:0:0:
255,270,35292,2,0,P|77:251|77:249,1,260
126,183,36213,1,2,0:0:0:0:
189,118,36469,2,0,P|321:96|345:132,2,180,0|0|2,0:0|0:0|0:0,0:0:0:0:
141,266,37903,6,0,P|278:286|308:285,1,160
378,262,38568,2,0,P|363:134|334:108,1,160
285,69,39234,2,0,P|159:75|122:96,1,160
112,172,39916,1,6,0:0:0:0:
314,143,40565,6,0,P|257:301|230:295,1,240,0|4,0:0|0:0,0:0:0:0:
162,267,41435,1,0,0:0:0:0:
98,193,41691,2,0,P|237:73|247:72,2,200,0|2|0,0:0|0:0|0:0,0:0:0:0:
140,272,42987,1,0,0:0:0:0:
216,304,43295,1,4,0:0:0:0:
452,193,44148,6,0,P|303:84|294:87,1,220
250,150,44968,1,4,0:0:0:0:
255,240,45223,2,0,P|161:270|74:248,1,180
74,170,45940,1,2,0:0:0:0:
134,98,46196,2,0,P|298:89|310:109,2,200
167,177,47476,1,0,0:0:0:0:
255,161,47732,6,0,L|446:161,2,180
167,177,48910,1,2,0:0:0:0:
80,208,49165,2,0,P|173:288|201:288,1,140
264,282,49780,1,4,0:0:0:0:
429,180,58944,5,0,0:0:0:0:
380,136,59148,1,0,0:0:0:0:
325,113,59353,2,0,P|168:149|166:159,1,200
234,199,60086,2,0,P|186:265|100:255,1,160
41,217,60752,1,4,0:0:0:0:
155,112,61008,6,0,P|333:88|344:101,1,220
392,164,61827,1,4,0:0:0:0:
399,258,62083,2,0,P|237:280|228:268,2,200
319,211,63312,1,6,0:0:0:0:
236,186,63516,6,0,P|122:116|125:85,1,180
205,60,64182,2,0,P|379:97|397:118,1,200
401,187,64950,1,4,0:0:0:0:
396,271,65206,2,0,P|213:255|205:239,1,220
258,157,66179,2,0,P|308:85|295:48,2,120,4|0|0,0:0|0:0|0:0,0:0:0:0:
207,229,67049,2,0,L|97:274,2,100,0|0|6,0:0|0:0|0:0,0:0:0:0:
143,129,68687,5,0,0:0:0:0:
176,190,68943,1,2,0:0:0:0:
226,239,69148,2,0,P|406:241|413:226,1,220
413,159,69967,2,0,P|343:72|299:48,1,160,0|2,0:0|0:0,0:0:0:0:
225,55,70632,5,4,0:0:0:0:
140,83,70888,2,0,P|105:211|125:254,1,180
202,267,71605,1,4,0:0:0:0:
288,272,71861,2,0,L|456:267,2,160,0|0|6,0:0|0:0|0:0,0:0:0:0:
195,243,73397,6,0,P|218:129|292:72,1,200
361,79,74165,2,0,P|408:223|407:272,1,200
310,267,74933,1,4,0:0:0:0:
226,246,75189,1,4,0:0:0:0:
154,199,75854,6,0,P|205:60|222:50,2,160
166,284,76929,2,0,P|331:327|373:307,1,220,4|0,0:0|0:0,0:0:0:0:
389,155,77800,2,0,P|219:106|191:121,1,220
175,203,78619,1,4,0:0:0:0:
196,286,78875,2,0,P|335:302|347:296,1,160
256,192,79540,12,4,81946,0:0:0:0:
256,192,82254,12,6,84353,0:0:0:0:
256,72,85786,5,4,0:0:0:0:
256,176,86042,5,6,0:0:0:0:
256,280,86298,5,4,0:0:0:0:
256,192,87066,12,6,88448,0:0:0:0:
