osu file format v9

[General]
AudioFilename: 03 - [].mp3
AudioLeadIn: 2000
PreviewTime: 86163
Countdown: 0
SampleSet: Soft
StackLeniency: 0.7
Mode: 0
LetterboxInBreaks: 1

[Editor]
DistanceSpacing: 1.2
BeatDivisor: 4
GridSize: 4

[Metadata]
Title:Cotteingley Shoukougun
Artist:Cerotte
Creator:grasscarp
Version:Lunatic
Source:Touhou
Tags:beren a midnight fairy dance yousei daisensou sangetsusei

[Difficulty]
HPDrainRate:7
CircleSize:4
OverallDifficulty:6
ApproachRate:8
SliderMultiplier:1.9
SliderTickRate:1

[Events]
//Background and Video events
0,0,"bg.jpg"
//Break Periods
2,40857,52964
2,112894,125005
2,158812,170923
//Storyboard Layer 0 (Background)
//Storyboard Layer 1 (Fail)
//Storyboard Layer 2 (Pass)
//Storyboard Layer 3 (Foreground)
//Storyboard Sound Samples
//Background Colour Transformations
3,100,163,162,255

[TimingPoints]
-367,408.163265306122,4,1,0,72,1,0
1469,-100,4,1,1,72,0,0
4530,-100,4,1,0,72,0,0
4632,-100,4,1,1,72,0,0
7795,-100,4,1,0,72,0,0
7897,-100,4,1,1,72,0,0
11061,-100,4,1,0,72,0,0
11163,-100,4,1,1,72,0,0
12693,-100,4,1,0,72,0,0
32489,-100,4,1,2,72,0,0
33510,-100,4,1,0,72,0,0
39020,-100,4,1,2,72,0,0
53714,-100,4,1,0,72,0,0
60449,-100,4,1,1,72,0,0
66571,-100,4,1,0,62,0,0
67388,-100,4,1,1,72,0,0
72693,-100,4,1,0,40,0,0
73102,-100,4,1,0,72,0,0
73510,-100,4,1,0,40,0,0
75142,-100,4,1,2,72,0,0
76469,-100,4,1,0,40,0,0
78408,-100,4,1,1,72,0,0
79938,-100,4,1,0,40,0,0
81673,-100,4,1,2,72,0,0
83000,-100,4,1,0,40,0,0
84938,-100,4,1,1,72,0,0
85755,-100,4,1,0,72,0,0
86163,-100,4,1,0,50,0,0
89836,-100,4,1,1,72,0,0
93102,-100,4,1,0,50,0,0
99632,-100,4,1,2,72,0,1
102898,-100,4,1,1,72,0,1
106163,-100,4,1,2,72,0,1
112285,-133.333333333333,4,1,1,72,0,1
112693,-100,4,1,1,72,0,0
125755,-100,4,1,0,72,0,0
137387,-100,4,1,2,72,0,0
139020,-100,4,1,0,72,0,0
143918,-100,4,1,2,72,0,0
145142,-100,4,1,0,72,0,0
150448,-100,4,1,2,72,0,0
151775,-100,4,1,0,72,0,0
156979,-100,4,1,2,72,0,0
157795,-100,4,1,2,40,0,0
158612,-100,4,1,2,72,0,0
171673,-100,4,1,2,72,0,1
174938,-100,4,1,1,72,0,1
178204,-100,4,1,2,72,0,1
188000,-100,4,1,1,72,0,1
191265,-100,4,1,2,72,0,1
197387,-133.333333333333,4,1,1,72,0,1
197795,-133.333333333333,4,1,1,72,0,0
197898,-100,4,2,0,5,0,0

[Colours]
Combo1 : 255,255,196
Combo2 : 255,98,98
Combo3 : 162,162,255

[HitObjects]
192,72,449,38,0,B|152:48,3,47.5
256,144,857,2,0,B|304:128,3,47.5
184,208,1265,1,4
232,344,1469,5,8
368,312,1673,1,8
388,292,1775,1,8
408,272,1877,1,8
476,192,2081,1,8
456,172,2183,1,8
436,152,2285,1,8
388,20,2489,1,8
280,140,2694,1,8
48,64,3102,5,8
176,120,3306,1,8
156,140,3408,1,8
136,160,3510,1,8
172,276,3714,1,8
192,256,3816,1,8
212,236,3918,1,8
232,216,4020,1,8
252,196,4122,1,8
308,308,4326,1,0
328,288,4428,1,0
348,268,4530,2,0,B|380:220|356:168,1,95,4|8
432,44,4938,5,8
404,52,5040,1,8
376,60,5143,1,8
324,172,5347,1,8
296,164,5449,1,8
268,156,5551,1,8
188,60,5755,1,8
72,108,5959,1,8
424,336,6367,5,8
376,216,6571,1,8
352,228,6673,1,8
324,240,6775,1,8
256,112,6979,1,8
284,120,7081,1,8
312,128,7183,1,8
192,224,7387,1,8
164,212,7489,1,8
140,200,7591,1,8
116,188,7693,1,8
92,176,7796,2,0,B|76:128|76:128|92:80,1,95,4|8
276,48,8204,5,8
268,76,8306,1,8
260,104,8408,1,8
388,168,8612,1,8
408,148,8714,1,8
428,128,8816,1,8
508,244,9020,1,8
388,320,9224,1,8
232,232,9428,6,0,B|276:212|336:240,1,95,0|8
232,340,9836,1,8
204,332,9938,1,8
176,324,10040,1,8
32,328,10244,1,8
44,300,10347,1,8
56,272,10449,1,8
68,244,10551,1,8
80,216,10653,1,8
88,72,10857,1,8
100,96,10959,1,8
112,120,11061,2,0,B|160:144|208:120,1,95,4|8
372,36,11469,5,8
384,60,11571,1,8
396,84,11673,1,8
504,176,11877,1,8
492,204,11979,1,8
480,228,12081,1,8
364,312,12285,5,8
296,208,12489,1,8
192,276,12693,2,0,B|144:257|123:207,1,95,0|0
172,172,13000,2,0,B|196:124|173:79,1,95,0|0
120,52,13306,1,0
352,120,13510,6,2,B|336:144|336:144|288:144|280:184,1,95,2|0
344,224,13816,2,2,B|372:225|372:225|396:267|435:254,1,95,2|0
440,184,14122,2,2,B|427:158|427:158|451:116|420:89,1,95,2|2
256,64,14530,5,4
168,136,14734,1,8
140,128,14836,1,0
112,116,14938,1,0
24,188,15142,1,8
100,272,15347,1,0
208,240,15551,2,0,B|233:291|291:288,1,95,8|0
328,288,15857,2,0,B|416:224,1,95,8|0
464,192,16163,5,2
464,192,16265,1,0
464,192,16367,1,8
416,80,16571,1,2
312,144,16775,1,10
312,144,16877,1,0
312,144,16979,1,0
224,56,17183,1,10
136,144,17387,2,2,B|165:188|226:196,1,95,2|8
257,205,17693,1,6
84,328,18000,5,8
112,320,18102,1,0
140,312,18204,1,0
216,228,18408,1,8
136,144,18612,1,0
216,228,18816,1,8
216,228,18918,1,0
228,88,19122,1,0
228,88,19224,1,8
368,120,19428,5,0
368,152,19530,1,0
360,176,19632,1,8
344,200,19734,1,0
320,216,19836,2,0,B|288:256|312:328|368:336,1,142.5,0|8
400,336,20244,2,0,B|496:296,1,95,0|8
488,204,20653,1,0
488,204,20755,1,0
348,260,20959,5,0
348,260,21061,2,0,B|252:220,1,95,4|8
240,216,21367,1,0
216,208,21469,1,0
116,308,21673,1,8
32,228,21877,1,0
96,136,22081,2,0,B|86:84|129:46,1,95,8|0
172,40,22387,2,0,B|268:56|268:56,1,95,8|0
336,68,22693,5,2
336,68,22796,1,0
336,68,22898,1,8
428,188,23102,1,2
308,164,23306,1,10
308,164,23408,1,0
308,164,23510,1,0
228,260,23714,1,10
116,204,23918,2,2,B|70:237|67:289,1,95,2|8
76,332,24224,1,2
104,48,24530,5,8
132,52,24632,1,0
160,56,24734,1,0
220,152,24938,1,8
116,204,25143,1,0
128,316,25347,1,8
128,316,25449,1,0
240,332,25653,1,0
240,332,25755,1,8
428,356,25959,5,0
400,264,26163,1,8
480,208,26367,1,0
480,208,26469,2,0,B|501:149|464:96|398:98,1,142.5,8|0
324,96,26979,1,8
300,236,27183,5,0
276,228,27285,1,8
236,336,27489,1,0
220,320,27591,1,4
116,312,27795,1,8
104,292,27898,1,0
93,272,28000,2,0,B|74:225|102:176,1,95,0|8
72,88,28408,1,0
164,108,28612,2,0,B|216:129|261:99,1,95,8|0
276,60,28918,2,0,B|380:72,1,95,8|0
440,80,29224,5,2
440,80,29326,1,0
440,80,29428,1,8
368,168,29632,1,2
456,240,29836,1,10
456,240,29938,1,0
456,240,30040,1,0
388,332,30244,1,10
296,264,30449,5,2
296,264,30551,1,0
296,264,30653,1,8
296,264,30755,2,0,B|282:308|212:327|171:296,1,142.5,4|8
156,284,31163,1,0
136,268,31265,1,0
72,176,31469,1,8
132,80,31673,2,0,B|182:87|210:136,1,95,0|8
240,164,31979,2,0,B|344:156,1,95
380,152,32285,1,8
472,320,32489,5,8
448,300,32591,1,8
424,288,32693,1,8
396,276,32796,1,8
368,272,32898,5,8
340,268,33000,1,8
312,268,33102,1,8
284,276,33204,1,8
256,284,33306,6,0,B|207:304|160:276,1,95,8|8
240,164,33714,2,0,B|344:156,1,95,2|0
380,152,34020,1,6
64,80,34326,5,8
64,80,34428,1,0
64,80,34530,2,0,B|104:56|160:56,1,95,0|8
264,96,34938,1,0
360,32,35142,2,0,B|408:48|428:103,1,95,8|0
440,144,35449,2,0,B|408:248,1,95,8|0
392,304,35755,5,2
392,304,35857,1,0
392,304,35959,1,8
264,256,36163,1,2
128,304,36367,1,10
136,288,36469,1,0
144,272,36571,1,0
8,240,36775,1,10
56,104,36979,6,0,B|84:56|140:56,1,95,2|8
168,88,37285,2,2,B|216:120|272:112|312:80,1,142.5,2|8
380,28,37796,1,2
380,28,37898,1,0
420,212,38102,1,0
420,212,38204,2,0,B|323:221,1,95,2|8
280,212,38510,2,0,B|224:188|208:108|280:68,1,142.5,2|10
356,132,39020,5,8
332,148,39122,1,8
304,152,39224,1,8
276,152,39326,1,8
248,148,39428,5,8
220,140,39530,1,8
192,132,39632,1,8
164,128,39734,1,8
136,128,39836,5,8
108,136,39938,1,8
84,152,40040,1,8
64,172,40142,1,8
52,196,40244,5,8
48,224,40347,1,8
52,252,40449,1,8
68,276,40551,1,8
92,292,40653,5,12
72,96,53714,5,4
88,112,53816,2,0,B|120:144|176:128,1,95,8|0
216,104,54122,2,0,B|312:88,1,95,0|8
432,344,54734,1,8
296,312,54938,1,0
336,176,55142,1,0
472,224,55347,5,0
456,240,55449,2,0,B|416:272|368:256,1,95,8|0
328,232,55755,2,0,B|224:216,1,95,0|8
80,312,56163,2,0,B|128:296|144:248,1,95,0|8
136,200,56469,2,0,B|96:160|112:96|168:80,1,142.5,0|8
440,96,56979,5,4
424,112,57081,2,0,B|376:144|328:120,1,95,8|0
296,96,57387,2,0,B|200:80,1,95,0|8
80,344,58000,1,8
208,288,58204,1,0
208,288,58306,1,0
208,288,58408,1,8
104,192,58612,5,0
104,192,58714,2,0,B|144:160|200:168,1,95,8|0
240,176,59020,1,0
240,176,59122,1,0
240,176,59224,1,0
432,152,59428,6,2,B|385:139|374:119|374:119|335:109|335:109|351:113,1,95,2|0
320,48,59734,2,2,B|273:60|262:80|262:80|223:90|223:90|239:86,1,95,2|0
208,152,60040,2,2,B|161:139|150:119|150:119|111:109|111:109|127:113,1,95,2|2
256,248,60448,6,0,B|302:260|313:280|313:280|352:290|352:290|336:286,1,95,14|0
432,224,60857,1,8
432,112,61061,1,0
328,64,61265,2,0,B|304:112|328:160,1,95,8|0
216,248,61673,1,8
216,248,61775,2,0,B|184:208|136:200,1,95,0|0
64,200,62081,5,8
64,200,62183,1,0
64,200,62285,1,0
88,88,62489,1,8
192,136,62693,1,0
192,136,62796,1,0
192,136,62898,1,8
320,72,63102,1,0
448,136,63306,2,0,B|472:184|456:240,1,95,12|0
432,264,63612,6,0,B|384:224|344:224|296:256,1,142.5,12|0
144,360,64122,2,0,B|240:344,1,95,8|0
301,252,64530,1,8
240,152,64734,1,0
312,64,64938,1,8
312,64,65040,1,0
312,64,65142,1,0
432,160,65347,6,0,B|338:174,1,95,8|0
152,120,65755,2,0,B|245:105,1,95,8|0
338,173,66163,1,8
280,272,66367,1,0
368,344,66571,1,0
384,340,66673,1,0
396,336,66775,1,0
408,332,66877,2,0,B|454:311|464:238|436:201,1,142.5,4|0
360,48,67387,6,0,B|256:64,1,95,8|0
184,136,67796,1,8
256,224,68000,1,0
160,288,68204,2,0,B|104:296,2,47.5,8|0|0
56,192,68612,5,8
56,192,68714,1,0
56,192,68816,1,0
152,136,69020,1,8
248,192,69224,1,0
248,192,69326,1,0
248,192,69428,1,8
384,176,69632,1,4
400,312,69836,1,4
264,328,70040,5,0
240,328,70142,2,0,B|181:327|151:244|175:212,1,142.5,8|0
260,76,70653,1,8
284,84,70755,1,0
340,160,70959,1,0
300,248,71163,1,0
324,256,71265,1,0
384,328,71469,2,0,B|432:352|480:336,1,95,8|0
496,168,71877,6,0,B|448:144|400:160,1,95,8|0
348,240,72285,1,8
403,158,72490,1,0
280,116,72693,2,0,B|224:96,3,47.5
212,92,73102,1,0
188,84,73204,1,0
164,76,73306,1,0
140,84,73408,1,0
120,96,73510,6,0,B|105:146|137:197,1,95,4|2
264,240,73918,1,8
264,240,74020,1,2
220,324,74224,2,2,B|120:336,1,95,10|0
80,340,74530,1,2
52,200,74734,2,2,B|108:184|148:216,1,95,10|0
300,320,75142,5,8
324,320,75244,1,8
348,312,75347,1,8
432,196,75551,1,8
332,96,75755,1,0
309,98,75857,1,8
285,108,75959,1,8
212,228,76163,1,0
148,100,76367,2,0,B|191:133|196:183,1,95,10|0
156,212,76673,6,0,B|116:244|44:228|28:180,1,142.5,10|2
44,76,77183,1,10
44,76,77285,1,0
256,200,77489,2,2,B|296:168|368:184|384:232,1,142.5,10|2
368,336,78000,1,10
368,336,78102,2,0,B|424:324,1,47.5
428,124,78408,5,8
404,116,78510,1,0
380,108,78612,2,0,B|324:84,3,47.5,0|0|8|0
324,160,79020,5,0
300,168,79122,1,0
280,176,79224,2,0,B|232:192,3,47.5,8|0|0|0
216,124,79632,5,8
192,116,79734,1,0
172,108,79836,1,0
148,104,79938,2,2,B|109:90|53:130|53:186,1,142.5,14|2
140,224,80449,1,10
140,224,80551,1,0
164,364,80755,1,2
64,308,80959,1,2
64,308,81061,1,0
140,224,81265,1,10
240,280,81469,1,0
328,208,81673,5,8
340,176,81775,1,8
348,144,81877,1,0
460,116,82081,1,8
328,208,82285,1,0
300,208,82387,1,8
272,208,82489,1,8
164,240,82693,1,0
88,152,82898,5,10
80,128,83000,1,0
72,104,83102,1,0
64,80,83204,2,2,B|88:40|168:40|200:80,1,142.5,14|2
256,192,83714,1,10
256,192,83816,1,0
320,312,84020,2,2,B|344:344|424:344|448:304,1,142.5,10|2
480,128,84530,1,10
480,128,84632,2,0,B|440:88|384:88,1,95,0|2
360,88,84938,5,8
320,96,85040,1,0
280,104,85142,1,8
240,104,85244,1,0
200,96,85347,2,0,B|168:88|152:64,3,47.5,0|0|8|0
128,64,85755,2,0,B|72:64|40:104,1,95
120,296,86163,5,0
120,296,86265,1,0
120,296,86367,1,0
120,296,86469,1,0
120,296,86571,2,0,B|224:296,1,95,4|0
392,240,86979,1,0
392,240,87081,1,0
392,240,87183,1,0
264,176,87387,1,0
264,176,87489,2,0,B|152:176,1,95
144,176,87796,1,0
56,104,88000,1,0
144,40,88204,6,0,B|192:56,1,47.5
296,88,88510,2,0,B|344:72,1,47.5
400,168,88816,1,0
388,172,88918,1,0
376,176,89020,1,0
364,180,89122,1,0
352,184,89224,1,0
340,188,89326,1,0
328,192,89428,2,0,B|208:192,1,95
48,136,89836,5,8
88,224,90040,1,8
176,256,90244,1,0
264,224,90449,1,8
296,136,90653,1,8
200,152,90857,1,0
264,224,91061,5,8
360,240,91265,1,8
448,200,91469,1,0
464,104,91673,1,8
392,40,91877,1,8
376,136,92081,1,0
464,104,92285,5,8
376,136,92489,1,8
448,200,92693,1,0
376,136,92898,1,8
264,224,93102,5,4
264,224,93204,2,0,B|234:273|264:315,1,95,0|0
267,332,93510,2,0,B|164:348,1,95
72,292,93918,1,0
72,292,94020,1,0
72,292,94122,1,0
148,204,94326,1,0
148,204,94530,1,0
68,92,94734,5,4
68,92,94836,2,0,B|68:148|108:180,1,95,0|0
148,204,95143,2,0,B|252:188,1,95,0|0
344,144,95551,1,0
356,145,95653,1,0
369,147,95755,1,0
381,149,95857,1,0
394,151,95959,2,0,B|498:169,1,95
320,344,96367,5,4
320,344,96469,2,0,B|272:320|272:264,1,95,0|0
256,264,96775,2,0,B|280:216|256:168,1,95,0|0
192,104,97183,1,0
192,104,97285,1,0
192,104,97387,1,0
104,144,97591,1,0
104,144,97796,1,0
236,200,98000,6,0,B|284:176,1,47.5,4|0
192,104,98306,2,0,B|240:80,1,47.5,0|0
348,104,98612,1,0
364,96,98714,1,0
380,88,98816,1,0
396,80,98918,1,0
412,72,99020,1,0
476,200,99224,2,0,B|420:224,2,47.5,0|0|0
216,212,99632,6,0,B|316:252,1,95,4|0
348,232,99938,2,0,B|387:195|384:98|334:85,1,142.5,8|0
224,32,100449,1,8
224,32,100551,1,0
224,32,100653,1,0
120,80,100857,2,0,B|28:116,1,95,8|0
144,288,101265,6,0,B|144:188,1,95,8|0
216,200,101571,2,0,B|260:116,1,95,8|0
328,140,101877,2,0,B|412:92,1,95,0|8
410,92,102184,1,0
410,92,102286,1,0
488,212,102489,2,0,B|488:260|456:300,1,95,8|0
264,328,102898,5,12
168,344,103102,1,0
80,304,103306,1,8
40,216,103510,1,8
104,144,103714,1,0
192,168,103918,1,8
168,80,104122,5,8
264,104,104326,1,0
360,104,104530,1,8
448,72,104734,1,8
432,168,104938,1,0
416,264,105142,1,8
336,320,105347,5,8
280,240,105551,1,0
352,176,105755,1,8
304,96,105959,1,8
416,40,106163,5,8
392,32,106265,2,0,B|336:32|304:64,1,95
264,80,106571,2,0,B|160:64,1,95,8|0
48,144,106979,1,8
48,144,107081,1,0
48,144,107183,1,0
136,256,107387,2,0,B|192:256|232:224,1,95,8|0
456,112,107796,6,0,B|456:208,1,95,8|0
384,196,108102,2,0,B|359:288,1,95,8|0
292,268,108408,2,0,B|244:348,1,95,0|8
243,349,108714,1,0
243,349,108816,1,0
112,212,109020,2,0,B|160:188|216:212,1,95,8|0
408,88,109428,6,0,B|360:112|304:88,1,95,8|0
272,72,109734,2,0,B|176:88,1,95,8|0
128,96,110040,1,0
256,328,110449,5,0
392,192,110653,1,8
256,56,110857,1,0
120,192,111061,1,8
120,192,111163,1,0
120,192,111265,2,0,B|160:224,3,47.5,0|0|10|0
216,160,111673,2,0,B|256:128,1,47.5,2|0
312,192,111877,5,8
336,192,111979,1,0
360,192,112081,1,0
384,192,112183,1,0
408,192,112286,2,6,B|456:224|456:288|408:336,1,142.499995753169,14|4
312,56,125755,5,12
328,72,125857,2,0,B|368:112|352:168,1,95
360,208,126163,2,0,B|456:224,1,95,8|0
264,160,126775,1,0
152,176,126979,1,8
40,192,127183,1,0
112,280,127387,5,8
128,264,127489,2,0,B|168:232|152:176,1,95,0|0
160,128,127795,2,0,B|136:80|160:32,1,95,8|0
376,32,128204,2,0,B|400:80|376:128,1,95,8|0
320,168,128510,2,0,B|360:128|432:136|464:184,1,142.5,8|0
364,316,129020,5,12
348,332,129122,2,0,B|308:364|252:356,1,95
220,324,129428,2,0,B|124:308,1,95,8|0
168,48,130040,5,0
56,72,130244,1,8
80,184,130449,1,0
192,160,130653,1,8
216,152,130755,2,0,B|328:128,1,95
336,128,131061,1,0
364,128,131163,1,0
392,136,131265,1,0
416,152,131367,1,0
428,176,131469,6,2,B|420:280,1,95,10|0
376,328,131775,2,2,B|320:336|280:304,1,95,10|0
240,252,132081,2,2,B|292:233|311:183,1,95,2|10
264,24,132489,5,4
160,72,132693,1,8
160,72,132796,1,0
160,72,132898,1,0
208,176,133102,1,8
128,296,133306,1,0
264,336,133510,2,0,B|320:328|346:290,1,95,8|0
360,248,133816,2,0,B|328:160,1,95,8|0
304,88,134122,5,2
304,88,134224,1,0
304,88,134326,1,8
440,128,134530,1,2
360,248,134734,1,10
360,248,134836,1,0
360,248,134938,1,0
224,204,135142,1,10
76,84,135346,2,2,B|124:52|180:68,1,95,2|8
212,84,135653,1,6
56,232,135959,5,8
56,232,136061,1,0
56,232,136163,1,0
104,336,136367,1,8
208,296,136571,2,0,B|256:272|304:296,1,95,0|8
336,328,136877,2,0,B|440:304,1,95
472,296,137183,1,8
448,176,137387,5,8
420,164,137489,1,8
392,156,137591,1,8
364,156,137693,1,8
336,164,137796,5,8
312,180,137898,1,8
284,192,138000,1,8
256,196,138102,1,8
228,192,138204,5,8
204,176,138306,1,8
176,168,138408,1,8
148,164,138510,1,8
120,164,138612,5,8
92,172,138714,1,8
68,188,138816,1,8
120,56,139020,6,0,B|168:72|216:56,1,95,0|8
236,52,139326,1,0
260,44,139428,1,0
344,120,139632,1,8
428,44,139836,1,0
480,144,140040,2,0,B|504:192|480:248,1,95,8|0
448,272,140347,2,0,B|344:288,1,95,8|0
280,296,140653,5,2
280,296,140755,1,0
280,296,140857,1,8
168,272,141061,1,2
152,160,141265,1,10
152,160,141367,1,0
152,160,141469,1,0
256,120,141673,1,10
336,200,141877,2,0,B|368:152|352:104,1,95,6|8
336,64,142183,1,6
56,32,142489,5,8
56,32,142591,1,0
56,32,142693,1,0
144,104,142898,1,8
88,200,143102,2,0,B|64:248|88:296,1,95,0|8
120,328,143408,2,0,B|216:352,1,95,0|0
256,360,143714,1,8
408,216,143918,5,8
424,104,144122,1,8
312,88,144326,1,8
288,200,144530,1,8
288,200,144632,2,0,B|248:240|176:232|144:208,1,142.5,8|8
80,92,145142,5,0
80,92,145244,1,0
168,52,145449,1,0
168,52,145551,1,4
232,120,145755,1,8
232,120,145857,1,0
232,120,145959,2,0,B|208:224,1,95,0|8
160,292,146367,1,0
240,344,146571,2,0,B|296:344|328:296,1,95,8|0
344,260,146877,2,0,B|452:228,1,95,8|0
504,216,147183,5,2
504,216,147285,1,0
504,216,147387,1,8
408,112,147591,1,2
280,176,147796,1,10
280,176,147898,1,0
280,176,148000,1,0
184,72,148204,1,10
80,168,148408,5,2
80,168,148510,1,0
80,168,148612,1,8
80,168,148714,2,2,B|48:208|72:272|128:280,1,142.5,6|8
144,280,149122,1,0
168,280,149224,1,0
184,176,149428,1,8
240,96,149632,2,0,B|288:120|288:184,1,95,0|8
296,216,149938,2,0,B|344:248|400:224,1,95
432,208,150244,1,8
464,72,150449,5,8
436,68,150551,1,8
408,64,150653,1,8
380,64,150755,1,8
352,72,150857,1,8
328,88,150959,1,8
308,108,151061,5,8
288,128,151163,1,8
260,140,151265,1,8
232,148,151367,1,8
204,148,151469,1,8
176,140,151571,1,8
152,128,151673,2,2,B|107:98|57:108,1,95,10|8
16,124,151979,1,6
116,328,152285,5,8
116,328,152387,1,0
116,328,152489,2,0,B|84:288|92:240,1,95,0|8
204,264,152898,1,0
296,332,153102,2,0,B|336:304|388:320,1,95,8|0
432,312,153408,2,0,B|459:221,1,95,8|0
480,152,153714,5,2
480,152,153816,1,0
480,152,153918,1,8
288,168,154122,1,2
432,48,154326,1,10
432,48,154428,1,0
432,48,154530,1,0
384,232,154734,1,10
288,168,154938,6,2,B|192:160,1,95,2|8
144,152,155244,2,2,B|80:160|64:216|80:256,1,142.5,2|10
176,312,155755,1,2
176,312,155857,1,0
288,272,156061,1,0
288,272,156163,2,2,B|318:181,1,95,2|8
336,136,156469,2,2,B|374:84|431:98|458:132,1,142.5,2|10
456,256,156979,5,8
440,272,157081,1,8
416,288,157183,1,8
392,296,157285,1,8
368,296,157387,5,8
344,288,157489,1,8
320,272,157591,1,8
304,256,157693,1,8
280,264,157796,5,8
258,269,157898,1,8
229,271,158000,1,8
204,266,158102,1,8
183,254,158204,5,8
167,235,158306,1,8
160,216,158408,1,8
160,192,158510,1,8
168,168,158612,5,12
104,344,171673,6,0,B|64:312|80:256,1,95,4|8
96,216,171979,2,0,B|232:168,1,142.5,0|8
368,216,172489,1,0
368,216,172591,1,0
368,216,172693,1,8
488,136,172898,2,0,B|488:80|456:47,1,95,0|8
312,48,173306,6,0,B|216:80,1,95,0|8
236,148,173612,2,0,B|140:180,1,95
160,248,173918,2,0,B|64:280,1,95,8|0
69,278,174224,1,0
69,278,174326,1,8
56,108,174530,2,0,B|88:68|144:68,1,95,0|8
328,72,174938,5,8
408,128,175142,1,8
384,216,175347,1,0
288,216,175551,1,8
256,128,175755,1,8
168,104,175959,1,0
192,200,176163,5,8
104,176,176367,1,8
56,256,176571,1,0
120,320,176775,1,8
208,288,176979,1,8
296,320,177183,1,0
280,224,177387,5,8
368,256,177591,1,8
352,160,177796,1,0
440,192,178000,1,8
424,48,178204,5,4
400,56,178306,2,0,B|304:88,1,95,8|0
264,96,178612,2,0,B|208:96|168:64,1,95,0|8
128,152,179020,1,0
128,152,179122,1,0
128,152,179224,1,8
212,196,179428,1,0
336,128,179632,1,8
472,172,179836,6,0,B|440:268,1,95,0|8
376,232,180142,2,0,B|344:320,1,95,0|0
276,292,180449,2,0,B|244:380,1,95,8|0
243,381,180755,1,0
243,381,180857,1,8
204,244,181061,2,0,B|234:153,1,95,0|8
80,40,181469,6,0,B|128:16|184:40,1,95,0|8
208,64,181775,2,0,B|304:48,1,95
352,56,182081,2,0,B|384:96|379:151,1,95,8|0
236,160,182489,1,8
164,224,182693,1,0
84,176,182898,1,8
12,240,183102,5,0
12,264,183204,2,0,B|20:320|76:336,1,95,8|0
116,344,183510,2,0,B|216:332,1,95,0|8
368,248,183918,6,0,B|400:200,1,47.5,0|0
472,152,184122,2,0,B|440:104,1,47.5,8|0
368,56,184326,5,0
348,36,184428,1,0
320,28,184530,1,8
292,32,184632,1,0
268,44,184734,2,0,B|228:80|228:132,1,95,4|8
200,164,185040,2,0,B|159:205|97:195|69:146,1,142.5,0|8
152,60,185551,1,0
152,60,185653,1,0
152,60,185755,1,8
76,156,185959,2,0,B|104:248,1,95,0|8
276,348,186367,6,0,B|324:320|343:268,1,95,0|8
278,240,186673,2,0,B|296:192|356:171,1,95
400,220,186979,2,0,B|452:198|467:140,1,95,8|0
463,153,187286,1,0
463,153,187388,1,8
324,24,187592,2,0,B|275:40|257:87,1,95,0|8
136,192,188000,5,8
64,256,188204,1,0
152,232,188408,1,8
121,323,188612,1,8
192,256,188816,5,0
210,350,189020,1,8
240,256,189224,1,8
302,328,189428,1,0
376,191,189632,5,8
448,128,189836,1,8
360,152,190040,1,0
391,61,190244,1,8
320,128,190449,5,8
302,34,190653,1,0
272,128,190857,1,8
210,56,191061,1,8
88,128,191265,5,4
96,152,191367,2,0,B|128:192|192:192,1,95,8|0
216,216,191673,2,0,B|312:192,1,95,0|8
368,292,192081,1,0
368,292,192183,1,0
368,292,192285,1,8
480,280,192489,2,0,B|512:232|496:184,1,95,0|8
424,72,192898,5,0
400,64,193000,2,0,B|344:48|296:80,1,95,8|0
264,96,193306,2,0,B|168:80,1,95,0|8
88,128,193714,1,0
88,128,193816,1,0
88,128,193918,1,8
168,248,194122,2,0,B|261:262,1,95,0|8
396,312,194530,5,0
380,296,194632,2,0,B|356:248|380:200,1,95,8|0
404,164,194939,1,0
500,176,195143,1,8
176,128,195551,5,8
200,32,195755,1,0
176,128,195959,1,8
272,152,196163,1,0
296,152,196265,1,0
320,152,196367,2,0,B|384:152,3,47.5,8|0|2|0
360,224,196775,2,0,B|416:224,1,47.5,10|0
392,296,196979,5,0
368,296,197081,1,0
344,296,197183,1,8
320,296,197285,1,0
296,296,197387,2,2,B|152:296,1,142.5,2|4
256,192,197898,12,0,203918
