osu file format v9

[General]
AudioFilename: 02- Switchback.mp3
AudioLeadIn: 2000
PreviewTime: 43053
Countdown: 0
SampleSet: Normal
StackLeniency: 0.8
Mode: 0
LetterboxInBreaks: 0

[Editor]
DistanceSpacing: 0.8
BeatDivisor: 4
GridSize: 8

[Metadata]
Title:Switchback
Artist:Celldweller
Creator:iMercurial
Version:Normal
Source:
Tags:Klayton Fixt Kei ziin

[Difficulty]
HPDrainRate:5
CircleSize:4
OverallDifficulty:4
ApproachRate:4
SliderMultiplier:1.6
SliderTickRate:2

[Events]
//Background and Video events
0,0,"SVH 02 Ch 01 Standard 1024x768.jpg"
//Break Periods
2,17338,22447
2,73253,78161
//Storyboard Layer 0 (Background)
//Storyboard Layer 1 (Fail)
//Storyboard Layer 2 (Pass)
//Storyboard Layer 3 (Foreground)
//Storyboard Sound Samples
//Background Colour Transformations
3,100,163,162,255

[TimingPoints]
196,535.714285714286,4,1,0,40,1,0
51624,-100,4,1,1,70,0,1
64481,-100,4,1,0,40,0,0
107338,-100,4,1,1,70,0,1
120196,-100,4,1,0,40,0,0
124481,-100,4,1,1,70,0,1
133053,-100,4,1,0,40,0,0

[Colours]
Combo1 : 0,0,255
Combo2 : 255,0,0

[HitObjects]
96,72,196,2,0,B|176:72|176:72|208:104|208:104|256:104,1,160,4|8
360,56,1267,2,0,B|360:136|360:136|328:168|328:168|328:216,1,160,0|8
368,328,2338,2,0,B|288:328|288:328|256:296|256:296|208:296,1,160,0|8
104,344,3410,2,0,B|104:264|104:264|136:232|136:232|136:184,1,160,0|8
232,120,4481,5,4
344,56,5017,1,8
400,168,5553,1,0
288,224,6088,1,8
408,264,6624,6,0,B|352:328|352:328|272:328,1,160,0|8
192,232,7696,1,0
104,320,8231,1,8
104,192,8767,6,8,B|104:112|104:112|192:112,1,160,0|8
256,112,9571,1,0
328,112,9838,2,0,B|408:112|408:112|408:192,1,160,0|8
408,320,10910,6,0,B|336:256|336:256|336:192,1,160,0|8
264,192,11713,1,0
192,192,11981,2,0,B|192:256|192:256|120:320,1,160,0|8
96,192,13053,5,4
160,80,13588,1,8
216,192,14124,1,0
272,304,14660,1,8
336,192,15196,5,0
448,128,15731,2,0,B|496:192|496:192|448:264,2,160,8|0|8
256,192,23767,12,0,25374
80,56,25910,6,0,B|160:56|160:56|224:104,1,160,0|8
224,232,26981,1,0
352,232,27517,1,8
440,56,28053,6,0,B|360:56|360:56|304:112,1,160,0|8
304,240,29124,1,0
176,240,29660,1,8
168,112,30196,5,0
72,200,30731,1,8
72,200,31267,2,0,B|136:256|136:256|216:256,1,160,0|8
312,80,32338,6,0,B|352:80|352:80|376:48,2,80,0|0|8
312,160,33410,2,0,B|352:160|352:160|384:192,2,80,0|0|8
184,160,34481,5,4
72,96,35017,2,0,B|32:168|32:168|80:232,1,160
184,160,36088,1,8
296,224,36624,6,0,B|336:152|336:152|288:88,2,160
184,160,38231,1,8
256,56,38767,6,0,B|296:56|296:56|328:80,1,80,0|0
336,144,39303,2,0,B|336:184|336:184|312:216,1,80,0|8
248,216,39838,2,0,B|208:216|208:216|176:192,1,80,0|0
168,128,40374,2,0,B|168:88|168:88|192:56,1,80,0|8
256,56,40910,6,0,B|288:80|288:80|288:120,2,80,0|0|8
128,56,41981,2,0,B|104:88|104:88|104:128,2,80,0|0|8
256,56,43053,6,0,B|336:56|336:56|392:112,1,160,4|8
392,240,44124,2,0,B|312:240|312:240|256:184,1,160,0|8
256,56,45196,1,0
168,144,45731,1,0
256,240,46267,2,0,B|296:240|296:240|336:272,2,80,0|8|8
128,240,47338,5,8
128,240,47874,2,0,B|128:160|128:160|176:88,1,160,8|0
304,96,48946,1,8
176,96,49481,1,0
48,96,50017,2,0,B|96:160|96:160|96:240,1,160,8|0
224,248,51088,1,8
352,240,51624,6,0,B|352:160|352:160|400:96,2,160,0|8|0
224,248,53231,1,8
352,248,53767,1,0
352,120,54303,2,0,B|272:120|272:120|216:56,1,160,8|0
88,56,55374,1,8
88,184,55910,6,0,B|136:248|136:248|216:248,2,160,0|8|0
88,312,57517,1,8
216,312,58053,1,0
152,200,58588,1,8
152,200,59124,2,0,B|152:120|152:120|216:72,1,160,0|8
344,72,60196,6,0,B|400:128|400:128|400:208,2,160,0|8|0
216,72,61803,5,8
88,72,62338,2,0,B|88:240,1,160,0|8
216,240,63410,1,0
344,240,63946,1,0
256,192,64481,12,8,66624
184,112,67160,1,0
184,112,67696,2,0,B|184:160|184:160|160:184|160:184|160:264,1,160,8|0
256,264,68767,1,0
256,192,69303,12,0,70374
120,72,70910,6,0,B|200:72|200:72|224:32|224:32|256:32,1,160,8|0
344,128,71981,2,0,B|264:128|264:128|240:168|240:168|208:168,1,160,8|0
104,248,73053,1,4
256,192,79481,12,0,81088
96,56,81624,6,0,B|96:96|96:96|120:128,2,80,0|0|8
224,56,82696,1,0
296,160,83231,1,8
168,160,83767,2,0,B|168:200|168:200|144:232,2,80,0|0|8
288,200,84838,2,0,B|336:200|336:200|360:224|360:224|440:224,1,160,0|8
440,96,85910,5,0
376,96,86178,1,0
264,96,86713,1,0
184,96,86981,2,0,B|144:96|144:96|112:64,2,80,0|0|8
184,224,88053,2,0,B|144:224|144:224|112:248,2,80,0|0|8
312,224,89124,2,0,B|352:224|352:224|376:256|376:256|456:256,1,160,0|8
448,128,90196,6,0,B|368:128|368:128|320:64,1,160,0|8
192,64,91267,2,0,B|144:120|144:120|56:120,1,160,0|8
56,248,92338,2,0,B|96:248|96:248|120:216|120:216|200:216,1,160,0|8
328,216,93410,2,0,B|368:216|368:216|392:248|392:248|472:248,1,160,0|8
408,136,94481,6,0,B|408:96|408:96|384:64,2,80,0|0|8
408,264,95553,2,0,B|408:304|408:304|384:336,2,80,0|0|8
304,192,96624,2,0,B|344:192|344:192|368:224,2,80,0|0|8
176,192,97696,2,0,B|136:192|136:192|112:224,2,80,8|8|8
96,88,98767,6,0,B|176:88|176:88|208:160,1,160,0|8
256,40,99838,1,0
304,160,100374,2,0,B|384:160|384:160|432:96,1,160,8|0
432,224,101446,1,8
304,224,101981,2,0,B|264:224|264:224|240:256|240:256|160:256,1,160,0|8
48,192,103053,6,0,B|88:192|88:192|104:232|104:232|184:232,1,160,4|8
312,232,104124,2,0,B|352:232|352:232|376:200|376:200|456:200,1,160,0|8
456,72,105196,1,0
328,72,105731,1,8
232,160,106267,2,0,B|192:160|192:160|160:136,2,80,0|0|8
104,152,107338,5,0
192,240,107874,1,8
288,152,108410,1,0
192,64,108946,1,8
320,64,109481,6,0,B|400:64|400:64|448:128,1,160,0|8
448,256,110553,2,0,B|368:256|368:256|320:320,1,160,0|8
192,296,111624,2,0,B|192:256|192:256|224:224|224:224|224:144,1,160,0|8
120,72,112696,2,0,B|120:112|120:112|88:136|88:136|88:216,1,160,0|8
192,288,113767,5,0
192,288,114303,2,0,B|272:288|272:288|328:232,1,160,8|0
424,144,115374,1,8
424,144,115910,2,0,B|368:80|368:80|288:80,1,160,0|8
168,80,116981,2,0,B|88:80|88:80|40:144,1,160,0|8
168,176,118053,6,0,B|80:176,3,80,0|8|0|8
216,176,119392,1,0
256,192,119928,12,0,122338
120,96,122874,6,0,B|200:96|200:96|224:136|224:136|264:136,1,160,0|8
376,192,123946,2,0,B|336:192|336:192|320:232|320:232|240:232,1,160,8|4
112,232,125017,5,0
112,232,125553,2,0,B|112:152|112:152|168:96,1,160,8|0
296,96,126624,1,0
168,96,127160,1,8
64,168,127696,2,0,B|64:248|64:248|120:304,1,160,0|8
248,304,128767,6,0,B|328:304|328:304|344:264|344:264|384:264,2,160,0|8|0
120,304,130374,1,8
120,176,130910,1,0
232,240,131446,1,8
336,312,131981,1,0
256,192,132517,12,0,135196
88,112,135731,6,0,B|168:112|168:112|208:184,1,160,0|8
208,312,136803,1,0
336,312,137338,1,8
256,192,137874,12,0,138946
200,72,139481,6,8,B|200:152|200:152|240:224,1,160
352,288,140553,2,0,B|352:208|352:208|320:136,1,160,0|8
256,248,141624,1,0
256,192,142160,12,4,143767
256,136,144303,6,8,B|256:56,2,80
256,264,145374,1,0
256,192,145910,12,0,147517
160,136,148053,6,0,B|240:136|240:136|312:176,1,160,8|0
392,272,149124,2,0,B|312:272|312:272|240:240,1,160,8|4
