osu file format v9

[General]
AudioFilename: So Long Sentiment.mp3
AudioLeadIn: 0
PreviewTime: 73670
Countdown: 2
SampleSet: Normal
StackLeniency: 1
Mode: 0
LetterboxInBreaks: 1

[Editor]
Bookmarks: 97812
DistanceSpacing: 0.8
BeatDivisor: 2
GridSize: 4

[Metadata]
Title:So Long Sentiment (Metal Remix)
Artist:Celldweller
Creator:Kei
Version:Normal
Source:
Tags:Paul Udarov Klayton FiXT Wish Upon A Blackstar Chapter 01 Groupees Exclusive mancusojuanmattos Snepif

[Difficulty]
HPDrainRate:4
CircleSize:4
OverallDifficulty:4
ApproachRate:6
SliderMultiplier:0.9
SliderTickRate:1

[Events]
//Background and Video events
0,0,"Wish.jpg"
//Break Periods
2,34012,45812
2,68678,72478
2,183345,192762
//Storyboard Layer 0 (Background)
//Storyboard Layer 1 (Fail)
//Storyboard Layer 2 (Pass)
//Storyboard Layer 3 (Foreground)
//Storyboard Sound Samples
//Background Colour Transformations
3,100,163,162,255

[TimingPoints]
12479,333.333333333333,4,2,0,50,1,0
23145,-80,4,1,0,40,0,0
107145,-80,4,1,0,40,0,1
128478,-80,4,1,0,40,0,0
161812,-80,4,1,0,40,0,1
183145,-80,4,1,0,40,0,0
193812,-80,4,2,0,50,0,0
199145,-80,4,1,0,40,0,0

[Colours]
Combo1 : 146,186,7
Combo2 : 239,71,41
Combo3 : 185,247,91
Combo4 : 255,120,55

[HitObjects]
144,192,12479,2,0,B|156:136|256:116|360:136|372:192,1,270,4|8
308,228,13812,2,0,B|256:302|256:302|204:228,1,180
256,180,14812,2,0,B|260:72|180:28,2,180,8|8|8
256,252,16479,5,0
184,268,16812,1,8
120,232,17145,1,0
84,168,17479,6,0,B|132:76|240:96,1,180,8|8
256,164,18479,2,0,B|357:182|405:90,1,180,0|0
472,120,19479,2,0,B|491:221|400:269,1,180,8|8
256,192,20479,12,4,23145
148,292,23812,6,0,B|256:344|368:292,1,224.999996647239
432,236,24812,1,8
376,64,25478,1,8
344,148,25812,6,0,B|288:120|288:52,2,112.499998323619,0|8|0
256,168,26812,2,0,B|144:168|144:168|76:168|76:240,1,224.999996647239,8|8
140,304,27812,2,0,B|252:304|252:304|320:304|320:232,1,224.999996647239,0|4
408,212,28812,5,8
256,112,29478,1,8
256,292,30145,1,8
96,212,30812,1,8
256,192,31812,12,4,33812
88,232,47478,6,0,B|144:316|236:264|236:264|256:364|364:348,1,337.499994970858,8|0
320,268,48812,1,8
400,304,49145,2,0,B|415:201|315:181|315:181|316:160|300:128,1,224.999996647239,0|8
228,184,50145,1,0
104,56,50812,5,8
228,184,51478,1,8
152,228,51812,2,0,B|40:228,2,112.499998323619,8|0|12
232,268,52812,6,0,B|304:232|304:232|316:280|360:296|360:296|404:280|416:232|416:232|488:268,2,337.499994970858,0|8|0
156,220,55145,1,8
260,76,55812,1,8
244,164,56145,6,0,B|472:164,1,224.999996647239
204,108,57812,5,12
136,276,58478,2,0,B|19:219|27:95,1,224.999996647239,8|8
100,148,59478,2,0,B|216:204|212:328,1,224.999996647239
304,328,60478,2,0,B|296:204|412:148,1,224.999996647239,8|8
488,96,61478,2,0,B|495:219|379:275,2,224.999996647239
312,128,63478,1,0
168,236,64145,6,0,B|100:128|168:24,2,224.999996647239,0|0|0
256,80,66145,1,0
344,236,66812,2,0,B|411:128|344:24,2,224.999996647239,0|0|0
256,244,68478,1,4
188,292,73812,5,4
144,116,74478,2,0,B|369:116,1,224.999996647239,2|2
324,292,75812,1,2
256,232,76145,1,10
80,192,76812,6,0,B|96:64|244:64,1,224.999996647239,10|8
212,152,77812,2,0,B|352:152|368:25,2,224.999996647239,2|0|6
148,320,79812,6,0,B|224:268|256:380|288:268|368:320,1,224.999996647239,0|2
256,176,81145,1,0
256,192,81812,12,4,84478
168,212,85145,5,2
236,272,85478,1,10
152,300,85812,1,2
224,352,86145,2,0,B|308:376|329:251|329:251|349:376|437:352,1,337.499994970858,10|0
428,264,87478,6,0,B|416:196|376:168,1,112.499998323619,10|2
284,168,88145,2,0,B|242:195|230:263,2,112.499998323619,10|2|10
332,340,89478,1,10
284,168,90145,6,0,B|264:244|176:156|176:156|212:288|212:288|80:228|80:228|156:324|76:332,1,562.499991618097,14|0
256,192,92478,12,4,95145
360,276,95812,6,0,B|388:164|360:52,1,224.999996647239
288,108,96812,2,0,B|252:160|192:160,1,112.499998323619,8|0
120,108,97478,2,0,B|92:218|120:330,1,224.999996647239,8|8
192,276,98478,2,0,B|250:275|286:327,1,112.499998323619,0|8
204,364,99145,1,0
292,208,99812,1,0
256,32,100478,5,4
224,208,101145,1,0
188,32,101812,1,0
324,148,102478,1,0
152,88,103145,1,4
324,148,103812,5,6
256,296,104478,1,6
256,192,105145,12,6,107145
388,84,107812,6,0,B|420:192|420:192|388:300,1,224.999996647239,2|0
252,180,109145,1,2
120,300,109812,2,0,B|88:192|88:192|120:84,1,224.999996647239,0|2
208,100,110812,5,10
208,280,111478,1,10
228,192,111812,1,0
296,252,112145,6,0,B|352:264|408:252,1,112.499998323619,10|6
352,184,112812,2,0,B|284:80|160:80,1,224.999996647239,10|10
96,140,113812,2,0,B|95:260|199:328,1,224.999996647239,0|2
288,324,114812,1,10
376,332,115145,1,0
412,248,115478,5,10
352,180,115812,1,2
280,232,116145,2,0,B|194:160,2,112.499998323619,10|2|8
228,60,117478,6,0,B|178:17|162:117|162:117|146:53|146:53|122:49|114:25|114:25|106:49|82:53|82:53|66:117|66:117|42:13|2:61,1,449.999993294478,10|10
0,152,119145,2,0,B|0:204|40:228|40:228|188:228|188:228|232:204|232:144,1,337.499994970858,0|10
256,324,120812,5,10
344,328,121145,2,0,B|344:260|280:232,1,112.499998323619,2|10
368,188,121812,2,0,B|313:164|313:97,1,112.499998323619,2|8
156,188,122812,6,0,B|136:296|136:296|12:336,1,224.999996647239,10|10
36,240,123812,2,0,B|56:131|56:131|165:96,1,224.999996647239,2|0
256,112,124812,1,10
256,200,125145,1,2
344,200,125478,1,10
360,288,125812,6,0,B|256:368|152:288,2,224.999996647239,0|2|0
344,200,127478,1,8
256,200,127811,1,0
256,108,128145,1,8
344,108,128478,5,4
296,32,128812,2,0,B|176:24|84:96,1,224.999996647239,10|10
48,176,129812,2,0,B|167:183|256:108,2,224.999996647239,2|2|0
56,264,131478,6,0,B|123:322|204:280|204:280|213:349|256:392|298:349|308:280|308:280|388:322|451:264,2,506.249992456287,2|2|0
132,216,134812,1,10
212,172,135145,1,0
256,92,135478,1,10
300,172,135812,1,0
380,216,136145,1,8
256,192,136478,12,4,139145
144,296,139812,6,0,B|368:296,1,224.999996647239,2|2
368,204,140812,2,0,B|256:180|144:204,1,224.999996647239,10|8
68,248,141812,5,0
76,160,142145,2,0,B|152:81|256:105|256:105|360:81|439:156,2,393.749994132668,10|2|0
128,236,144812,6,0,B|182:293|256:348|256:348|332:293|388:240,2,337.499994970858,14|0|0
256,192,147145,12,4,149812
192,48,150478,6,0,B|192:160|376:192|192:228|192:352,1,337.499994970858,0|8
132,280,151812,1,0
116,192,152145,2,0,B|400:192,2,281.249995809048,8|0|0
132,104,154145,1,8
132,104,154478,1,0
304,48,155145,5,4
384,92,155478,2,0,B|436:192,1,112.499998323619,8|0
392,272,156145,2,0,B|340:172,1,112.499998323619,8|0
280,240,156812,1,8
320,320,157145,1,0
232,320,157478,2,0,B|184:276|192:212,1,112.499998323619,8|4
360,156,158478,6,4,B|256:116|256:116|148:156,2,224.999996647239,6|2|6
256,192,160478,12,6,161812
316,268,162478,6,0,B|200:268,1,112.499998323619,2|10
256,196,163145,1,0
228,112,163478,6,0,B|288:99|328:147,2,112.499998323619,10|2|10
68,192,164812,2,0,B|68:120|144:36|211:37,1,224.999996647239,10|10
296,36,165812,2,0,B|358:34|434:118|434:190,1,224.999996647239,2|0
440,280,166812,6,0,B|377:281|301:197|301:125,1,224.999996647239,10|10
212,128,167812,2,0,B|211:199|135:283|73:282,1,224.999996647239,2|0
152,328,168812,6,0,B|224:320|224:320|256:344|256:344|288:320|288:320|360:328,2,224.999996647239,10|10|10
196,248,170478,1,2
256,180,170812,1,10
316,248,171145,1,2
256,180,171478,2,0,B|280:120|340:108,1,112.499998323619,8|0
292,32,172145,6,0,B|256:84|200:96,1,112.499998323619,10|6
132,152,172812,2,0,B|48:120|48:120|48:208|-15:232|-15:232|48:252|48:344|48:344|128:308,1,449.999993294478,10|10
172,232,174478,6,0,B|400:232,1,224.999996647239,2|0
400,140,175478,2,0,B|176:140,2,224.999996647239,10|10|10
480,300,177478,6,0,B|512:192|480:76,1,224.999996647239,10|10
392,56,178478,1,2
304,44,178812,1,10
216,44,179145,1,0
128,56,179478,5,10
40,72,179812,2,0,B|36:132|92:172|168:172|204:116,1,224.999996647239,2|0
248,196,180812,2,0,B|283:141|359:141|415:181|411:241,1,224.999996647239,10|10
320,256,181812,1,2
256,320,182145,1,8
256,52,183145,5,4
136,300,193812,5,0
48,296,194145,2,0,B|56:208|172:184|216:260,1,224.999996647239,8|8
304,256,195145,2,0,B|346:182|462:206|470:294,1,224.999996647239,0|0
380,300,196145,1,8
312,360,196478,6,0,B|200:360,1,112.499998323619,0|8
256,288,197145,2,0,B|240:216|296:140|256:64,1,224.999996647239
184,120,198145,2,0,B|120:108|80:144|16:112,2,168.749997485429,8|0|4
152,204,199478,5,10
96,276,199812,2,0,B|152:296|152:296|200:276,1,112.499998323619,2|10
256,204,200478,2,0,B|368:204,1,112.499998323619,0|10
444,256,201145,2,0,B|464:207|464:207|444:151,1,112.499998323619,2|10
364,112,201812,6,0,B|268:100|256:124|256:124|240:100|148:112,1,224.999996647239,0|2
180,196,202812,2,0,B|208:320|256:344|256:344|304:320|328:196,1,337.499994970858,8|2
256,144,204145,1,10
172,112,204478,6,0,B|60:112,1,112.499998323619,0|10
116,40,205145,2,0,B|228:40,1,112.499998323619,2|10
312,72,205812,1,0
256,144,206145,1,10
344,156,206478,2,0,B|408:156|432:212,1,112.499998323619,2|10
256,192,207478,12,0,209812
256,192,210145,12,0,212478
256,192,212812,12,4,215145
172,284,215645,6,0,B|256:320|336:284,1,168.749997485429,0|4
256,176,216645,1,0
200,52,217145,2,0,B|256:28|308:52,1,112.499998323619,4|0
340,136,217812,1,4
