osu file format v9

[General]
AudioFilename: So Long Sentiment.mp3
AudioLeadIn: 0
PreviewTime: 73670
Countdown: 2
SampleSet: Soft
StackLeniency: 1
Mode: 0
LetterboxInBreaks: 1

[Editor]
Bookmarks: 18812,22145,31145,48812,51145,78312,98812,110145,120812,140478,167145,167978,26156,26956,27336,27676
DistanceSpacing: 0.8
BeatDivisor: 4
GridSize: 4

[Metadata]
Title:So Long Sentiment (Metal Remix)
Artist:Celldweller
Creator:Kei
Version:Hard
Source:
Tags:Paul Udarov Klayton FiXT Wish Upon A Blackstar Chapter 01 Groupees Exclusive mancusojuanmattos Snepif

[Difficulty]
HPDrainRate:6
CircleSize:4
OverallDifficulty:6
ApproachRate:8
SliderMultiplier:1.2
SliderTickRate:1

[Events]
//Background and Video events
0,0,"Wish.jpg"
//Break Periods
2,34012,43728
2,68678,72478
2,183345,193062
//Storyboard Layer 0 (Background)
//Storyboard Layer 1 (Fail)
//Storyboard Layer 2 (Pass)
//Storyboard Layer 3 (Foreground)
//Storyboard Sound Samples
//Background Colour Transformations
3,100,163,162,255

[TimingPoints]
12479,333.333333333333,4,2,0,50,1,0
23145,-80,4,1,0,40,0,0
107145,-80,4,1,0,40,0,1
128478,-80,4,1,0,40,0,0
161812,-80,4,1,0,40,0,1
183145,-80,4,1,0,40,0,0
193812,-80,4,2,0,50,0,0
199145,-80,4,1,0,40,0,0
219978,-80,4,2,0,25,0,0

[Colours]
Combo1 : 146,186,7
Combo2 : 239,71,41
Combo3 : 185,247,91
Combo4 : 255,120,55

[HitObjects]
424,184,12478,2,0,B|384:128|296:136,1,120,4|8
336,232,13145,1,0
248,280,13479,2,0,B|288:336|376:328,1,120,8|0
336,232,14145,2,0,B|232:176,1,120,8|0
192,152,14645,1,0
152,128,14812,1,8
56,112,15145,6,0,B|72:48|136:32,1,120,0|8
200,104,15812,2,0,B|256:80|256:80|308:104|308:104,1,120,0|8
376,32,16479,2,0,B|440:48|456:112,1,120,0|8
384,172,17145,2,0,B|320:172,1,60
288,204,17479,2,0,B|228:204,1,60,8|0
192,172,17812,6,0,B|132:172,2,60,4|0|8
164,264,18479,2,0,B|196:328|256:332|256:332|320:328|348:264,1,240
256,244,19479,2,0,B|256:124,1,120,8|0
212,104,19979,1,0
168,80,20145,1,8
256,40,20479,5,0
256,40,20645,1,0
256,40,20812,1,8
300,104,21145,1,0
344,80,21311,1,0
300,104,21479,1,8
164,195,21812,2,0,B|200:195|319:231|319:334|256:332|192:334|192:235|312:196|352:196,1,360
32,240,23145,6,4,B|12:189|12:189|52:104,1,149.999997764826,4|0
96,216,23812,2,0,B|136:302|136:302|116:353,1,149.999997764826,0|8
212,280,24478,1,0
256,324,24645,1,0
300,280,24812,1,8
396,352,25145,2,0,B|376:301|376:301|416:214,1,149.999997764826,2|10
460,104,25812,2,0,B|500:190|500:190|480:241,2,149.999997764826,0|8|0
364,32,26812,6,0,B|320:100|364:176,1,149.999997764826,8|0
256,120,27478,1,8
148,32,27812,2,0,B|192:100|148:176,1,149.999997764826,2|10
256,228,28478,5,4
172,316,28812,1,8
116,292,28978,1,0
88,240,29145,1,0
196,184,29478,2,0,B|256:228,1,74.9999988824129,8|0
315,184,29812,2,0,B|255:228,1,74.9999988824129,0|0
256,228,30145,1,8
256,108,30478,2,0,B|256:33,2,74.9999988824129,2|0|10
424,240,31145,5,0
396,292,31312,1,0
340,316,31478,1,8
424,240,31812,6,0,B|424:92,1,149.999997764826,0|8
316,144,32478,1,0
196,144,32812,1,8
88,90,33145,2,0,B|88:240,1,149.999997764826,0|8
88,240,33812,1,4
376,316,44478,6,0,B|376:232|376:232|432:168|376:96,1,224.999996647239,0|8
212,168,45478,1,8
268,184,45645,1,0
328,168,45812,1,8
224,228,46145,2,0,B|152:264|152:264|80:264,1,149.999997764826,0|0
56,148,46812,2,0,B|128:112|128:112|200:112,1,149.999997764826,8|4
296,44,47478,6,0,B|348:112|296:184,1,149.999997764826,0|0
316,240,47978,1,0
316,300,48145,1,0
268,340,48312,1,0
208,348,48478,1,0
208,228,48812,2,0,B|156:160|208:88,1,149.999997764826,0|6
88,92,49478,2,0,B|140:160|86:230,1,149.999997764826,0|6
208,228,50145,1,0
328,228,50478,6,0,B|380:160|328:90,1,149.999997764826,0|6
448,92,51145,2,0,B|396:160|449:230,1,149.999997764826,2|6
372,320,51812,1,8
312,320,51978,1,0
256,336,52145,1,8
200,316,52312,1,8
140,320,52478,1,4
52,240,52812,6,0,B|120:200|196:212,1,149.999997764826,0|0
256,196,53312,1,0
315,212,53478,2,0,B|392:200|460:240,1,149.999997764826,0|0
476,120,54145,2,0,B|399:132|328:100,1,149.999997764826,0|6
256,196,54812,1,0
268,76,55145,1,6
160,128,55478,1,0
148,248,55812,1,0
160,128,56145,5,2
52,184,56478,1,2
60,64,56812,1,2
24,344,57812,5,0
84,348,57978,1,0
140,324,58145,1,8
184,284,58312,1,0
192,224,58478,1,0
256,328,58812,1,8
320,224,59145,5,0
328,284,59311,1,0
372,324,59478,1,8
428,348,59645,1,0
488,344,59811,1,0
432,236,60145,2,0,B|424:152|356:112,1,149.999997764826,8|0
432,20,60812,2,0,B|439:103|506:143,1,149.999997764826,8|0
432,236,61478,2,0,B|348:243|308:310,1,149.999997764826,10|2
203,310,62145,2,0,B|163:243|80:236,1,149.999997764826,10|2
68,116,62812,5,8
188,96,63145,1,0
256,196,63478,1,8
324,96,63812,1,0
444,116,64145,5,8
448,176,64312,1,0
444,236,64478,1,0
340,180,64812,2,0,B|324:260|368:324,1,149.999997764826,8|0
256,280,65478,1,8
172,180,65812,2,0,B|188:260|144:324,1,149.999997764826,2|8
68,236,66478,5,0
64,176,66644,1,0
68,116,66811,1,8
184,84,67145,2,0,B|332:84,1,149.999997764826,0|10
256,176,67812,2,0,B|256:324,1,149.999997764826,0|10
256,326,68478,1,4
80,260,73812,5,4
132,228,73978,1,0
160,176,74145,1,10
216,156,74312,1,0
256,112,74478,1,2
296,156,74645,1,0
352,176,74812,1,10
380,228,74978,1,0
432,260,75145,1,2
356,352,75478,1,10
356,352,75812,2,0,B|264:272|256:164|248:272|152:352,1,299.999995529652,2|4
108,236,76812,5,14
76,184,76978,1,2
76,124,77145,1,0
108,72,77312,1,2
228,80,77645,2,0,B|260:148|228:228,1,149.999997764826,2|2
288,240,78145,1,8
344,224,78312,2,0,B|312:146|344:78,1,149.999997764826,2|2
288,60,78812,1,8
408,60,79145,6,2,B|532:188|408:328,1,299.999995529652,2|0
344,224,80145,1,10
344,284,80312,1,0
316,336,80478,1,2
256,340,80645,1,0
196,336,80812,1,10
168,284,80978,1,0
168,224,81145,1,2
256,192,81478,12,4,84478
204,268,84812,22,0,B|256:324|256:324|308:268,1,149.999997764826,10|2
256,160,85478,2,0,B|256:236,2,74.9999988824129,10|0|2
184,64,86145,2,0,B|332:64,2,149.999997764826,10|0|8
40,188,87145,37,4
128,268,87478,2,0,B|168:252|164:208,1,74.9999988824129,10|0
224,192,87812,1,2
256,244,87978,1,0
288,192,88145,1,8
344,208,88312,2,0,B|340:251|380:267,1,74.9999988824129,2|0
440,280,88645,1,2
344,208,88978,2,0,B|392:140|472:144,1,149.999997764826,2|0
472,144,89478,1,2
256,48,90145,6,2,B|152:28|156:124|156:124|56:112|72:216,1,299.999995529652,14|10
124,240,90978,1,0
172,276,91145,1,2
228,300,91312,1,0
288,300,91478,1,10
340,276,91645,1,0
388,240,91812,1,2
256,192,92145,12,4,95145
168,72,95478,6,0,B|144:132|76:108|76:108|88:164|16:196,1,224.999996647239,8|0
48,248,96145,1,8
100,276,96312,2,0,B|130:206|186:218|186:218|162:150|224:128,1,224.999996647239,0|8
300,220,97145,1,0
416,240,97478,6,0,B|404:324|316:340,1,149.999997764826,8|4
300,220,98145,2,0,B|312:136|400:120,1,149.999997764826,8|0
396,120,98645,1,0
396,120,98812,6,0,B|310:104|298:20,1,149.999997764826,8|0
256,60,99312,1,0
208,24,99478,2,0,B|196:107|110:123,1,149.999997764826,8|0
112,244,100145,6,0,B|24:232|0:152,2,149.999997764826,8|4|8
120,364,101145,1,0
172,332,101312,1,0
208,284,101478,1,8
256,248,101645,1,0
304,284,101812,1,0
340,332,101978,1,0
392,364,102145,1,8
416,248,102478,2,0,B|464:104,1,149.999997764826,0|8
368,36,103145,6,0,B|316:180,1,149.999997764826,4|8
144,36,103812,2,0,B|196:180,1,149.999997764826,6|8
96,248,104478,2,0,B|48:104,2,149.999997764826,6|8|6
256,192,105478,12,6,107145
384,92,107478,5,10
328,68,107645,1,0
280,104,107812,1,2
272,164,107978,1,0
316,204,108145,1,10
436,200,108478,6,0,B|440:288|364:320,1,149.999997764826,0|10
256,264,109145,1,2
148,320,109478,2,0,B|72:288|76:200,1,149.999997764826,10|0
128,92,110145,5,10
184,68,110312,1,0
232,104,110479,1,2
240,164,110645,1,0
196,204,110812,1,10
128,92,111145,1,2
196,204,111478,1,8
268,300,111812,2,0,B|344:300,1,74.9999988824129
344,240,112145,2,0,B|268:240,1,74.9999988824129,10|0
344,240,112478,6,0,B|432:248|468:172,1,149.999997764826,6|10
440,120,112978,1,0
408,68,113145,2,0,B|320:60|285:134,1,149.999997764826,2|10
256,184,113645,1,0
224,132,113812,2,0,B|189:58|101:66,1,149.999997764826,0|10
60,112,114312,1,0
60,172,114478,2,0,B|60:320,1,149.999997764826,2|10
176,344,115145,1,0
256,252,115478,5,10
176,160,115812,1,2
188,280,116145,1,10
252,176,116478,1,2
140,224,116812,1,8
252,176,117145,6,0,B|316:164|316:164|352:88|372:356|392:88|424:164|424:164|496:176,1,299.999995529652,2|6
448,288,118145,2,0,B|376:336|308:288,1,149.999997764826,10|2
64,288,118812,2,0,B|136:336|204:288,1,149.999997764826,10|0
204,168,119478,2,0,B|136:120|64:168,1,149.999997764826,10|2
204,168,120145,2,0,B|352:168,1,149.999997764826,10|0
356,288,120812,6,0,B|206:288,1,149.999997764826,10|2
204,18,121478,2,0,B|204:168,1,149.999997764826,10|2
356,18,122145,2,0,B|356:168,1,149.999997764826,8|0
280,72,122812,2,0,B|280:148,1,74.9999988824129,10|0
219,171,123145,6,0,B|215:219|247:236,1,74.9999988824129,6|0
307,236,123478,2,0,B|340:220|335:171,2,74.9999988824129,10|0|2
416,284,124145,2,0,B|276:352|125:283,1,299.999995529652,10|10
8,268,125145,2,0,B|36:188|112:168,1,149.999997764826,2|10
168,144,125645,1,0
228,144,125812,1,0
348,144,126145,5,10
228,144,126478,1,2
288,144,126645,1,0
348,144,126812,1,10
364,264,127145,2,0,B|212:264,2,149.999997764826,2|8|0
288,356,128145,1,8
288,168,128478,5,4
408,152,128812,1,10
396,92,128978,1,0
348,52,129145,1,2
288,44,129312,1,0
232,64,129478,1,10
288,168,129812,2,0,B|204:200|148:144,1,149.999997764826,2|10
288,168,130478,2,0,B|314:253|393:263,1,149.999997764826,2|10
300,340,131145,6,0,B|212:348|144:312,1,149.999997764826,4|2
108,280,131645,1,2
80,228,131812,1,0
80,228,131978,1,2
60,172,132145,1,8
56,112,132312,2,0,B|136:108|180:180,1,149.999997764826,2|2
180,180,132812,1,8
228,88,132978,2,0,B|268:152|356:160,1,149.999997764826,2|2
352,160,133478,1,8
340,280,133812,6,0,B|428:276|456:200,2,149.999997764826,6|8|0
352,160,134812,1,10
312,204,134978,1,0
256,228,135145,1,2
200,204,135312,1,0
160,160,135478,2,0,B|88:120,2,74.9999988824129,2|0|2
256,192,136145,12,4,139145
60,248,139478,6,0,B|136:256|136:256|188:308,1,149.999997764826,10|2
196,192,140145,1,10
60,136,140478,2,0,B|136:128|136:128|188:76,1,149.999997764826,2|10
304,120,141145,2,0,B|348:192|304:264,2,149.999997764826,2|8|4
196,192,142145,6,0,B|424:192,1,224.999996647239,10|2
420,192,142812,1,8
420,252,142978,1,2
420,252,143145,1,0
420,252,143312,1,2
420,312,143478,1,8
420,312,143645,2,0,B|195:312,1,224.999996647239,2|10
256,32,144812,6,2,B|356:-16|476:84|420:192,1,299.999995529652,14|10
360,192,145645,1,0
300,176,145812,1,2
256,136,145978,1,0
212,176,146145,1,10
152,192,146312,1,0
152,192,146478,1,2
256,192,146812,12,4,149812
368,224,150145,5,8
360,284,150312,1,0
316,328,150478,1,0
256,340,150645,1,0
256,340,150812,1,8
196,336,150978,2,0,B|196:284|196:284|212:228|264:224,1,149.999997764826,0|0
264,164,151478,2,0,B|211:159|195:103|195:103|195:51,1,149.999997764826,8|0
256,44,151978,5,0
256,44,152145,1,8
316,56,152312,1,0
360,100,152478,1,0
368,160,152645,1,0
368,160,152812,1,8
340,212,152978,2,0,B|188:212,1,149.999997764826,0|0
132,224,153478,1,8
80,264,153645,6,0,B|124:332|208:328,1,149.999997764826,0|0
256,292,154145,1,8
300,252,154312,2,0,B|432:240|488:348,1,224.999996647239,0|8
256,192,155145,5,4
256,192,155478,1,8
132,192,155812,1,0
196,92,156145,1,8
316,92,156478,1,0
384,192,156812,1,8
384,192,156978,1,0
294,272,157312,2,0,B|214:272,3,74.9999988824129,0|8|0|4
256,60,158478,5,6
308,200,158812,1,8
180,120,159145,1,6
332,120,159478,1,8
204,200,159812,1,6
256,192,159978,12,6,161812
48,112,162145,6,0,B|72:192|160:192,1,149.999997764826,10|2
220,192,162645,1,0
220,132,162812,2,0,B|244:51|332:51,1,149.999997764826,10|0
220,192,163312,5,0
280,192,163478,2,0,B|368:192|392:272,1,149.999997764826,10|2
220,192,163978,1,0
220,252,164145,2,0,B|219:340|139:364,2,149.999997764826,10|0|10
220,192,164978,5,0
280,192,165145,1,2
328,228,165312,1,0
348,284,165478,1,10
368,164,165812,1,2
320,132,165978,1,0
372,104,166145,1,8
256,68,166478,2,0,B|180:68,1,74.9999988824129,0|0
105,128,166812,2,0,B|180:128,1,74.9999988824129,10|0
259,188,167145,6,0,B|184:188,1,74.9999988824129,6|0
184,248,167478,2,0,B|108:248,2,74.9999988824129,10|0|2
184,308,167978,2,0,B|259:308,1,74.9999988824129,0|10
376,340,168478,2,0,B|400:192|400:192|376:40,1,299.999995529652,0|2
256,44,169478,6,0,B|232:192|232:192|256:340,1,299.999995529652,10|10
160,268,170478,1,2
108,236,170645,1,0
68,192,170812,1,10
108,148,170978,1,0
160,116,171145,1,2
252,192,171478,2,0,B|400:192,2,149.999997764826,8|0|10
252,312,172478,6,0,B|100:312,1,149.999997764826,6|10
168,212,173145,1,2
168,152,173312,1,0
168,92,173478,1,10
64,152,173812,5,0
40,96,173978,1,0
64,40,174145,1,10
168,92,174478,1,2
276,40,174812,1,10
300,96,174979,1,0
276,152,175145,1,0
396,160,175478,6,0,B|320:192|300:268,1,149.999997764826,10|2
388,352,176145,2,0,B|463:319|483:244,2,149.999997764826,10|0|8
268,348,177145,2,0,B|192:348,1,74.9999988824129
192,288,177478,2,0,B|267:288,1,74.9999988824129,10|0
268,228,177812,5,6
236,176,177978,1,0
188,140,178145,1,10
276,56,178478,1,2
300,112,178644,1,0
352,144,178811,1,10
380,260,179145,1,0
352,144,179478,5,10
276,56,179812,1,2
188,140,180145,1,10
268,228,180478,1,0
152,252,180812,2,0,B|84:212|84:124,1,149.999997764826,10|2
24,232,181478,2,0,B|91:271|91:357,1,149.999997764826,10|2
256,192,182145,12,4,183145
376,128,193812,5,0
352,184,193978,1,0
376,240,194145,1,8
352,296,194312,1,0
376,352,194478,1,0
352,296,194645,1,0
292,296,194812,2,0,B|256:276|220:296,1,74.9999988824129,8|0
160,296,195145,5,0
128,348,195312,1,8
160,296,195478,1,8
140,240,195645,1,0
164,184,195812,1,0
140,128,195978,1,0
140,128,196145,1,8
164,72,196312,6,0,B|236:44|312:72,1,149.999997764826,0|0
352,116,196812,1,8
396,156,196978,1,0
420,212,197145,1,0
428,272,197312,1,0
428,272,197478,1,8
416,332,197645,2,0,B|344:360|268:336,1,149.999997764826,0|8
268,276,198145,5,8
208,276,198312,2,0,B|168:264|136:280,1,74.9999988824129,0|8
80,256,198645,2,0,B|92:216|76:184,1,74.9999988824129,0|8
76,124,198978,1,0
212,188,199145,5,4
332,208,199478,1,10
392,208,199645,1,2
432,252,199812,1,0
448,308,199978,1,2
448,308,200145,1,8
416,360,200312,6,0,B|256:360,1,149.999997764826,2|2
204,364,200812,1,10
204,364,200979,1,0
148,348,201145,1,2
104,308,201312,1,0
104,248,201479,1,10
104,248,201645,1,0
204,100,201978,5,2
204,100,202145,2,0,B|224:176|224:176|204:248,1,149.999997764826,8|2
256,276,202645,1,0
308,244,202812,2,0,B|288:175|288:175|308:99,2,149.999997764826,10|0|10
428,248,203812,1,2
308,244,204145,1,8
256,36,204478,5,0
196,36,204645,1,2
136,52,204812,1,10
92,92,204978,1,0
60,144,205145,1,2
52,204,205312,1,0
64,264,205478,1,8
64,264,205645,2,0,B|172:300|288:264,1,224.999996647239,2|10
405,200,206478,2,0,B|297:164|184:200,1,224.999996647239,2|0
256,192,207478,12,0,209812
256,192,210145,12,0,212478
256,192,212812,12,4,215145
164,192,215645,5,0
256,36,216145,1,4
344,192,216645,1,0
256,348,217145,5,4
256,288,217312,1,0
256,228,217478,1,0
256,168,217645,1,0
256,108,217812,1,4
256,192,218145,12,2,220145
