osu file format v9

[General]
AudioFilename: So Long Sentiment.mp3
AudioLeadIn: 0
PreviewTime: 73670
Countdown: 2
SampleSet: Soft
StackLeniency: 1
Mode: 0
LetterboxInBreaks: 1

[Editor]
Bookmarks: 14479,54478,97812,141478
DistanceSpacing: 0.8
BeatDivisor: 2
GridSize: 4

[Metadata]
Title:So Long Sentiment (Metal Remix)
Artist:Celldweller
Creator:Kei
Version:Easy
Source:
Tags:Paul Udarov Klayton FiXT Wish Upon A Blackstar Chapter 01 Groupees Exclusive mancusojuanmattos Snepif

[Difficulty]
HPDrainRate:1
CircleSize:3
OverallDifficulty:2
ApproachRate:3
SliderMultiplier:0.8
SliderTickRate:1

[Events]
//Background and Video events
0,0,"Wish.jpg"
//Break Periods
2,34012,45812
2,68678,72705
2,183345,192372
//Storyboard Layer 0 (Background)
//Storyboard Layer 1 (Fail)
//Storyboard Layer 2 (Pass)
//Storyboard Layer 3 (Foreground)
//Storyboard Sound Samples
//Background Colour Transformations
3,100,163,162,255

[TimingPoints]
12479,333.333333333333,4,2,0,50,1,0
23145,-80,4,1,0,40,0,0
107145,-80,4,1,0,40,0,1
128478,-80,4,1,0,40,0,0
161812,-80,4,1,0,40,0,1
183145,-80,4,1,0,40,0,0
193812,-80,4,2,0,50,0,0
199145,-80,4,1,0,40,0,0

[Colours]
Combo1 : 146,186,7
Combo2 : 239,71,41
Combo3 : 185,247,91
Combo4 : 255,120,55

[HitObjects]
140,144,12479,6,0,B|168:44|168:44|228:72|256:36|256:36|284:72|344:44|344:44|372:144,1,400,4|8
256,200,14812,1,8
140,252,15479,2,0,B|64:384|224:355|224:355|256:392|288:356|288:356|448:384|377:253,1,480,8|8
436,224,17812,5,4
476,172,18145,2,0,B|456:96|304:96|276:172,1,240,8|0
276,232,19479,2,0,B|250:302|98:302|78:226,1,240,8|0
76,164,20812,1,8
196,124,21479,2,0,B|275:2|307:86|307:86|339:2|419:124,1,320,8|8
448,200,23145,6,0,B|444:312|332:348,1,199.999997019768,4|0
176,348,24478,2,0,B|66:312|64:200,1,199.999997019768,0|0
64,120,25478,1,8
156,248,26145,6,0,B|256:136|256:136|356:248,2,299.999995529652,8|0|8
156,88,28812,6,0,B|256:44|352:88,1,199.999997019768,8|8
392,240,30145,2,0,B|343:288|256:288|256:288|164:288|115:240,1,299.999995529652,8|0
256,192,31812,12,4,33812
32,136,47478,6,0,B|192:156|256:312,1,299.999995529652,8|0
104,256,49145,2,0,B|104:140|224:120,1,199.999997019768,2|2
380,140,50478,6,0,B|420:228|380:336,2,199.999997019768,0|2|0
304,280,52478,5,2
224,140,53145,2,0,B|184:228|224:336,1,199.999997019768
64,336,54478,2,0,B|103:229|63:141,1,199.999997019768,6|2
224,140,55812,6,0,B|248:28|428:28|444:140,2,299.999995529652,0|8|4
336,256,58478,5,0
176,256,59145,2,0,B|100:364|16:256,1,199.999997019768
120,136,60478,6,0,B|160:96|196:40|196:40|236:180|256:208|256:208|276:180|316:40|316:40|392:136,1,599.999991059304
336,288,63145,1,0
176,288,63812,1,0
68,172,64478,6,0,B|176:136|252:220,2,199.999997019768
188,68,66478,2,0,B|262:149|370:113,2,199.999997019768
68,172,68478,5,4
460,88,74145,6,0,B|460:186|460:186|384:254,1,199.999997019768,8|8
256,352,75478,2,0,B|256:253|256:253|332:185,1,199.999997019768,10|10
176,156,76812,6,0,B|68:172|32:284,2,199.999997019768,8|8|8
336,156,78812,2,0,B|443:171|478:279,2,199.999997019768,8|8|10
256,16,80812,6,0,B|256:224,1,199.999997019768,10|8
100,176,82145,1,8
164,324,82812,2,0,B|256:392|348:324,2,199.999997019768,8|8|8
160,244,84478,1,4
160,164,84812,6,0,B|252:92|341:166,2,199.999997019768,8|8|8
256,36,86812,1,8
96,36,87478,6,0,B|8:180|96:324,1,299.999995529652,8|0
132,164,89145,2,0,B|256:308|388:168,1,299.999995529652,0|14
424,324,90812,6,0,B|509:184|421:40,2,299.999995529652,10|2|8
296,228,93478,1,8
256,72,94145,1,8
216,228,94812,6,0,B|16:228,1,199.999997019768,8|8
156,304,96145,2,0,B|356:304,1,199.999997019768,8|8
496,228,97478,2,0,B|296:228,1,199.999997019768,8|8
336,72,98812,1,8
176,72,99478,6,0,B|32:100|32:100|16:256,2,299.999995529652,8|4|8
300,176,102145,2,0,B|284:328|284:328|140:356,2,299.999995529652,8|4|8
148,228,104812,1,8
256,192,105478,12,6,107145
212,248,107812,6,0,B|212:348,1,99.9999985098839,2|10
116,220,108812,2,0,B|140:112|244:80,1,199.999997019768,10|10
388,152,110145,2,0,B|363:259|259:292,1,199.999997019768,10|10
100,292,111478,6,0,B|16:340|16:340|0:192|0:192|16:40|16:40|104:96,1,499.99999254942,8|2
256,132,113812,1,0
412,100,114478,2,0,B|497:45|497:45|512:196|512:196|497:345|497:345|413:297,1,499.99999254942,0|10
256,272,116812,1,8
112,204,117478,6,0,B|256:160|408:204,2,299.999995529652,10|2|10
108,44,120145,2,0,B|256:92|403:43,2,299.999995529652,10|0|8
28,184,122812,6,0,B|32:296|144:328,1,199.999997019768,10|10
304,332,124145,2,0,B|272:220|160:216,1,199.999997019768,10|10
256,88,125478,1,10
352,216,126145,2,0,B|240:220|208:331,1,199.999997019768,10|10
368,332,127478,2,0,B|479:300|483:188,1,199.999997019768,8|8
448,116,128478,6,0,B|332:96|256:152|256:152|184:96|64:116,2,399.999994039536,4|0|0
448,276,131812,2,0,B|328:295|256:240|256:240|180:295|64:275,2,399.999994039536
400,124,135145,6,0,B|256:176|104:124,2,299.999995529652,0|8|0
256,56,137812,2,0,B|256:360,1,299.999995529652,0|8
124,268,139478,5,8
32,136,140145,2,0,B|232:136,1,199.999997019768,8|8
232,296,141478,1,8
388,268,142145,5,8
480,136,142812,2,0,B|280:136,1,199.999997019768,8|8
280,296,144145,1,8
160,192,144812,6,0,B|144:88|28:56,1,199.999997019768,14|10
48,216,146145,2,0,B|63:319|180:352,1,199.999997019768,10|8
340,352,147478,2,0,B|454:320|470:216,1,199.999997019768,8|8
484,56,148812,2,0,B|369:87|352:192,1,199.999997019768,8|8
336,268,149812,6,0,B|256:328|256:328|176:268,1,199.999997019768,4|0
316,192,151145,1,0
176,116,151812,2,0,B|256:56|256:56|336:116,1,199.999997019768,0|4
196,192,153145,1,0
140,44,153812,6,0,B|20:12|20:364|140:348,1,399.999994039536,0|4
288,292,155812,2,0,B|288:88,2,199.999997019768
448,292,157812,6,0,B|448:92,2,199.999997019768,0|6|6
256,192,159812,12,6,161812
256,192,162478,6,0,B|200:184|160:216,1,99.9999985098839,2|10
256,344,163478,2,0,B|316:364|400:296|392:232,1,199.999997019768,10|10
388,72,164812,2,0,B|320:64|256:124|256:192,2,199.999997019768,10|10|8
488,200,166812,6,0,B|527:251|431:347|375:295,1,199.999997019768,10|10
428,144,168145,1,10
308,252,168812,1,10
148,252,169478,6,0,B|56:188|80:72,1,199.999997019768,10|10
156,60,170478,1,0
232,80,170812,2,0,B|324:144|308:256,1,199.999997019768,10|8
456,188,172145,6,0,B|364:124|387:13,2,199.999997019768,10|10|10
436,348,174145,1,10
308,252,174812,2,0,B|256:336|256:336|200:252,1,199.999997019768,10|10
112,120,176145,6,0,B|244:60|268:60|396:120,2,299.999995529652,10|0|10
200,252,178812,1,10
44,224,179478,2,0,B|-16:132|24:32,2,199.999997019768,10|10|10
156,336,181478,2,0,B|356:336,2,199.999997019768,10|8|8
156,256,183145,5,4
312,92,193812,6,0,B|300:208|412:248,1,199.999997019768
256,300,195145,2,0,B|256:200,1,99.9999985098839,0|8
104,248,196145,6,0,B|213:208|201:92,1,199.999997019768,8|8
40,100,197478,1,8
104,248,198145,2,0,B|144:340|256:372|368:328,1,299.999995529652,8|4
432,188,199812,6,0,B|323:148|335:32,1,199.999997019768,8|8
256,44,200812,1,0
176,32,201145,2,0,B|187:147|78:187,1,199.999997019768,8|8
156,328,202478,6,0,B|356:328,2,199.999997019768,8|8|8
156,248,204145,1,0
164,168,204478,6,8,B|256:104|352:168,2,199.999997019768,12|8|8
256,36,206478,2,0,B|256:336,1,299.999995529652,8|0
408,292,208145,6,0,B|524:302|536:223|536:223|376:191|536:159|536:159|524:81|409:91,1,499.99999254942,0|8
256,140,210478,5,8
104,92,211145,2,0,B|-11:82|-23:160|-23:160|136:192|-23:224|-23:224|-11:302|107:291,1,499.99999254942,8|0
256,336,213478,6,0,B|256:136,2,199.999997019768
336,336,215145,6,0,B|404:296|460:228,1,149.999997764826,4|0
460,120,216145,2,0,B|392:160|336:228,1,149.999997764826,4|0
352,96,217145,2,0,B|256:140|156:96,1,199.999997019768,4|4
