osu file format v8

[General]
AudioFilename: My heart will go on.mp3
AudioLeadIn: 0
PreviewTime: -1
Countdown: 0
SampleSet: Soft
StackLeniency: 0.7
Mode: 0
LetterboxInBreaks: 1

[Editor]
DistanceSpacing: 0.8
BeatDivisor: 4
GridSize: 8

[Metadata]
Title:My Heart Will Go On
Artist:Celine Dion
Creator:Josie190
Version:Hard
Source:Titanic
Tags:

[Difficulty]
HPDrainRate:7
CircleSize:6
OverallDifficulty:3
ApproachRate:8
SliderMultiplier:1.5
SliderTickRate:1

[Events]
//Background and Video events
0,0,"Titanic.jpg"
Video,0,"My heart will go on.flv"
//Break Periods
//Storyboard Layer 0 (Background)
//Storyboard Layer 1 (Fail)
//Storyboard Layer 2 (Pass)
//Storyboard Layer 3 (Foreground)
//Storyboard Sound Samples
//Background Colour Transformations
3,100,235,250,175

[TimingPoints]
813.669039239921,606.060606060606,4,2,0,60,1,0

[Colours]
Combo1 : 146,116,233
Combo2 : 252,227,88
Combo3 : 217,126,4
Combo4 : 255,255,255

[HitObjects]
64,240,20207,1,0
64,168,20510,1,0
64,88,20813,1,0
136,88,21116,1,0
64,88,21419,1,2
216,88,21722,1,0
296,88,22025,1,0
376,88,22328,6,0,B|376:168,1,75
376,192,22934,2,0,B|376:272,1,75
376,267,23540,1,0
376,267,23843,1,2
296,216,24450,5,0
224,160,24753,1,0
152,104,25056,1,0
152,104,25359,1,0
152,104,25662,2,0,B|288:64|304:64,1,150,0|2
296,64,26419,2,0,B|352:96,1,37.5
400,128,26874,5,0
400,200,27177,1,0
400,272,27480,1,0
320,272,28086,2,0,B|224:272,1,75
248,272,28692,1,0
248,272,29298,1,2
144,272,29904,5,0
144,232,30056,1,0
144,192,30207,1,0
144,112,30510,5,0
144,72,30662,1,0
184,72,30813,1,0
264,72,31116,5,0
304,72,31268,1,0
344,72,31419,1,0
408,72,31722,5,0
408,144,32025,1,0
408,224,32328,2,0,B|304:224,2,75
408,224,33237,1,0
408,224,33540,1,2
312,224,34147,1,0
224,224,34753,5,0
192,224,34904,1,0
160,224,35056,1,0
128,224,35207,1,0
96,224,35359,1,0
64,224,35510,1,0
64,192,35662,5,0
64,160,35813,1,0
64,128,35965,1,2
64,96,36116,1,0
64,64,36268,1,0
136,64,36874,5,0
168,64,37025,1,0
200,64,37177,1,0
232,64,37328,1,0
264,64,37480,1,0
296,64,37631,1,0
328,64,37783,1,0
360,64,37934,1,0
392,64,38086,1,0
424,64,38237,1,0
456,64,38389,1,2
456,200,39601,5,0
456,280,39904,1,0
368,280,40207,1,0
272,280,40510,1,0
192,280,40813,2,0,B|192:240,1,37.5,2|0
192,208,41116,2,0,B|192:168,1,37.5
192,136,41419,2,0,B|192:88,1,37.5
256,96,41722,6,0,B|256:144,1,37.5
256,168,42025,2,0,B|256:216,1,37.5
256,240,42328,2,0,B|256:280,1,37.5
320,280,42631,2,2,B|368:280,3,37.5
416,280,43237,1,2
416,192,44147,5,0
336,128,44450,1,0
416,64,44753,1,0
416,64,45056,1,0
336,64,45359,2,0,B|288:64,1,37.5
264,64,45662,2,0,B|216:64,1,37.5,2|0
184,64,45965,5,0
96,64,46268,1,0
96,144,46571,2,0,B|96:296,1,150
96,296,47480,1,0
192,296,47783,2,0,B|288:296,1,75,0|2
304,296,48389,1,0
344,296,48692,1,0
344,216,49298,5,0
344,176,49450,1,0
344,136,49601,1,0
256,136,49904,5,0
256,176,50056,1,0
256,216,50207,1,0
168,216,50510,5,2
168,176,50662,1,0
168,136,50813,1,0
80,136,51116,5,0
80,176,51268,1,0
80,216,51419,1,0
80,64,51722,5,0
176,64,52025,1,0
272,64,52328,1,2
360,64,52631,1,2
360,64,52934,1,2
448,64,53237,1,0
448,136,53843,6,0,B|448:176,1,37.5
448,208,54147,2,0,B|424:312|160:296,1,300,0|2
183,297,55662,1,0
104,296,55965,1,0
104,296,56571,1,0
104,224,58995,6,0,B|104:184,1,37.5
104,152,59298,2,0,B|104:112,1,37.5
104,80,59601,2,0,B|152:80,1,37.5
176,80,59904,2,2,B|224:80,1,37.5
248,80,60207,2,0,B|288:80,1,37.5,2|0
320,80,60510,2,0,B|360:80,1,37.5
392,80,60813,2,0,B|432:80,1,37.5
432,128,61419,6,0,B|392:128,1,37.5
360,128,61722,2,0,B|312:128,1,37.5
288,128,62025,2,0,B|240:128,1,37.5
216,128,62328,2,2,B|176:128,1,37.5
144,128,62631,2,0,B|104:128,1,37.5,2|0
104,168,62934,2,0,B|104:224,1,37.5
104,240,63237,5,0
184,240,63540,1,0
264,240,63843,2,0,B|264:80,1,150
264,90,64753,1,0
328,88,65056,1,2
328,152,65359,2,0,B|328:192,1,37.5
328,224,65662,2,0,B|328:280,4,37.5
264,256,66571,5,0
184,256,66874,1,0
104,256,67177,1,2
104,176,67480,1,2
104,88,67783,1,0
200,88,68086,1,0
104,88,68389,1,0
144,136,68692,6,0,B|192:192,1,75
272,224,69298,1,0
376,224,69904,5,2
376,152,70662,2,0,B|376:104,1,37.5
376,88,71116,2,0,B|296:24|216:112,1,150
176,88,72025,1,2
176,88,72177,1,2
176,88,72328,1,2
88,88,72934,1,0
88,176,73540,5,0
88,208,73692,1,0
88,240,73843,1,0
88,272,73995,1,0
88,304,74147,1,0
120,304,74298,1,0
152,304,74450,5,0
184,304,74601,1,0
216,304,74753,1,2
248,304,74904,1,2
280,304,75056,1,2
312,304,75207,1,0
344,304,75359,1,0
344,272,75965,1,0
344,240,76116,1,0
376,240,76268,5,0
408,240,76419,1,0
408,208,76571,1,0
408,176,76722,1,0
408,144,76874,1,0
408,112,77025,5,0
408,80,77177,1,2
376,80,77328,1,2
344,80,77480,1,2
312,80,77631,1,0
280,80,77783,1,0
200,80,78389,6,0,B|96:80,1,75
125,80,78995,1,0
56,80,79298,1,0
56,80,79601,1,2
56,152,80207,1,0
56,224,80813,2,0,B|56:304,1,75
56,299,81419,5,0
184,296,81722,1,2
312,296,82025,1,2
256,224,82631,1,0
336,160,82934,1,0
336,80,83237,2,0,B|152:24|32:88,1,300,0|2
40,160,84753,5,0
40,200,85056,1,0
40,240,85359,1,0
40,280,85662,1,0
128,280,85965,1,0
128,280,86116,1,0
128,280,86268,1,0
184,224,86874,5,2
248,176,87177,1,0
304,128,87480,1,0
368,80,88086,2,0,B|368:136,1,37.5
368,152,88389,2,0,B|368:200,1,37.5
368,224,88692,2,0,B|368:272,1,37.5
368,288,88995,2,0,B|328:288,1,37.5
280,288,89298,5,2
200,288,89601,1,0
120,288,89904,1,0
120,216,90207,1,0
120,144,90510,1,0
120,144,91116,1,0
208,144,91419,1,2
208,144,91571,1,2
208,144,91722,1,2
288,144,92328,5,0
288,72,92631,1,0
288,144,92934,1,0
288,216,93237,1,0
360,224,93540,2,0,B|288:328|208:256,1,150,0|2
176,248,94450,5,0
176,176,94753,1,0
176,104,95359,1,2
176,104,95510,1,2
176,104,95662,1,2
248,104,95965,5,0
320,104,96268,1,2
320,104,96419,1,2
320,104,96571,1,2
392,104,97177,1,0
392,104,97783,1,2
