osu file format v8

[General]
AudioFilename: My heart will go on.mp3
AudioLeadIn: 0
PreviewTime: -1
Countdown: 0
SampleSet: Soft
StackLeniency: 0.7
Mode: 0
LetterboxInBreaks: 1

[Editor]
DistanceSpacing: 0.8
BeatDivisor: 4
GridSize: 8

[Metadata]
Title:My Heart Will Go On
Artist:Celine Dion
Creator:Josie190
Version:Easy
Source:Titanic
Tags:

[Difficulty]
HPDrainRate:4
CircleSize:3
OverallDifficulty:3
ApproachRate:4
SliderMultiplier:1.5
SliderTickRate:1

[Events]
//Background and Video events
0,0,"Titanic.jpg"
Video,0,"video.flv"
//Break Periods
//Storyboard Layer 0 (Background)
//Storyboard Layer 1 (Fail)
//Storyboard Layer 2 (Pass)
//Storyboard Layer 3 (Foreground)
//Storyboard Sound Samples
//Background Colour Transformations
3,100,235,250,175

[TimingPoints]
813.669039239921,606.060606060606,4,2,0,60,1,0

[Colours]
Combo1 : 146,116,233
Combo2 : 252,227,88
Combo3 : 217,126,4
Combo4 : 255,255,255

[HitObjects]
88,128,20207,1,0
208,128,20813,1,0
320,128,21419,1,2
320,128,22025,1,0
320,224,22631,2,0,B|152:224,1,150
168,224,23843,5,2
168,112,24450,1,0
168,224,25056,1,0
168,224,25662,1,0
168,224,26268,1,2
272,224,26874,1,0
368,224,27480,2,0,B|320:32|104:24|72:240,1,450,0|0
72,72,29904,5,0
192,72,30510,1,0
264,72,30813,1,0
336,72,31116,1,2
336,176,31722,1,0
336,272,32328,2,0,B|168:296,1,150,0|0
96,296,33540,1,2
96,184,34147,5,0
96,88,34753,2,0,B|264:88,2,150,0|0|2
248,88,36571,1,0
360,88,37177,1,0
360,88,38389,1,2
360,192,39601,5,0
360,88,40207,1,0
360,192,40813,1,2
360,192,41419,1,0
248,192,42025,2,0,B|144:192,2,75
248,192,43237,5,2
248,288,44147,1,0
168,288,44450,1,0
88,216,45056,1,0
88,104,45662,1,2
200,104,46268,1,0
200,104,46874,2,0,B|352:104,1,150
350,104,47783,6,0,B|352:208,1,75,0|2
352,256,48692,1,0
240,256,49298,1,0
128,256,49904,1,0
128,192,50207,1,0
128,128,50510,1,2
232,128,51116,5,0
128,128,51722,1,0
232,128,52328,1,0
336,128,52934,1,2
440,128,53843,1,0
440,200,54147,2,0,B|376:256|272:192,2,150,0|0|2
304,208,55965,1,0
304,112,56571,1,0
272,112,58995,5,0
216,112,59298,1,0
168,112,59601,1,0
112,112,59904,1,0
56,112,60207,1,2
56,200,61419,5,0
112,200,61722,1,0
160,200,62025,1,0
216,200,62328,1,0
272,200,62631,1,2
392,200,63237,5,0
328,128,63843,2,0,B|256:40|256:40|168:152,1,225
186,128,65056,1,2
184,200,65359,1,0
184,272,65662,1,0
184,272,65965,1,0
256,272,66268,1,0
352,272,66874,1,0
296,176,67480,5,2
368,104,68389,1,0
440,104,68692,1,0
240,104,69298,1,0
128,104,69904,1,2
128,208,70813,5,0
128,208,71116,1,0
224,208,71722,1,0
224,208,72328,1,2
328,208,72934,1,0
432,208,73540,2,0,B|416:48|176:80,1,300,0|2
104,80,75359,1,0
104,80,75965,1,0
104,176,77177,5,2
216,176,78389,1,0
328,176,78995,2,0,B|432:176,1,75
403,176,79601,1,2
400,264,80207,1,0
304,264,80813,1,0
200,264,81419,6,0,B|112:264,1,75
125,264,82025,1,2
120,168,82631,1,0
120,72,83237,2,0,B|432:72,1,300,0|2
424,160,85056,1,0
424,224,85359,1,0
424,224,85662,1,0
328,224,86268,5,0
264,224,86571,1,0
200,224,86874,1,2
200,128,87480,1,0
96,128,88086,1,0
96,128,89298,5,2
96,216,89904,1,0
96,304,90510,1,0
200,304,91116,1,0
200,304,91722,1,2
200,208,92328,1,0
296,208,92934,1,0
408,208,93540,6,0,B|320:80|320:80|312:80,2,150,0|2|0
416,296,95359,1,0
328,232,96571,1,2
248,160,97783,1,2
