osu file format v6

[General]
AudioFilename: celine_dion_-_my_heart_will_go_on.mp3
AudioLeadIn: 0
PreviewTime: -1
Countdown: 1
SampleSet: Soft
StackLeniency: 0.7
Mode: 0
LetterboxInBreaks: 1
StoryFireInFront: 0
SkinPreference:pw

[Editor]
Bookmarks: -2876,20561,59373,80666,100061,136333,145333,174000
DistanceSpacing: 0.800000011920929
BeatDivisor: 4
GridSize: 8

[Metadata]
Title:My Heart Will Go On
Artist:Celine Dion
Creator:ETQW
Version:Easy
Source:celine dion - my heart will go on
Tags:titanic, cinema, celine dion, my heart will go on

[Difficulty]
HPDrainRate:5
CircleSize:5
OverallDifficulty:5
SliderMultiplier:1.4
SliderTickRate:3

[Events]
//Background and Video events
0,0,"3.jpg"
//Break Periods
2,100366,106466
//Storyboard Layer 0 (Background)
//Storyboard Layer 1 (Fail)
//Storyboard Layer 2 (Pass)
//Storyboard Layer 3 (Foreground)
Sprite,Foreground,Centre,"1.jpg",320,240 M,0,-2876,0,308,240 S,0,0,,0.6479999 M,0,0,46,308,240 M,0,46,19061,308,240
//Storyboard Sound Samples
//Background Colour Transformations
3,100,0,0,0

[TimingPoints]
2000,666.666666666667,4,2,0,100,1,0
59333,-50,4,2,0,100,0,1
78666,-100,4,2,0,100,0,0
107666,-100,4,2,0,100,0,1
136666,-50,4,2,0,100,0,1

[HitObjects]
56,48,20561,6,0,B|56:312,1,245
120,320,22436,1,0
256,320,22998,1,0
368,320,23561,2,4,B|480:320,1,105
476,58,24873,5,2
424,120,25436,1,0
360,176,25998,2,12,B|328:208,2,35
38,68,27311,5,2
86,118,27873,2,0,B|197:216,1,140
237,251,28998,2,4,B|269:283,2,35
48,64,30311,6,0,B|72:184|232:304,1,280
248,317,32561,2,0,B|311:318,4,35
244,179,34061,1,8
456,59,34623,2,4,B|398:224|319:301|177:315|177:315|177:316,1,385
73,166,38748,5,2
114,127,39029,1,2
159,98,39311,1,2
209,76,39592,1,2
259,61,39873,1,2
304,53,40061,6,0,B|365:69|463:207,1,210
470,252,41748,1,8
443,318,42311,2,0,B|207:333|126:252,1,315
142,191,44373,1,8
226,188,44936,2,2,B|227:257,3,35
297,230,46061,2,2,B|299:169,3,35
373,231,46998,2,4,B|434:154|448:74|343:35|201:45,1,350
42,348,49811,6,0,B|132:261,1,105
113,205,50936,1,0
178,148,51498,1,0
252,113,52061,1,0
330,108,52623,2,0,B|436:112,1,105
45,144,54311,2,4,B|97:72|141:179|83:279|120:358|271:324|215:178|150:97|261:24|369:49|412:151|277:227|234:320|376:336|441:191|368:39|476:28|506:120|506:120|481:139,1,700
257,187,58811,1,8
272,64,59333,6,0,B|160:80|40:224,2,280
248,48,61666,2,0,B|384:112|464:232,2,280
168,96,63666,2,2,B|288:96,3,105
328,128,65333,1,8
400,192,66000,1,4
400,192,66166,2,0,B|424:232,3,35
104,336,67833,5,0
232,336,68666,1,0
296,336,69000,2,0,B|496:336,1,175
496,224,70166,1,8
440,160,70833,2,0,B|400:128,1,35
352,104,71500,1,8
272,88,72333,2,0,B|240:136,5,35
256,160,73333,2,4,B|240:128|216:96|192:64|176:48|144:32|120:24|88:32|56:48|40:72|24:112|24:152|40:208|72:248|112:288|152:320|208:352|248:376|248:376|304:344|344:320|384:296|408:280|432:256|456:232|472:200|488:160|496:144|488:112|464:72|432:48|392:40|320:72|304:96|296:112|288:136|264:176,1,1260
256,208,76666,12,0,78000
56,242,78666,6,0,B|56:8,2,210
120,248,81000,2,0,B|64:320|64:320|232:320|232:320|176:232,1,350
144,192,83000,2,0,B|160:104|200:48|264:32|344:40|384:56|456:104|464:160|472:256,1,525
472,259,85666,2,0,B|248:336,1,210
64,184,87333,1,8
104,112,87833,1,8
176,64,88333,2,0,B|280:64|392:168|440:288,1,350
434,276,90166,1,0
376,320,90666,1,8
304,344,91166,1,12
480,160,92666,5,0
448,96,93166,1,0
392,64,93666,2,4,B|248:48|24:48|24:48|56:136|248:128|424:128|424:128|272:208,1,945
256,208,98333,12,0,100166
160,192,107666,5,0
232,192,108500,1,2
232,192,109000,1,2
312,184,109334,1,2
312,184,109500,1,2
384,128,110000,1,2
384,128,110666,1,2
384,128,110833,1,6
48,72,112000,6,0,B|448:72,1,385
448,152,114333,2,2,B|32:152,1,385
40,192,117333,1,8
72,136,117500,2,2,B|112:104|280:64|400:112|448:144,1,385
480,184,119833,1,8
480,248,120166,2,4,B|480:336|480:336|376:360|376:360|264:360,1,280
32,256,122000,6,0,B|128:64|128:64|176:200|176:200|256:56|256:56|336:280,1,735
48,192,127000,2,4,B|256:192,2,175
48,128,129000,6,0,B|64:288|200:344,1,245
480,320,131166,2,2,B|432:176|296:120,1,245
328,136,132500,1,8
440,104,133666,2,0,B|376:64|208:64|192:152|192:184|192:192|200:216|216:232|232:248|248:264|264:264|288:272|312:272|352:264|376:240|384:216|384:200|368:184|312:168,1,560
72,200,137000,1,8
128,248,137500,1,8
160,272,137666,2,0,B|248:280|240:280,1,70,0|4
240,280,138333,5,0
240,280,138499,2,2,B|416:256|456:160|376:48|224:40,1,420
168,56,139833,2,2,B|40:144|168:304,1,280
416,48,141166,2,4,B|296:48|216:56|152:112|128:176|120:216|120:256|144:288|168:312|200:328|224:336|248:352|296:360|344:368|392:360|432:360|464:352|488:328|504:288|504:240|504:200|496:176|488:152|472:136|448:120|424:96|408:88|368:88|328:96|296:104|264:112|240:120|232:136|208:168|200:192|200:208|208:232|224:248|240:264|272:288|296:296|320:304|352:304|384:288|408:272|432:248|432:216|400:168|344:160|288:176|288:208|344:232,1,1470
240,64,146500,6,0,B|352:80|466:217,2,280
263,48,148833,2,2,B|128:112|52:225,2,280
344,96,150832,2,2,B|239:96,3,105
184,128,152500,1,8
112,192,153167,1,8
111,191,153334,2,4,B|93:222,3,35
408,336,155000,5,0
280,336,155833,1,2
216,336,156167,2,2,B|41:336,1,175
16,224,157333,1,2
72,160,158000,2,2,B|99:138,1,35
160,104,158667,1,2
240,87,159166,2,4,B|259:117,9,35
128,32,160500,6,4,B|416:32|416:32|160:208|160:208|264:192|336:184|416:216|432:280|424:312|264:368|176:368|152:360|144:344|136:336|136:320|144:304|160:288|168:280|184:272|208:272|216:288|208:312|176:312|176:312|104:280|104:280,1,1260
256,208,163833,12,0,165167
85,65,165833,6,0,B|432:67,1,315
412,125,166833,2,2,B|67:127|67:127|25:128,1,385
30,190,168000,2,2,B|80:289|80:289|104:224|104:224|143:288|143:289|197:187|197:187|196:187,2,315
34,35,170000,1,8
35,37,170500,2,4,B|117:228|188:317|408:366|496:357|496:357|491:19|491:19|82:17,1,1330
63,329,174333,5,0
130,267,174833,1,8
198,202,175333,2,2,B|115:172|82:95|166:39|287:18|368:60,1,350
369,72,176500,2,2,B|400:194,1,105
394,174,177166,1,8
395,242,177833,1,8
359,309,178333,2,4,B|294:313,5,35
47,64,179666,6,0,B|109:125,1,70
187,189,180333,2,2,B|248:164,3,35
302,178,181000,2,2,B|387:30|387:30|446:323,1,455
442,310,182166,1,8
316,322,182833,1,8
316,322,183000,1,8
232,327,183333,2,4,B|107:207|68:77|170:32|342:10|460:26|486:85|459:165|407:221|329:242|254:237|224:206|219:165|251:128|307:116|334:125,1,805
256,208,185500,12,0,192666
