osu file format v12

[General]
AudioFilename: 508386_Pokemon-Tower-Music.mp3
AudioLeadIn: 1977
PreviewTime: 28393
Countdown: 0
SampleSet: Soft
StackLeniency: 0.7
Mode: 0
LetterboxInBreaks: 0

[Editor]
DistanceSpacing: 0.8
BeatDivisor: 4
GridSize: 4

[Metadata]
Title:Pokemon Tower [Music Box]
TitleUnicode:Pokemon Tower [Music Box]
Artist:CelestOrion
ArtistUnicode:CelestOrion
Creator:Stefan
Version:?Normal
Source:
Tags:game freak pokémon red blue yellow lavender town cion shion シオンタウン junichi masuda pikachu piano newgrounds
BeatmapID:222874
BeatmapSetID:79980

[Difficulty]
HPDrainRate:4
CircleSize:3
OverallDifficulty:4
ApproachRate:4
SliderMultiplier:1.4
SliderTickRate:1

[Events]
//Background and Video events
0,0,"pikachusad.jpg",0,0
//Break Periods
2,50404,57612
//Storyboard Layer 0 (Background)
//Storyboard Layer 1 (Fail)
//Storyboard Layer 2 (Pass)
//Storyboard Layer 3 (Foreground)
//Storyboard Sound Samples
//Background Colour Transformations
3,100,163,162,255

[TimingPoints]
23,545.454545454546,4,2,1,60,1,0
11341,-100,4,2,1,5,0,0
11613,-100,4,2,1,60,0,0
12432,-100,4,2,1,20,0,0
12704,-100,4,2,1,60,0,0
13523,-100,4,2,1,20,0,0
13795,-100,4,2,1,60,0,0
14613,-100,4,2,1,20,0,0
14886,-100,4,2,1,60,0,0
16250,-100,4,2,1,20,0,0
16523,-100,4,2,1,60,0,0
18432,-100,4,2,1,20,0,0
20204,-100,4,2,1,60,0,0
21159,-100,4,2,1,20,0,0
21432,-100,4,2,1,60,0,0
22250,-100,4,2,1,20,0,0
22523,-100,4,2,1,60,0,0
24977,-100,4,2,1,20,0,0
25250,-100,4,2,1,60,0,0
27159,-100,4,2,1,20,0,0
27432,-100,4,2,1,60,0,0
29886,-100,4,2,1,20,0,0
30159,-100,4,2,1,60,0,0
30977,-100,4,2,1,5,0,0
31250,-100,4,2,1,60,0,0
36023,-100,4,2,1,20,0,0
36295,-100,4,2,1,60,0,0
40250,-100,4,2,1,20,0,0
40523,-100,4,2,1,60,0,0
48023,-100,4,2,1,10,0,0
58932,-100,4,2,1,60,0,0
64386,-100,4,2,1,40,0,0
65477,-100,4,2,1,60,0,0
66023,-100,4,2,1,20,0,0
67113,-100,4,2,1,40,0,0
67659,-100,4,2,1,60,0,0

[Colours]
Combo1 : 194,167,12
Combo2 : 128,64,0
Combo3 : 128,128,128

[HitObjects]
136,224,23,2,0,P|256:24|376:224,1,560,2|2,0:0|0:0,0:0:0:0:
256,160,3295,1,2,0:0:0:0:
244,272,3841,2,0,P|204:324|132:344,1,140,0|2,0:0|0:0,0:0:0:0:
88,124,5477,5,2,0:0:0:0:
188,72,6023,2,0,P|256:56|324:72,1,140,0|2,0:0|0:0,0:0:0:0:
424,124,7113,1,0,0:0:0:0:
424,236,7659,2,0,P|408:304|348:332,1,140,2|0,0:0|0:0,0:0:0:0:
236,332,8750,1,2,0:0:0:0:
60,192,9841,5,2,0:0:0:0:
260,96,10932,2,0,P|328:108|388:148,1,140,2|0,0:0|0:0,0:0:0:0:
488,192,12023,5,0,0:0:0:0:
464,300,12568,1,0,0:0:0:0:
360,336,13113,2,0,P|292:352|224:340,1,140
128,284,14204,1,0,0:0:0:0:
88,180,14750,1,0,0:0:0:0:
116,72,15295,5,2,0:0:0:0:
340,96,16386,1,0,0:0:0:0:
308,316,17477,1,2,0:0:0:0:
84,292,18568,1,0,0:0:0:0:
116,72,19659,1,0,0:0:0:0:
104,184,20204,6,0,B|180:200|204:272|204:272|272:304|340:272,1,280,2|0,0:0|0:0,0:0:0:0:
376,164,21841,1,2,0:0:0:0:
304,80,22386,1,0,0:0:0:0:
192,92,22932,2,0,B|122:117|96:187|96:187|130:255|88:320,1,280,2|2,0:0|0:0,0:0:0:0:
312,344,25113,6,0,P|380:332|435:287,1,140,0|0,0:0|0:0,0:0:0:0:
464,180,26204,1,2,0:0:0:0:
280,52,27295,1,0,0:0:0:0:
92,172,28386,6,0,B|132:232|84:304|84:304|152:304|152:304|212:340,1,280,2|0,0:0|0:0,0:0:0:0:
256,236,30023,1,0,0:0:0:0:
300,340,30568,2,0,B|360:304|360:304|428:304|428:304|380:232|420:172,1,280,2|0,0:0|0:0,0:0:0:0:
244,36,32750,6,0,P|180:48|148:112,1,140,2|0,0:0|0:0,0:0:0:0:
227,189,33841,2,0,P|195:251|131:263,1,140,2|0,0:0|0:0,0:0:0:0:
52,184,34932,1,2,0:0:0:0:
228,324,36023,2,0,P|296:344|352:312,1,140
424,224,37113,6,0,P|441:136|196:100,1,420,2|0,0:0|0:0,0:0:0:0:
256,192,39295,1,2,0:0:0:0:
48,280,40386,1,0,0:0:0:0:
148,328,40932,2,0,P|181:317|216:328,1,70
268,340,41477,6,0,P|428:252|296:132,1,420,2|0,0:0|0:0,0:0:0:0:
348,32,43659,2,0,P|186:120|320:244,1,420,2|0,0:0|0:0,0:0:0:0:
264,348,45841,2,0,P|140:288|84:164,1,280,2|2,0:0|0:0,0:0:0:0:
92,52,47477,1,0,0:0:0:0:
256,192,48023,12,2,50204,0:0:0:0:
100,192,58932,6,0,L|47:342,2,140,2|0|0,0:0|0:0|0:0,0:0:0:0:
132,84,60568,1,0,0:0:0:0:
236,128,61113,6,0,P|300:152|364:128,1,140,2|0,0:0|0:0,0:0:0:0:
456,192,62204,1,0,0:0:0:0:
364,256,62750,1,0,0:0:0:0:
272,320,63295,6,0,P|204:336|140:312,2,140,2|0|0,0:0|0:0|0:0,0:0:0:0:
212,224,64932,1,0,0:0:0:0:
272,132,65477,5,2,0:0:0:0:
272,19,66023,2,0,P|344:48|376:100,1,140
344,208,67113,1,0,0:0:0:0:
256,276,67659,1,2,0:0:0:0:
256,100,69841,5,2,0:0:0:0:
192,316,70932,2,0,P|256:340|320:316,1,140
256,224,72023,1,2,0:0:0:0:
256,192,72159,12,2,74204,0:0:0:0:
