osu file format v9

[General]
AudioFilename: Cats - Baby cat.mp3
AudioLeadIn: 0
PreviewTime: 26694
Countdown: 0
SampleSet: Soft
StackLeniency: 0.7
Mode: 1
LetterboxInBreaks: 1

[Editor]
Bookmarks: 98558,116012
DistanceSpacing: 1
BeatDivisor: 4
GridSize: 4

[Metadata]
Title:Baby Cat
Artist:Cats
Creator:Sakura Hana
Version:Taiko Oni
Source:Audition Online
Tags:Sakura301 Dance Battle Crimmi RandomJibberish CrimmiSkye

[Difficulty]
HPDrainRate:5
CircleSize:5
OverallDifficulty:5
ApproachRate:5
SliderMultiplier:1.4
SliderTickRate:1

[Events]
//Background and Video events
0,0,"BG.jpg"
//Break Periods
//Storyboard Layer 0 (Background)
//Storyboard Layer 1 (Fail)
//Storyboard Layer 2 (Pass)
//Storyboard Layer 3 (Foreground)
//Storyboard Sound Samples
//Background Colour Transformations
3,100,163,162,255

[TimingPoints]
2553,545.454545454546,4,2,0,80,1,0
28734,-100,4,2,0,80,0,1
46189,-100,4,2,0,80,0,0
63643,-100,4,2,0,80,0,1
81098,-100,4,2,0,80,0,0
125825,-100,4,2,0,80,0,0
128007,545.454545454546,4,2,0,80,1,0
154188,-83.3333333333333,4,2,0,80,0,1
171643,-71.4285714285714,4,2,0,80,0,1
189234,-100,4,2,0,80,0,0

[Colours]
Combo1 : 0,128,255
Combo2 : 255,0,0

[HitObjects]
256,192,2553,1,0
256,192,2689,5,2
256,192,2825,1,2
300,104,2962,1,2
296,224,3098,5,0
212,120,3371,5,2
324,192,3643,5,0
368,128,3780,5,2
252,56,4053,1,6
272,264,4734,5,0
272,224,4871,1,0
232,244,5007,5,2
176,224,5143,5,0
216,192,5280,1,0
272,172,5552,5,2
328,256,5825,1,2
316,200,5962,5,0
316,152,6234,1,4
256,72,6916,1,0
256,72,7052,5,2
256,72,7189,1,2
256,72,7325,1,2
256,72,7462,5,0
256,180,7734,5,2
256,180,7871,5,0
256,180,8143,1,0
256,180,8280,5,2
256,180,8552,5,4
256,180,9098,1,0
256,180,9234,1,0
256,180,9371,5,2
256,180,9507,5,0
256,180,9643,1,0
256,180,9916,5,2
256,180,10052,5,0
256,180,10325,1,0
256,180,10462,5,2
256,180,10734,1,6
256,80,11280,5,0
256,80,11552,1,0
256,80,11825,5,2
256,80,12098,1,2
256,80,12234,5,0
256,80,12507,1,0
256,80,12643,5,2
256,156,12916,1,2
256,156,13052,5,0
256,156,13189,5,2
256,156,13325,5,0
256,156,13462,1,0
256,80,13734,1,0
256,80,14007,5,2
256,80,14280,1,2
256,80,14416,5,0
256,80,14689,1,0
256,80,14825,5,2
256,80,15098,5,0
256,80,15371,1,0
256,80,15643,1,4
288,144,15916,1,0
256,80,16052,1,0
256,80,16189,5,2
256,80,16462,1,2
256,80,16598,5,0
256,80,16871,1,0
256,80,17007,5,2
256,80,17280,5,0
256,80,17416,1,0
256,80,17552,5,2
256,80,17689,5,0
256,80,17825,1,0
252,152,18098,5,2
252,152,18234,1,2
252,152,18371,5,0
252,152,18643,5,2
252,152,18780,5,0
252,152,19052,1,0
252,152,19189,5,2
252,152,19462,1,2
252,152,19734,1,2
252,152,20007,1,2
252,152,20280,5,0
252,152,20552,5,2
252,152,20825,5,0
252,152,20962,5,2
252,152,21098,5,0
252,152,21234,5,2
252,152,21507,1,2
252,152,21780,5,0
252,152,21916,5,2
252,152,22052,5,0
252,152,22462,1,0
252,152,22734,1,0
252,152,23007,1,0
252,152,23143,5,2
252,152,23280,1,2
252,152,23552,1,2
252,152,23825,1,2
252,152,24098,5,0
252,152,24371,1,0
248,264,24643,1,0
248,264,24780,5,2
248,264,24916,1,2
248,264,25189,5,0
248,264,25462,5,2
248,264,25598,5,0
248,264,25871,1,0
248,264,26007,5,2
248,264,26280,5,0
248,264,26552,5,6
248,264,27098,1,6
248,264,27643,1,6
248,264,28189,1,6
248,264,28734,5,4
244,140,29007,5,2
244,140,29143,1,2
244,140,29280,1,2
244,140,29552,1,2
244,140,29689,5,0
244,140,29962,1,0
244,140,30098,5,2
244,140,30371,1,2
244,140,30643,1,2
96,100,30916,5,0
344,100,31189,1,0
344,100,31325,1,0
344,100,31462,5,2
344,100,31734,5,0
344,100,31871,5,2
344,100,32143,1,2
344,100,32280,5,0
344,100,32552,5,2
344,100,32825,1,2
344,100,33098,5,4
256,192,33371,1,0
256,192,33507,1,0
256,192,33643,5,2
256,192,33780,5,0
256,192,33916,1,0
256,192,34052,1,0
256,192,34189,5,2
256,192,34462,1,2
256,192,34734,1,2
256,192,35007,1,2
256,192,35280,5,0
324,120,35553,1,0
324,120,35689,1,0
324,120,35825,5,2
192,120,36098,5,0
192,120,36234,5,2
192,120,36371,5,0
192,120,36507,1,0
192,120,36643,5,2
192,120,36916,1,2
192,120,37189,1,2
192,120,37462,5,4
256,192,37734,1,0
256,192,37871,1,0
256,192,38007,5,2
256,192,38280,1,2
256,192,38416,5,0
256,192,38689,1,0
256,192,38825,5,2
256,192,39098,1,2
256,192,39234,1,2
256,192,39371,1,2
256,192,39643,5,0
328,140,39916,1,0
328,140,40053,1,0
328,140,40189,5,2
256,100,40462,1,2
256,100,40598,5,0
256,100,40871,1,0
256,100,41007,5,2
256,100,41280,1,2
256,100,41553,1,2
256,100,41825,5,4
256,192,42098,1,0
256,192,42234,1,0
256,192,42371,5,2
256,192,42507,1,2
256,192,42643,1,2
256,192,42780,5,0
256,192,42916,5,2
256,192,43053,5,0
256,192,43325,1,0
256,192,43462,5,2
256,192,43734,5,0
256,192,44007,1,0
256,192,44280,5,2
256,192,44416,5,0
256,192,44553,5,2
256,192,44689,5,0
256,192,44825,5,2
256,192,44962,5,0
256,192,45098,5,2
256,192,45234,5,0
256,192,45507,1,0
256,192,45643,1,0
256,192,45916,1,0
256,192,46189,1,4
220,144,46462,5,2
220,144,46734,1,2
220,144,47007,1,2
220,144,47143,1,2
220,144,47280,5,0
220,144,47416,1,0
220,144,47553,5,2
256,160,47825,5,0
256,160,47962,1,0
256,160,48098,5,2
256,160,48371,5,0
256,160,48507,1,0
256,160,48643,5,2
256,160,48916,1,2
256,160,49189,5,0
256,160,49462,1,0
256,160,49598,1,0
256,160,49734,5,2
256,160,50007,5,0
256,160,50280,1,0
256,160,50553,5,2
256,160,50689,1,2
256,160,50825,5,0
256,160,51098,1,0
256,160,51234,5,2
256,160,51371,1,2
256,160,51507,5,0
256,160,51643,5,2
256,160,51780,1,2
256,160,51916,5,0
256,160,52053,5,2
256,160,52462,5,0
256,160,52734,1,0
256,160,53007,1,0
256,160,53143,1,0
256,160,53280,5,2
256,160,53416,1,2
256,160,53553,1,2
256,160,53689,1,2
256,160,53825,5,0
256,160,53962,1,0
256,160,54098,1,0
256,160,54371,1,0
256,160,54916,1,0
256,160,55053,5,2
256,160,55325,5,0
256,160,55462,5,2
256,160,55734,1,2
256,160,55871,5,0
256,160,56143,5,2
256,160,56280,1,2
256,160,56416,1,2
256,160,56553,5,0
256,160,56825,1,0
256,160,56962,1,0
256,160,57234,5,2
256,160,57371,1,2
256,160,57643,1,2
256,160,57916,1,2
256,160,58189,5,0
256,160,58325,1,0
256,160,58462,5,2
256,160,58598,1,2
256,160,58734,5,0
256,160,59007,1,0
256,160,59416,1,0
256,160,59553,5,2
256,160,59689,5,0
256,160,59825,5,2
280,176,60098,5,0
280,176,60371,1,0
280,176,60507,1,0
280,176,60643,5,2
280,176,60916,5,0
256,160,61189,5,2
256,160,61462,1,6
212,224,62007,1,6
292,264,62553,1,6
332,184,63098,1,6
256,100,63643,5,4
256,188,63916,5,2
256,188,64053,1,2
256,188,64189,5,0
332,184,64462,5,2
332,184,64598,5,0
332,184,64871,1,0
332,184,65007,5,2
256,188,65280,1,2
256,188,65553,1,2
256,188,65825,5,0
256,144,66098,1,0
256,144,66234,5,2
256,144,66371,5,0
256,144,66643,5,2
256,144,66780,5,0
288,144,67053,1,0
288,144,67189,5,2
276,96,67462,1,2
276,96,67734,1,2
276,96,68007,5,4
256,196,68280,1,0
256,196,68416,1,0
256,196,68553,5,2
256,196,68689,5,0
256,196,68825,5,2
256,196,68962,5,0
256,196,69098,5,2
256,196,69234,5,0
256,196,69507,5,2
256,196,69643,5,0
256,196,69916,5,2
256,196,70189,5,0
256,196,70462,5,2
256,196,70598,5,0
256,196,70734,5,2
240,216,71007,1,2
256,136,71143,5,0
256,136,71416,1,0
256,136,71553,5,2
268,104,71825,1,2
268,104,72098,1,2
192,100,72371,5,4
228,176,72643,5,2
228,176,72916,1,2
228,176,73189,1,2
228,176,73462,5,0
228,176,73598,5,2
228,176,73871,1,2
228,176,74007,5,0
228,176,74280,5,2
228,176,74553,5,0
228,176,74825,1,0
228,176,74962,1,0
228,176,75098,5,2
228,176,75234,5,0
228,176,75371,1,0
228,176,75507,1,0
228,176,75643,5,2
228,176,75916,5,0
228,176,76189,5,2
228,176,76462,1,2
228,176,76734,5,4
228,176,77007,1,0
228,176,77143,1,0
228,176,77280,5,2
228,176,77416,5,0
228,176,77553,1,0
228,176,77689,1,0
228,176,77825,5,2
228,176,77962,5,0
228,176,78098,1,0
228,176,78234,1,0
228,176,78371,5,2
228,176,78643,1,2
228,176,78916,5,0
260,124,79189,5,2
260,124,79325,5,0
260,124,79462,5,2
260,124,79598,5,0
260,124,79734,5,2
260,124,79871,5,0
260,124,80007,5,2
260,124,80280,5,0
260,124,80553,5,2
260,124,80825,1,2
260,124,81098,5,4
260,124,81371,1,0
260,124,81507,1,0
260,124,81643,5,2
260,124,81916,5,0
260,124,82189,1,0
260,124,82325,1,0
260,124,82462,1,0
260,124,82734,5,2
260,124,83007,5,0
260,264,83280,1,0
260,124,83553,5,2
260,124,83689,1,2
260,124,83825,5,0
260,124,84098,5,2
260,124,84371,1,0
260,124,84507,1,0
260,124,84643,1,2
260,124,84916,5,0
260,124,85189,1,0
256,263,85462,1,0
260,124,85734,5,2
260,124,85871,1,2
260,124,86007,5,0
260,124,86280,1,0
260,124,86416,1,0
120,124,86553,5,2
184,124,86689,1,2
184,124,86825,1,2
184,124,87098,1,2
120,124,87371,1,2
120,124,87643,5,0
200,180,88189,1,0
260,164,88462,5,2
332,168,88734,5,0
240,104,88871,5,2
240,104,89007,1,2
240,104,89143,1,2
260,240,89280,5,0
280,120,89553,5,2
288,80,89825,1,6
344,216,90098,5,0
344,216,90234,1,0
344,216,90371,5,2
344,216,90507,5,0
344,216,90643,1,0
252,192,90916,5,2
252,192,91052,1,2
252,192,91189,5,0
252,192,91462,1,0
252,192,91734,1,0
252,192,92007,1,0
260,116,92280,5,2
260,116,92416,1,2
260,116,92552,5,0
260,116,92689,5,2
260,116,92825,1,2
260,116,93098,5,0
260,116,93371,1,0
260,116,93643,1,0
260,116,93780,1,0
260,116,93916,5,2
260,116,94189,5,0
256,200,94462,1,0
256,200,94598,5,2
256,200,94734,5,0
256,200,94871,5,2
256,200,95007,5,0
256,200,95280,1,0
256,200,95416,1,0
256,200,95689,5,2
256,200,95825,5,0
256,200,96098,1,0
256,192,96371,12,0,98007
256,192,98825,5,2
256,192,98962,5,0
256,192,99234,1,0
256,192,99371,5,2
256,192,99643,1,2
256,192,99916,1,2
256,192,100189,5,0
256,192,100462,5,2
256,192,100598,5,0
256,192,100734,1,0
256,192,100871,1,0
256,192,101007,5,2
256,192,101280,1,2
256,192,101552,5,0
256,192,101825,1,0
256,192,102098,1,0
256,192,102371,1,0
256,192,102643,1,0
256,192,102780,5,2
256,192,102916,1,2
256,192,103052,5,0
256,192,103189,5,2
256,192,103325,5,0
256,192,103598,1,0
256,192,103734,5,2
256,192,104007,1,2
256,192,104280,1,2
256,192,104416,5,0
256,192,104552,5,2
256,192,104825,1,2
256,192,105098,5,0
256,132,105507,1,0
256,132,105643,1,0
316,132,106052,1,0
316,132,106189,1,0
320,192,106598,1,0
320,192,106734,1,0
264,200,107007,5,2
260,152,107280,5,0
260,152,107552,1,0
260,152,107689,5,2
260,152,107962,5,0
260,152,108098,1,0
260,152,108234,1,0
260,152,108371,5,2
260,152,108643,5,0
260,152,108780,5,2
260,152,109189,5,0
260,152,109325,1,0
260,152,109462,1,0
260,152,109598,1,0
260,152,109734,1,0
260,152,109871,1,0
260,152,110143,5,2
260,152,110280,1,2
260,152,110416,1,2
260,152,110552,5,0
260,152,110825,1,0
260,152,110962,5,2
260,152,111371,5,0
260,152,111507,1,0
260,152,111643,1,0
260,152,111916,5,2
260,152,112189,5,0
256,224,112462,5,2
256,224,112598,1,2
256,224,112734,5,0
256,224,112871,5,2
260,152,113007,5,0
260,152,113280,1,0
260,152,113552,5,2
260,152,113689,1,2
260,152,113825,1,2
260,152,114098,1,2
260,152,114234,5,0
260,152,114371,1,0
260,152,114643,5,2
260,152,114780,5,0
260,152,114916,1,0
260,152,115189,1,0
240,224,115462,1,0
240,224,115598,1,0
240,224,115734,1,0
240,224,116007,1,0
240,224,116280,5,2
240,224,116552,5,0
240,224,116825,1,0
240,224,116962,1,0
240,224,117098,5,2
240,224,117234,1,2
240,224,117371,5,0
240,224,117507,1,0
240,224,117643,5,2
240,224,117780,1,2
240,224,117916,1,2
240,224,118189,5,0
268,188,118462,1,0
220,148,118734,1,0
272,104,119007,5,2
272,104,119143,5,0
272,104,119280,1,0
272,104,119416,5,2
272,104,119552,5,0
272,104,119689,5,2
272,104,119825,1,2
272,104,120098,1,2
272,104,120371,5,0
256,184,120643,5,2
256,184,120780,5,0
256,184,121189,5,2
256,184,121325,5,0
256,184,121734,5,2
256,184,122007,1,2
256,184,122280,1,2
256,184,122552,5,0
256,184,122825,1,0
256,184,123098,1,0
256,184,123371,1,0
256,184,123643,1,0
288,200,123780,1,0
256,184,123916,1,0
256,184,124052,1,0
256,184,124189,1,0
256,184,124462,1,4
256,184,125825,5,2
256,184,126098,1,2
256,184,126371,1,2
256,184,126643,1,2
256,184,126916,1,2
256,184,127189,1,2
256,184,127462,1,2
256,184,127734,1,2
256,184,128007,1,2
256,184,128279,5,0
256,184,128552,5,2
256,184,128825,5,0
256,184,129097,5,2
256,184,129370,5,2
256,184,129643,5,2
256,184,129916,1,2
256,184,130188,5,0
256,192,130461,12,0,131825
256,188,132370,5,6
256,188,133461,1,4
256,188,134279,1,0
256,188,134552,5,2
256,188,134688,1,2
256,188,134961,1,2
256,188,135234,1,2
256,188,135370,5,0
256,188,135643,1,0
256,188,135779,5,2
256,188,135916,1,2
256,188,136188,5,0
256,188,136461,5,2
256,192,136734,12,2,138370
256,192,138916,5,0
256,192,139461,12,0,140825
252,188,141097,5,2
252,188,141234,1,2
252,188,141370,1,2
252,188,141643,1,2
252,188,141916,5,0
252,188,142188,5,2
252,188,142461,5,0
252,188,143007,1,0
252,188,143279,1,0
252,188,143688,1,0
252,188,143825,5,2
252,188,144097,1,2
252,188,144370,5,0
252,188,144643,5,2
252,188,144779,5,0
252,188,145052,5,2
252,188,145188,5,0
252,188,145461,1,4
252,188,145734,5,2
252,188,145870,1,2
252,188,146007,5,0
252,188,146279,1,0
252,188,146552,1,0
252,188,146688,1,0
252,188,146961,5,2
252,188,147234,1,2
252,188,147370,5,0
252,188,147507,5,2
252,188,147643,5,0
252,188,147916,1,0
252,188,148188,1,0
252,188,148461,1,0
252,188,148734,1,0
252,188,148870,5,2
252,188,149007,1,2
252,188,149143,1,2
252,188,149279,5,0
252,188,149552,1,0
252,188,149825,1,4
252,188,150097,1,0
252,188,150234,1,0
252,188,150370,5,2
252,188,150643,1,2
252,188,150779,5,0
252,188,151052,1,0
252,188,151188,5,2
252,188,151461,1,2
252,188,151734,1,2
240,212,152007,1,6
240,212,152552,1,6
240,212,153097,1,6
240,212,153643,1,6
240,212,154188,5,4
240,212,154461,1,0
240,212,154597,1,0
240,212,154734,5,2
240,212,154870,1,2
240,212,155007,5,0
240,212,155279,5,2
240,212,155416,5,0
240,212,155688,1,0
240,212,155825,5,2
240,212,156097,1,2
240,212,156370,5,0
240,212,156643,1,0
240,212,156779,1,0
240,212,156916,5,2
240,212,157188,1,2
240,212,157461,1,2
240,212,157597,5,0
240,212,157870,1,0
240,212,158007,5,2
240,212,158279,1,2
240,212,158552,5,4
240,212,158825,1,0
240,212,158961,1,0
240,212,159097,5,2
240,212,159234,1,2
240,212,159370,5,0
240,212,159507,1,0
240,212,159643,5,2
240,212,159779,5,0
240,212,160052,1,0
240,212,160188,5,2
240,212,160461,1,2
240,212,160734,5,0
240,212,161007,1,0
240,212,161143,1,0
240,212,161279,5,2
240,212,161552,1,2
240,212,161688,5,0
240,212,161825,5,2
240,212,161961,5,0
240,212,162234,1,0
240,212,162370,5,2
240,212,162643,1,2
240,212,162916,5,4
240,212,163188,1,0
240,212,163325,1,0
240,212,163461,1,0
240,212,163734,1,0
240,212,164007,1,0
240,212,164143,5,2
240,212,164416,5,0
240,212,164552,5,2
240,212,164825,1,2
240,212,165097,5,0
240,212,165370,1,0
240,212,165643,5,2
240,212,165916,5,0
240,212,166052,1,0
240,212,166188,1,0
240,212,166325,5,2
240,212,166597,5,0
240,212,166734,5,2
240,212,167007,1,2
240,212,167279,5,4
240,212,167552,1,0
240,212,167688,1,0
240,212,167825,5,2
240,212,167961,5,0
240,212,168097,1,0
240,212,168370,5,2
240,212,168507,5,0
240,212,168779,1,0
240,212,168916,5,2
240,212,169188,1,2
240,212,169461,5,0
240,212,169734,1,0
240,212,169870,5,2
240,212,170007,5,0
240,212,170143,5,2
240,212,170279,5,0
240,212,170416,5,2
240,212,170552,5,0
240,212,170688,5,2
240,212,170961,1,2
240,212,171097,5,0
240,212,171370,1,0
240,212,171643,1,4
240,212,171916,1,0
240,212,172052,1,0
240,212,172188,5,2
240,212,172461,1,2
240,212,172734,1,2
240,212,172870,5,0
240,212,173143,1,0
240,212,173279,5,2
240,212,173552,1,2
240,212,173825,5,0
240,212,174097,1,0
240,212,174234,5,2
240,212,174370,5,0
240,212,174643,5,2
240,212,174916,1,2
240,212,175052,5,0
240,212,175325,1,0
240,212,175461,5,2
240,212,175734,1,2
240,212,176007,5,4
240,212,176279,1,0
240,212,176416,1,0
240,212,176552,5,2
240,212,176688,5,0
240,212,176825,1,0
240,212,176961,1,0
240,212,177097,5,2
240,212,177234,5,0
240,212,177507,1,0
240,212,177643,5,2
240,212,177916,1,2
240,212,178188,5,0
268,216,178461,1,0
268,216,178597,1,0
304,220,178734,5,2
304,220,179007,1,2
304,220,179279,1,2
304,220,179416,5,0
304,220,179688,1,0
304,220,179825,5,2
304,220,180097,1,2
304,220,180370,5,4
304,220,180643,1,0
304,220,180916,5,2
304,220,181188,5,0
304,220,181461,5,2
304,220,181597,5,0
304,220,181870,1,0
304,220,182007,5,2
304,220,182279,1,2
304,220,182552,5,0
304,220,182825,1,0
304,220,183097,5,2
304,220,183234,1,0
304,220,183507,5,0
304,220,183643,5,2
304,220,183779,5,0
304,220,184052,1,0
304,220,184188,5,2
304,220,184461,1,2
304,220,184734,5,4
304,220,185007,1,0
304,220,185143,1,0
304,220,185279,5,2
304,220,185416,5,0
304,220,185552,1,0
304,220,185688,1,0
304,220,185825,5,2
304,220,185961,5,0
304,220,186097,1,0
304,220,186234,1,0
304,220,186370,5,2
304,220,186643,1,2
304,220,186916,5,0
304,220,187188,1,0
304,220,187325,5,2
304,220,187461,5,0
304,220,187597,5,2
304,220,187734,5,0
304,220,187870,5,2
304,220,188007,5,0
304,220,188143,5,2
304,220,188416,1,2
304,220,188552,5,0
304,220,188825,1,0
304,220,189097,1,4
