osu file format v9

[General]
AudioFilename: Cats - Baby cat.mp3
AudioLeadIn: 0
PreviewTime: 26694
Countdown: 0
SampleSet: Soft
StackLeniency: 0.7
Mode: 0
LetterboxInBreaks: 1

[Editor]
Bookmarks: 98558,116012
DistanceSpacing: 1
BeatDivisor: 4
GridSize: 4

[Metadata]
Title:Baby Cat
Artist:Cats
Creator:Sakura Hana
Version:Normal
Source:Audition Online
Tags:Sakura301 Dance Battle Crimmi RandomJibberish CrimmiSkye

[Difficulty]
HPDrainRate:4
CircleSize:4
OverallDifficulty:4
ApproachRate:5
SliderMultiplier:1.3
SliderTickRate:2

[Events]
//Background and Video events
0,0,"BG.jpg"
//Break Periods
2,98752,114807
2,124934,126807
//Storyboard Layer 0 (Background)
//Storyboard Layer 1 (Fail)
//Storyboard Layer 2 (Pass)
//Storyboard Layer 3 (Foreground)
//Storyboard Sound Samples
//Background Colour Transformations
3,100,163,162,255

[TimingPoints]
2553,545.454545454546,4,2,1,100,1,0
6371,-100,4,1,1,70,0,0
6507,-100,4,2,1,100,0,0
27098,-100,4,1,1,100,0,0
28734,-100,4,2,1,100,0,1
30371,-100,4,1,1,100,0,1
30507,-100,4,2,1,100,0,1
32553,-100,4,1,1,100,0,1
32825,-100,4,2,1,100,0,1
34734,-100,4,1,1,100,0,1
34871,-100,4,2,1,100,0,1
39098,-100,4,1,1,100,0,1
39234,-100,4,2,1,100,0,1
41280,-100,4,1,1,100,0,1
41416,-100,4,2,1,100,0,1
43462,-100,4,1,1,100,0,1
43598,-100,4,2,1,100,0,1
46189,-100,4,2,1,100,0,0
62007,-100,4,1,1,100,0,0
63643,-100,4,2,1,100,0,1
65280,-100,4,1,1,100,0,1
65416,-100,4,2,1,100,0,1
67462,-100,4,1,1,100,0,1
67598,-100,4,2,1,100,0,1
69643,-100,4,1,1,100,0,1
69780,-100,4,2,1,100,0,1
74007,-100,4,1,1,100,0,1
74143,-100,4,2,1,100,0,1
76189,-100,4,1,1,100,0,1
76325,-100,4,2,1,100,0,1
78371,-100,4,1,1,100,0,1
78507,-100,4,2,1,100,0,1
81098,-100,4,2,1,100,0,0
87643,-100,4,1,1,100,0,0
88871,-100,4,2,1,100,0,0
96371,-100,4,2,1,40,0,0
98553,-100,4,2,1,100,0,0
122553,-100,4,1,1,100,0,0
123916,-100,4,2,1,100,0,0
128007,545.454545454546,4,2,1,100,1,0
132370,-100,4,1,1,100,0,0
135779,-100,4,2,1,100,0,0
141097,-100,4,1,1,100,0,0
144507,-100,4,2,1,100,0,0
152007,-100,4,1,1,100,0,0
154188,-100,4,2,1,100,0,1
156370,-100,4,1,1,100,0,1
156507,-100,4,2,1,100,0,1
158552,-100,4,1,1,100,0,1
158688,-100,4,2,1,100,0,1
160734,-100,4,1,1,100,0,1
160870,-100,4,2,1,100,0,1
171097,-100,4,2,1,100,0,0
171643,-100,4,2,1,100,0,1
173825,-100,4,1,1,100,0,1
173961,-100,4,2,1,100,0,1
176007,-100,4,1,1,100,0,1
176143,-100,4,2,1,100,0,1
178188,-100,4,1,1,100,0,1
178325,-100,4,2,1,100,0,1
182552,-100,4,1,1,100,0,1
182688,-100,4,2,1,100,0,1
184734,-100,4,1,1,100,0,1
184870,-100,4,2,1,100,0,1
186916,-100,4,1,1,100,0,1
187052,-100,4,2,1,100,0,1
188552,-100,4,2,1,100,0,0

[Colours]
Combo1 : 30,165,5
Combo2 : 7,177,226
Combo3 : 189,6,38
Combo4 : 198,4,169

[HitObjects]
256,60,2553,2,0,B|328:56|384:96|400:184|368:252,1,260
256,300,4189,1,2
128,272,4734,2,0,B|84:220|76:136|128:64|200:48,1,260
256,160,6371,1,0
156,240,6916,6,0,B|200:292|288:324|372:260|376:196,1,260
256,160,8552,1,2
296,36,9098,2,0,B|230:17|139:40|105:140|138:195,1,260
256,204,10734,1,4
316,88,11280,5,0
396,192,11825,1,8
308,300,12371,1,0
240,192,12916,1,8
240,192,13462,5,0
160,88,14007,1,8
80,192,14552,1,0
160,300,15098,1,8
252,192,15643,5,4
304,72,16189,1,8
428,108,16734,1,0
380,228,17280,1,8
252,192,17825,5,0
128,152,18371,1,8
72,268,18916,1,0
192,320,19462,1,8
320,324,20007,6,0,B|428:264|432:192|264:152|264:68|408:32,1,390,4|8
448,156,22189,2,0,B|448:236,2,65,0|0|8
324,120,23280,2,0,B|280:44|200:76,2,130,0|8|4
332,184,24643,6,0,B|332:260,1,65,0|8
268,244,25189,1,0
204,244,25462,2,0,B|204:168,1,65
148,144,26007,2,0,B|100:204|140:268,1,130,8|0
264,300,27098,5,0
344,196,27643,1,0
260,96,28189,1,0
172,192,28734,1,4
108,200,29007,6,0,B|120:240|168:256,1,65,0|8
216,252,29552,1,0
256,200,29825,1,0
200,172,30098,2,0,B|212:136|264:132,1,65
376,124,30916,5,0
440,124,31189,2,0,B|440:204,1,65,0|8
376,192,31734,1,0
376,256,32007,2,0,B|308:256,1,65
308,192,32552,1,0
236,84,33098,6,0,B|156:100|152:192,3,130,0|8|0|0
248,264,35280,2,0,B|328:248|332:156,3,130,0|8|0|4
256,68,37462,5,0
256,132,37734,1,0
256,196,38007,2,0,B|256:340,2,130,8|0|0
368,128,39643,5,0
408,180,39916,1,0
368,232,40189,1,8
240,236,40734,1,0
200,184,41007,1,0
244,136,41280,1,0
312,24,41825,6,0,B|312:100,1,65
312,156,42371,1,8
312,220,42643,1,0
376,240,42916,2,0,B|360:292|292:304|260:256,1,130
256,144,44007,6,0,B|208:200,1,65
148,192,44553,2,0,B|100:136,1,65,8|0
128,80,45098,2,0,B|212:80,1,65
256,80,45643,1,4
380,120,46189,6,0,B|424:172|424:172|376:240,1,130,0|2
260,224,47280,2,0,B|216:172|216:172|264:104,1,130,0|2
328,228,48371,2,0,B|328:308,2,65,0|0|2
328,96,49462,2,0,B|328:32,2,65,0|0|2
328,160,50280,1,4
324,224,50553,6,0,B|276:232|248:184|256:128,1,130,0|2
224,80,51371,1,0
184,132,51643,2,0,B|191:179|163:227|115:219,1,130,0|2
224,292,52734,2,0,B|224:360,4,65,0|0|2|0|0
228,160,54371,1,4
344,100,54916,5,0
444,184,55462,1,8
344,268,56007,1,0
244,188,56553,1,8
148,100,57098,5,0
52,188,57643,1,8
148,284,58189,1,0
244,188,58734,1,4
324,84,59280,6,0,B|384:132|372:204,1,130,0|8
276,288,60371,2,0,B|148:288,1,130,0|8
68,184,61462,2,0,B|72:104|152:84,1,130,0|0
268,68,62553,1,0
384,128,63098,1,0
356,256,63643,1,4
352,192,63916,6,0,B|312:188|288:228,1,65,0|8
288,284,64462,1,0
224,288,64734,2,0,B|224:208,1,65
224,156,65280,1,0
124,72,65825,6,0,B|200:72,1,65
192,136,66371,2,0,B|128:136,1,65,8|0
156,196,66916,1,0
124,252,67189,1,0
188,252,67462,1,0
316,248,68007,6,0,B|356:212|356:152|316:120,3,130,0|8|0|0
196,132,70189,2,0,B|167:152|168:216|207:248,3,130,0|8|0|4
320,308,72371,5,0
296,248,72643,2,0,B|240:308,1,65,0|8
188,292,73189,1,0
188,228,73462,1,0
200,164,73734,2,0,B|237:167|248:200,1,65
360,136,74553,5,0
396,188,74825,1,0
360,240,75098,1,8
320,188,75371,2,0,B|248:188,1,65
188,188,75916,1,0
220,132,76189,1,0
128,188,76734,5,0
88,240,77007,1,0
140,280,77280,2,0,B|192:216,1,65,8|0
236,260,77825,1,0
200,316,78098,2,0,B|260:360,1,65
328,248,78916,5,0
376,204,79189,1,0
320,168,79462,1,8
372,128,79734,1,0
316,92,80007,1,0
372,60,80280,1,0
316,28,80553,1,4
192,72,81098,6,0,B|140:128|200:208,1,130,2|0
252,192,81916,1,0
320,192,82189,1,2
320,256,82462,2,0,B|192:256,1,130
124,256,83280,1,4
60,256,83553,6,0,B|20:220|40:152|80:136,1,130
136,140,84371,1,2
200,140,84643,2,0,B|332:140,1,130
396,140,85462,1,4
460,140,85734,6,0,B|460:284,1,130
416,316,86553,1,2
352,320,86825,2,0,B|268:296|268:228,1,130
260,168,87643,5,0
176,68,88189,1,0
88,164,88734,1,0
172,264,89280,1,4
280,336,89825,5,2
344,332,90098,2,0,B|392:304|388:240|336:212,1,130
288,220,90916,1,2
224,220,91189,2,0,B|144:220|136:136,1,130
136,76,92007,1,4
200,76,92280,6,0,B|328:76,1,130
396,72,93098,1,2
460,72,93371,2,0,B|496:112|496:160|460:192,1,130
400,188,94189,1,4
336,188,94462,6,0,B|252:188|248:280,1,130
220,324,95280,1,2
188,268,95552,2,0,B|185:190|101:190,1,130
256,192,96643,12,4,98552
324,128,116007,6,0,B|380:76,2,65,0|2|0
324,260,117098,2,0,B|376:304,2,65,0|2|0
192,260,118189,2,0,B|128:312,2,65,0|2|0
188,128,119280,2,0,B|140:84,2,65,0|2|0
240,164,120098,1,4
368,192,120643,6,0,B|296:192,1,65,0|2
304,256,121189,2,0,B|368:256,1,65,0|2
436,256,121734,2,0,B|468:224|468:176|440:132,1,130,0|2
384,108,122552,5,0
328,140,122825,1,0
272,172,123098,1,0
216,204,123371,1,0
160,240,123643,1,0
104,268,123916,2,0,B|104:316|132:372|192:384|256:384,1,195,0|4
352,56,128007,6,0,B|412:108|412:224|344:300,1,260,0|2
256,204,129643,1,2
184,96,130188,2,0,B|116:156|112:260|184:336,1,260,0|2
252,224,131825,1,2
136,284,132370,5,0
256,52,133461,1,0
376,284,134552,1,0
256,52,135643,1,0
296,104,135916,2,0,B|216:104,1,65,0|2
256,164,136461,1,0
192,160,136734,6,0,B|176:208|200:264|256:288|320:252|340:208|316:160|316:152,1,260,0|2
317,160,138370,2,0,B|315:160|339:112|319:68|255:32|199:56|175:112|191:160,1,260,0|0
136,276,140007,1,2
256,324,140552,1,2
376,280,141097,5,0
124,220,142188,1,0
376,164,143279,1,0
124,104,144370,1,0
172,60,144643,2,0,B|240:60,1,65,0|2
208,116,145188,2,0,B|288:116,1,65,0|4
256,56,147643,5,4
448,192,149825,5,4
256,336,152007,5,0
136,288,152552,1,0
60,184,153097,1,0
136,80,153643,1,0
256,32,154188,1,4
300,80,154461,5,0
300,144,154734,2,0,B|256:152|228:96,1,65
300,80,155279,1,8
300,16,155552,2,0,B|344:16|360:64,1,65
348,112,156097,1,0
400,148,156370,1,0
364,272,156916,6,0,B|308:224,1,65
248,228,157461,2,0,B|172:228,1,65,8|0
116,228,158007,2,0,B|64:176,1,65
68,116,158552,1,0
184,60,159097,6,0,B|256:60,3,65,0|0|8|0
304,96,160188,1,0
256,140,160461,2,0,B|188:140,1,65
72,192,161279,6,0,B|76:236|116:280|176:284,1,130,0|8
208,160,162370,2,0,B|280:160|320:236,1,130,0|4
364,264,163188,5,0
420,296,163461,1,0
448,236,163734,1,0
392,212,164007,2,0,B|372:140|304:108,2,130,8|0|4
336,256,165370,5,0
284,292,165643,2,0,B|208:292,1,65,0|0
172,248,166188,1,8
172,248,166461,1,0
108,236,166734,2,0,B|129:171|184:176|221:200,1,130,0|4
256,232,167552,6,0,B|312:264|360:224|364:176,1,130
296,176,168370,1,8
232,176,168643,2,0,B|232:104,1,65
232,44,169188,2,0,B|312:44,1,65,0|4
360,56,169734,6,0,B|420:112,1,65
407,100,170279,2,0,B|352:152,1,65,0|8
359,144,170825,2,0,B|420:192,1,65
410,184,171370,2,0,B|348:236,1,65,0|4
360,292,171916,5,0
300,264,172188,1,0
264,208,172461,1,0
200,204,172734,2,0,B|200:272,1,65,8|0
200,269,173279,2,0,B|136:324,1,65
84,312,173825,1,0
80,248,174097,6,0,B|80:180,1,65
16,192,174643,1,0
52,140,174916,1,8
116,140,175188,1,0
152,192,175461,1,0
88,188,175734,2,0,B|88:264,1,65,0|4
140,292,176279,6,0,B|220:292,1,65
208,228,176825,2,0,B|288:228,1,65,0|8
276,164,177370,2,0,B|360:164,1,65
340,100,177916,1,0
340,100,178188,1,0
404,100,178461,6,0,B|448:120|444:180,1,65
376,160,179007,2,0,B|376:200|424:224,1,65,0|8
448,164,179552,2,0,B|480:168|480:216,1,65
416,216,180097,2,0,B|420:264|472:288,1,65,0|4
396,316,180643,5,0
368,376,180916,1,0
308,348,181188,1,0
340,292,181461,2,0,B|272:176,1,130,8|0
244,124,182279,2,0,B|208:64,1,65,0|0
144,64,182825,5,0
96,104,183097,1,0
148,144,183370,1,0
96,184,183643,1,8
148,220,183916,1,0
92,252,184188,2,0,B|108:312|200:300|204:252,1,130,0|0
240,224,185007,6,0,B|316:224,1,65
368,228,185552,2,0,B|368:144,1,65,0|8
304,164,186097,2,0,B|224:164,1,65
172,164,186643,2,0,B|172:240,1,65
256,192,187188,12,4,188552
