osu file format v9

[General]
AudioFilename: Cats - Baby cat.mp3
AudioLeadIn: 0
PreviewTime: 26694
Countdown: 0
SampleSet: Soft
StackLeniency: 0.7
Mode: 0
LetterboxInBreaks: 1

[Editor]
Bookmarks: 98558,116012
DistanceSpacing: 1
BeatDivisor: 4
GridSize: 4

[Metadata]
Title:Baby Cat
Artist:Cats
Creator:Sakura Hana
Version:Insane
Source:Audition Online
Tags:Sakura301 Dance Battle Crimmi RandomJibberish CrimmiSkye

[Difficulty]
HPDrainRate:8
CircleSize:5
OverallDifficulty:7
ApproachRate:8
SliderMultiplier:1.8
SliderTickRate:2

[Events]
//Background and Video events
0,0,"BG.jpg"
//Break Periods
2,98752,115257
2,124661,127257
//Storyboard Layer 0 (Background)
//Storyboard Layer 1 (Fail)
//Storyboard Layer 2 (Pass)
//Storyboard Layer 3 (Foreground)
//Storyboard Sound Samples
//Background Colour Transformations
3,100,163,162,255

[TimingPoints]
2553,545.454545454546,4,2,1,100,1,0
13462,-100,4,1,1,100,0,0
13598,-100,4,2,1,100,0,0
15643,-100,4,1,1,100,0,0
15780,-100,4,2,1,100,0,0
17825,-100,4,1,1,100,0,0
17962,-100,4,2,1,100,0,0
22189,-100,4,1,1,100,0,0
22325,-100,4,2,1,100,0,0
24371,-100,4,1,1,100,0,0
24507,-100,4,2,1,100,0,0
27098,-100,4,1,1,100,0,0
27098,-100,4,1,1,100,0,0
28734,-100,4,2,1,100,0,1
30371,-100,4,1,1,100,0,1
30507,-100,4,2,1,100,0,1
32553,-100,4,1,1,100,0,1
32825,-100,4,2,1,100,0,1
34734,-100,4,1,1,100,0,1
34871,-100,4,2,1,100,0,1
36916,-100,4,1,1,100,0,1
37053,-100,4,2,1,100,0,1
39098,-100,4,1,1,100,0,1
39234,-100,4,2,1,100,0,1
41280,-100,4,1,1,100,0,1
41416,-100,4,2,1,100,0,1
43462,-100,4,1,1,100,0,1
43734,-100,4,2,1,100,0,1
48371,-100,4,1,1,70,0,0
48507,-100,4,2,1,100,0,0
50553,-100,4,1,1,70,0,0
50689,-100,4,2,1,100,0,0
54371,-100,4,1,1,70,0,0
54507,-100,4,2,1,100,0,0
57098,-100,4,1,1,100,0,0
57234,-100,4,2,1,100,0,0
59279,-100,4,1,1,100,0,0
59416,-100,4,2,1,100,0,0
62007,-100,4,1,1,100,0,0
63643,-100,4,2,1,100,0,1
65280,-100,4,1,1,100,0,1
65416,-100,4,2,1,100,0,1
67462,-100,4,1,1,100,0,1
67598,-100,4,2,1,100,0,1
69643,-100,4,1,1,100,0,1
69649,-100,4,2,1,100,0,1
71825,-100,4,1,1,100,0,1
71962,-100,4,2,1,100,0,1
74007,-100,4,1,1,100,0,1
74143,-100,4,2,1,100,0,1
76189,-100,4,1,1,100,0,1
76325,-100,4,2,1,100,0,1
78371,-100,4,1,1,100,0,1
78439,-100,4,2,1,100,0,1
81098,-100,4,2,1,100,0,0
81371,-133.333333333333,4,2,1,100,0,0
87643,-100,4,1,1,100,0,0
88871,-100,4,2,1,100,0,0
89280,-100,4,1,1,100,0,0
89416,-100,4,2,1,100,0,0
96371,-100,4,2,1,10,0,0
98553,-100,4,2,1,100,0,0
118734,-100,4,1,1,100,0,0
118871,-100,4,2,1,100,0,0
120371,-100,4,1,1,100,0,0
120507,-100,4,2,1,100,0,0
122553,-100,4,1,1,100,0,0
123916,-133.333333333333,4,2,1,100,0,0
128007,545.454545454546,4,2,1,100,1,0
128007,-200,4,2,1,100,0,0
132370,-100,4,1,1,100,0,0
135779,-200,4,2,1,100,0,0
141097,-100,4,1,1,100,0,0
144507,-100,4,2,1,100,0,0
152007,-100,4,1,1,100,0,0
154188,-100,4,2,1,100,0,1
156370,-100,4,1,1,100,0,1
156507,-100,4,2,1,100,0,1
158552,-100,4,1,1,100,0,1
158688,-100,4,2,1,100,0,1
160734,-100,4,1,1,100,0,1
160870,-100,4,2,1,100,0,1
165097,-100,4,1,1,100,0,1
165234,-100,4,2,1,100,0,1
169461,-100,4,1,1,100,0,1
169597,-100,4,2,1,100,0,1
171097,-100,4,2,1,100,0,0
171643,-100,4,2,1,100,0,1
173825,-100,4,1,1,100,0,1
173961,-100,4,2,1,100,0,1
176007,-100,4,1,1,100,0,1
176143,-100,4,2,1,100,0,1
178188,-100,4,1,1,100,0,1
178325,-100,4,2,1,100,0,1
182552,-100,4,1,1,100,0,1
182688,-100,4,2,1,100,0,1
184734,-100,4,1,1,100,0,1
184870,-100,4,2,1,100,0,1
186916,-100,4,1,1,100,0,1
187052,-100,4,2,1,100,0,1
188552,-100,4,2,1,100,0,0

[Colours]
Combo1 : 30,165,5
Combo2 : 7,177,226
Combo3 : 189,6,38
Combo4 : 198,4,169

[HitObjects]
256,52,2553,1,0
256,140,2825,1,2
184,192,3098,2,0,B|208:240|264:252|312:236|330:192|332:180,1,180,2|0
329,189,3780,1,0
256,140,4053,1,2
256,184,4189,1,0
256,276,4462,1,2
336,324,4734,5,0
256,364,5007,1,2
176,324,5280,1,2
256,276,5552,1,2
256,276,5825,2,0,B|256:176,1,90
256,140,6234,1,2
256,48,6507,1,0
256,48,6643,1,2
172,80,6916,6,0,B|116:80|100:144,1,90,0|2
92,220,7462,2,0,B|88:296|136:348|208:344,1,180,2|2
193,344,8143,1,0
260,280,8416,1,0
288,200,8689,1,0
288,200,8825,1,2
200,192,9098,6,0,B|200:136|256:112,1,90,0|2
328,92,9643,2,0,B|376:76|424:88|464:128|464:196,1,180,2|2
462,172,10325,1,0
444,260,10598,1,0
412,292,10734,1,2
332,252,11007,1,0
260,196,11280,1,4
256,108,11552,6,0,B|208:88|156:120,1,90,2|8
96,168,12098,1,2
116,256,12371,1,0
116,256,12507,1,0
188,308,12780,1,0
188,308,12916,1,8
256,248,13189,1,0
256,156,13462,1,0
256,68,13734,6,0,B|356:72|392:176,1,180,0|2
396,260,14552,1,2
396,260,14689,1,0
304,260,14962,1,0
304,260,15098,1,2
364,192,15371,2,0,B|256:192,1,90,0|0
196,156,15916,5,0
172,192,16052,1,0
192,232,16189,1,8
272,192,16462,1,0
360,192,16734,2,0,B|408:192,1,45,2|0
496,192,17143,2,0,B|448:192,1,45,0|8
360,192,17552,1,0
272,192,17825,1,0
260,104,18098,5,0
248,120,18234,1,0
232,136,18371,1,2
144,240,18643,1,2
156,224,18780,1,0
172,208,18916,1,2
144,128,19189,2,0,B|72:68,1,90,0|2
74,70,19734,1,0
144,128,20007,1,4
256,192,20280,6,0,B|348:192,1,90,0|8
256,192,20825,2,0,B|256:100,1,90,0|2
256,192,21371,2,0,B|152:192,1,90,0|8
256,192,21916,2,0,B|256:296,1,90
192,128,22462,6,0,B|272:208,1,90,0|8
320,128,23007,2,0,B|240:208,1,90,0|2
320,256,23552,2,0,B|240:176,1,90,0|8
192,256,24098,2,0,B|272:176,1,90,2|0
256,100,24643,5,0
336,192,24916,1,8
256,272,25189,1,0
172,192,25462,1,2
256,60,25734,5,0
384,192,26007,1,8
256,320,26280,1,0
124,192,26552,1,4
56,348,27098,5,0
464,340,27643,1,0
256,20,28189,1,0
256,192,28734,1,4
196,192,29007,6,0,B|200:136|256:132,1,90,0|8
320,192,29552,2,0,B|312:244|260:256,1,90,8|0
196,192,30098,1,0
108,192,30371,1,0
108,104,30643,2,0,B|136:56|184:56,1,90,0|4
192,144,31189,5,0
192,144,31325,2,0,B|248:144,1,45,0|8
328,144,31734,1,8
328,236,32007,1,0
328,236,32143,1,2
192,236,32416,1,0
192,236,32552,1,0
256,172,32825,1,0
256,80,33098,1,4
256,336,33371,5,0
228,300,33507,1,0
228,256,33643,1,8
252,220,33780,1,0
288,192,33916,2,0,B|288:144,1,45,8|0
252,120,34189,1,2
208,120,34325,2,0,B|148:108|136:160,1,90
136,156,34734,1,0
136,248,35007,1,0
56,204,35280,1,4
320,192,35553,5,0
320,148,35689,1,0
320,104,35825,1,8
192,196,36098,1,8
192,240,36234,1,0
192,284,36371,1,2
256,196,36643,1,0
256,196,36916,1,0
348,200,37189,2,0,B|348:132|284:132,1,90,0|4
216,100,37734,5,0
216,192,38007,1,8
168,72,38280,1,8
168,224,38553,1,2
168,224,38689,1,0
104,152,38962,1,0
104,152,39098,1,0
104,152,39371,2,0,B|204:152,1,90,0|4
296,100,39916,5,0
296,192,40189,1,8
344,72,40462,1,8
344,224,40734,1,2
344,224,40871,1,0
408,152,41143,1,0
408,152,41280,1,0
408,152,41553,2,0,B|308:152,1,90,0|4
256,48,42098,5,0
228,84,42234,1,0
228,128,42371,1,8
252,164,42507,1,0
288,192,42643,2,0,B|288:240,1,45,8|0
252,264,42916,1,2
208,264,43053,2,0,B|148:276|136:224,1,90
136,228,43462,1,0
136,136,43734,1,0
56,180,44007,1,4
192,192,44280,6,0,B|248:192,1,45
237,192,44553,2,0,B|296:192,1,45,0|0
282,192,44825,2,0,B|352:192,1,45
327,192,45098,2,0,B|372:192,1,45,2|0
372,192,45371,2,0,B|472:192,1,90,0|8
462,101,45916,2,0,B|462:201,1,90,8|4
464,236,46325,6,0,B|520:236,2,45
436,272,46734,1,2
436,272,47007,1,2
436,272,47280,1,0
388,200,47553,1,0
336,272,47825,2,0,B|300:304,1,45,2|0
256,308,48098,1,0
212,304,48234,2,0,B|168:268,1,45,2|0
144,244,48507,6,0,B|112:280,2,45
144,244,48916,2,0,B|212:168,1,90,8|2
256,104,49462,1,2
256,104,49598,1,0
256,104,49734,1,2
256,104,49871,2,0,B|256:200,1,90,2|0
256,240,50280,1,2
256,240,50553,1,0
292,212,50689,5,0
324,244,50825,1,0
320,288,50962,1,0
296,328,51098,1,2
256,240,51371,1,0
220,212,51507,1,0
188,244,51643,1,0
196,288,51780,1,0
220,328,51916,1,0
256,356,52053,1,2
256,132,52734,1,4
348,132,53007,5,0
328,92,53143,1,0
292,60,53280,1,2
256,36,53416,1,0
220,60,53553,1,0
188,92,53689,1,0
168,132,53825,1,2
188,172,53962,2,0,B|204:232|280:208,1,90
256,213,54371,1,0
256,36,54916,5,0
364,336,55462,1,8
56,132,56007,1,0
456,132,56553,1,8
148,336,57098,1,0
204,268,57371,6,0,B|256:192,1,90,0|2
254,193,57916,1,0
256,108,58189,1,0
296,64,58325,1,0
256,20,58462,1,0
220,64,58598,1,0
256,108,58734,1,2
254,193,59007,2,0,B|312:280,1,90
432,268,59553,5,0
500,172,59825,1,8
432,68,60098,1,0
304,68,60371,1,2
224,172,60643,1,0
304,268,60916,1,8
372,172,61189,1,0
372,172,61462,1,4
256,352,62007,5,0
256,32,62553,1,0
60,192,63098,1,0
460,192,63643,1,4
404,264,63916,6,0,B|363:307|302:268,1,90,0|8
356,196,64462,2,0,B|316:160|272:192,1,90,8|2
274,190,64871,1,0
184,192,65143,2,0,B|128:192,1,45
48,192,65553,1,0
48,192,65825,1,4
64,280,66098,5,0
104,304,66234,1,0
148,288,66371,1,8
148,200,66643,1,8
180,168,66780,1,0
216,196,66916,1,2
220,240,67053,2,0,B|264:272|312:240,1,90
304,244,67462,1,0
256,168,67734,1,0
256,76,68007,1,4
348,80,68280,5,0
388,104,68416,1,0
416,140,68553,1,8
440,176,68689,2,0,B|472:192|452:228,1,45,0|8
460,256,68962,1,0
440,296,69098,1,2
404,324,69234,1,0
364,340,69371,2,0,B|320:360|272:328,3,90,0|0|0|4
188,320,70462,5,0
208,280,70598,1,0
248,260,70734,2,0,B|288:212|248:168,1,90,8|8
212,160,71143,1,0
192,120,71280,1,2
208,80,71416,1,0
288,120,71689,1,0
288,120,71825,1,0
344,188,72098,1,0
288,260,72371,1,4
232,192,72643,6,0,B|180:176|144:224,1,90,0|8
212,284,73189,2,0,B|184:324|124:316,1,90,8|2
88,308,73598,2,0,B|88:212,1,90
88,218,74007,1,0
24,156,74280,2,0,B|60:120|120:132,1,90,0|4
160,60,74825,5,0
204,140,75098,1,8
204,140,75371,1,8
116,140,75643,1,0
160,156,75780,1,0
160,244,76053,1,0
160,244,76189,1,0
116,324,76462,1,0
204,324,76734,1,4
208,132,77007,6,0,B|248:104,1,45
244,106,77280,2,0,B|292:136,1,45,8|0
282,130,77553,2,0,B|324:100,1,45,8|0
319,103,77825,2,0,B|396:172,1,90,2|0
386,163,78371,2,0,B|324:228,1,90
323,228,78916,1,4
240,196,79189,5,0
256,152,79325,1,0
256,108,79462,1,0
232,68,79598,1,0
208,108,79734,1,0
204,152,79871,1,0
164,132,80007,1,2
168,88,80143,1,0
164,180,80416,1,0
208,204,80553,1,8
124,232,80825,1,8
180,304,81098,1,4
256,256,81371,5,0
256,256,81643,1,2
256,256,81916,1,0
324,256,82189,1,0
344,256,82325,1,2
412,252,82598,2,0,B|408:192|288:228|328:96,1,168.749994970858,0|4
256,256,83553,5,0
256,256,83825,1,2
256,256,84098,1,0
188,256,84371,1,0
168,256,84507,1,2
100,252,84780,2,0,B|104:192|224:228|184:96,1,168.749994970858,0|4
220,64,85734,5,0
256,4,86007,1,2
292,64,86280,1,0
256,124,86553,1,0
256,156,86689,1,2
256,224,86962,2,0,B|256:364,1,134.999995976687
256,360,87643,5,0
472,192,88189,1,0
256,28,88734,1,0
256,88,88871,1,2
108,196,89143,1,2
48,196,89280,1,0
252,196,89825,5,4
220,280,90098,5,0
252,196,90371,1,8
284,280,90643,1,0
252,196,90916,1,8
252,196,91052,1,2
251,194,91325,2,0,B|300:136|268:60|184:68,1,180,0|2
192,24,92007,1,4
223,102,92280,5,0
256,186,92552,1,8
176,145,92825,1,0
256,186,93098,1,8
256,186,93234,1,2
257,186,93507,2,0,B|277:259|358:275|399:201,1,180,0|2
432,232,94189,1,4
345,183,94462,5,0
255,186,94734,1,8
320,124,95007,1,0
255,186,95280,1,8
255,186,95416,1,2
256,188,95689,2,0,B|176:156|160:260,1,135,0|4
256,192,96643,12,4,98552
256,100,116007,5,0
256,192,116280,1,2
256,284,116552,1,0
344,288,116825,2,0,B|396:288,2,45,0|2|0
344,288,117234,2,0,B|344:216,2,45,0|2|0
344,288,117643,2,0,B|344:352,2,45,0|2|0
344,288,118052,6,0,B|288:288,1,45,0|2
299,288,118325,2,0,B|236:288,1,45,0|2
254,288,118598,2,0,B|208:256,1,45
132,240,119007,5,0
140,196,119143,1,2
176,168,119280,2,0,B|220:144,1,45,0|2
204,104,119552,2,0,B|148:136,1,45,0|2
124,148,119825,1,0
124,148,119962,1,2
124,148,120098,1,0
100,110,120234,2,0,B|64:70,1,45,2|0
256,80,120643,6,0,B|256:136,1,45,2|0
256,316,121189,2,0,B|256:256,1,45,2|0
120,192,121734,1,4
256,192,122007,1,2
392,192,122280,1,4
393,192,122552,5,0
120,192,122825,1,0
345,335,123098,1,0
256,72,123371,1,0
172,335,123643,1,0
392,192,123916,2,0,B|248:192,1,134.999995976687,0|4
412,196,128007,6,0,B|432:124|396:64|328:64,1,180,0|2
256,176,129916,1,2
256,88,130461,2,0,B|183:95|166:174,1,135
256,192,131825,1,0
256,120,132097,1,2
256,44,132370,5,0
416,192,133461,1,0
256,336,134552,1,0
256,192,135097,1,0
256,44,135643,1,0
416,192,136461,5,0
372,192,136734,2,0,B|304:276|256:104|172:196,1,225,2|0
256,248,138643,1,2
252,148,139188,2,0,B|288:108|212:76|264:16,1,135
320,88,140552,1,2
320,88,140825,1,2
256,24,141097,5,0
92,192,142188,1,0
256,356,143279,1,0
256,192,143825,1,0
256,24,144370,1,0
348,192,144643,5,2
348,192,144779,1,0
256,192,145052,1,2
256,192,145188,1,0
164,192,145461,1,4
256,100,145734,5,0
256,100,146007,1,8
168,96,146279,1,0
112,168,146552,1,2
112,168,146688,1,0
160,244,146961,1,8
256,228,147234,1,0
256,272,147370,1,2
256,316,147507,1,0
308,192,147916,5,0
308,192,148188,1,8
396,212,148461,1,0
484,192,148734,2,0,B|484:104,1,90,2|0
456,68,149143,2,0,B|408:20|336:20|300:76,1,180,8|0
300,75,149825,1,4
212,80,150097,5,0
152,148,150370,1,8
212,212,150643,1,0
256,292,150916,1,2
256,292,151052,1,0
300,212,151325,1,8
364,148,151597,1,0
364,148,151734,1,2
364,148,151870,1,0
364,148,152007,5,0
216,72,152552,1,0
136,236,153097,1,0
300,300,153643,1,0
404,152,154188,6,0,B|384:104|324:100,1,90,4|0
335,101,154734,1,8
308,188,155007,1,8
308,188,155279,2,0,B|248:176|240:116,1,90,0|2
243,132,155688,1,0
180,68,155961,1,0
180,68,156097,1,2
112,128,156370,1,0
88,216,156643,5,0
116,252,156779,1,0
156,272,156916,1,8
236,228,157188,1,8
228,184,157325,1,0
196,156,157461,1,0
152,148,157597,1,2
224,92,157870,1,0
256,120,158007,1,2
312,188,158279,2,0,B|344:232|304:288,1,90
396,304,158825,6,0,B|428:256,1,45
420,266,159097,2,0,B|432:208,1,45,8|0
429,222,159370,2,0,B|408:172,1,45,8|0
411,180,159643,2,0,B|372:136,1,45,2|0
360,108,159916,1,0
328,80,160052,2,0,B|288:64,1,45,0|2
240,64,160325,1,0
196,64,160461,2,0,B|144:84|144:136,1,90
68,180,161007,6,0,B|68:120,2,45,0|0|8
72,272,161552,2,0,B|72:331,2,45,8|0|2
72,228,161961,1,0
156,200,162234,1,0
156,244,162370,1,2
155,244,162643,2,0,B|154:334,1,90,0|4
244,337,163188,6,0,B|298:341|323:289,1,90,0|8
242,247,163734,2,0,B|261:193|343:204,1,90,8|2
312,202,164143,1,0
365,129,164416,1,0
365,129,164552,2,0,B|409:154|403:205,1,90,2|0
403,204,165097,1,0
368,288,165370,5,0
280,264,165643,1,8
348,204,165916,1,8
348,204,166052,1,0
348,204,166188,1,2
308,224,166325,1,0
240,164,166597,1,0
204,136,166734,2,0,B|128:80,1,90,2|0
131,82,167279,1,4
120,172,167552,5,0
64,220,167825,1,8
176,220,168097,1,8
24,280,168370,1,2
216,280,168643,1,2
64,344,168916,1,0
172,344,169188,1,0
120,276,169461,1,0
120,184,169734,6,0,B|168:144,1,45,2|0
154,155,170007,2,0,B|192:192,1,45,2|0
186,186,170279,2,0,B|232:152,1,45,2|0
222,159,170552,2,0,B|256:200,1,45,2|0
251,194,170825,2,0,B|358:194,1,90,0|8
431,194,171370,2,0,B|343:194,1,90,8|4
341,103,171916,6,0,B|299:66|248:109,1,90,0|8
258,100,172461,1,8
256,192,172734,1,2
256,236,172870,1,0
256,328,173143,1,0
256,284,173279,1,2
344,264,173552,2,0,B|244:264,1,90
164,268,174097,5,0
164,268,174234,1,0
164,268,174370,2,0,B|108:264|84:216,1,90,8|8
89,225,174916,1,2
89,225,175052,1,0
88,136,175325,1,0
88,136,175461,1,2
116,52,175734,2,0,B|172:72|172:140,1,90
252,84,176279,5,0
252,128,176416,1,0
252,172,176552,1,8
252,216,176688,1,0
252,260,176825,1,8
308,192,177097,1,2
352,192,177234,2,0,B|444:192,1,90
488,192,177643,1,2
416,136,177916,2,0,B|416:40,1,90
328,72,178461,5,0
292,44,178597,1,0
252,68,178734,2,0,B|208:108|256:152,1,90,8|8
208,224,179279,2,0,B|256:192,1,45,2|0
312,260,179688,2,0,B|272:292,1,45,0|2
204,340,180097,2,0,B|148:340|148:284,1,90,0|4
148,196,180643,5,0
148,196,180916,1,8
148,108,181188,1,8
228,152,181461,1,2
228,152,181597,1,0
320,156,181870,1,0
320,156,182007,1,2
408,160,182279,1,0
408,160,182552,1,0
404,252,182825,6,0,B|360:284|320:248,1,90,0|8
308,340,183370,2,0,B|264:300|204:336,1,90,8|2
224,325,183779,1,0
136,324,184052,1,0
136,324,184188,2,0,B|100:280|152:236,1,90,2|0
143,244,184734,1,0
84,176,185007,6,0,B|120:140,1,45
148,112,185279,2,0,B|192:96,1,45,8|0
236,88,185552,2,0,B|288:92,1,45,8|0
320,112,185825,2,0,B|352:152,1,45,2|0
404,216,186234,2,0,B|372:176,1,45,0|2
375,180,186643,1,0
372,272,186916,1,0
260,332,187188,5,0
248,288,187325,1,0
276,252,187461,1,2
240,224,187597,1,0
276,196,187734,1,0
244,164,187870,1,0
260,120,188007,1,2
216,88,188143,2,0,B|260:56|312:92,1,90,8|4
