osu file format v5

[General]
AudioFilename: Catherine Warwick - Pollyanna (I Believe In You).mp3
AudioLeadIn: 0
PreviewTime: -1
Countdown: 1
SampleSet: None

[Metadata]
Title:Pollyanna (I Believe In You)
Artist:Catherine Warwick
Creator:K-S-O
Version:Hard

[Difficulty]
HPDrainRate:6
CircleSize:6
OverallDifficulty:6
SliderMultiplier:1.8
SliderTickRate:4

[Events]
//Background and Video events
0,0,"hidden01_080201b-l.jpg"
//Break Periods
2,75984,82940
2,110349,126539
2,170361,177831
//Storyboard Layer 0 (Background)
//Storyboard Layer 1 (Failing)
//Storyboard Layer 2 (Passing)
//Storyboard Layer 3 (Foreground)
//Storyboard Sound Samples
//Background Colour Transformations
3,100,163,162,255

[TimingPoints]
18850,512.920512820511,4,0,0,100

[HitObjects]
128,192,27056,5,0
160,128,27313,1,0
224,96,27569,1,0
288,96,27826,1,0
304,160,28082,2,0,B|208:176|176:288,1,180
208,336,28851,1,0
352,304,29364,5,0
416,320,29621,1,0
400,256,29877,1,0
448,208,30134,2,2,B|448:144|384:128,1,90
368,192,30647,1,2
304,48,31160,5,0
240,96,31416,1,0
176,64,31673,1,0
112,112,31929,1,0
176,144,32185,2,0,B|272:160|352:80,1,180
416,96,32955,1,0
464,144,33211,2,0,B|528:240|432:320,3,180
304,336,35263,5,0
256,272,35519,1,0
208,320,35776,1,0
160,272,36032,1,0
112,320,36289,2,0,B|64:256|64:208|128:160,1,180
176,208,37058,1,0
320,208,37571,5,0
384,192,37828,1,0
400,128,38084,1,0
448,80,38340,2,2,C|416:48|352:48,1,90
320,96,38853,1,2
192,160,39366,5,0
144,112,39623,1,0
112,176,39879,1,0
112,240,40136,1,0
144,304,40392,2,0,C|226:273|256:176,1,180
320,144,41162,1,0
384,160,41418,2,2,B|480:256|416:336,3,180
288,304,43470,5,0
224,320,43726,1,0
160,304,43983,1,0
112,256,44239,1,0
80,192,44496,1,0
64,128,44752,1,0
80,64,45008,1,0
224,48,45521,2,0,B|304:80|320:128,1,90
256,144,46034,2,0,B|192:176|160:208,1,90
224,240,46547,2,0,B|272:240|320:288,1,90
304,272,47060,1,4
400,176,47573,5,0
336,144,47830,1,0
320,64,48086,1,0
256,96,48342,1,0
224,160,48599,2,0,B|192:192|224:256,1,90
144,240,49112,1,0
128,160,49368,2,0,B|64:192|64:240,1,90
192,304,50138,5,4
256,320,50394,1,4
320,288,50651,2,4,B|288:240|336:192,1,90
400,224,51163,1,4
400,80,51676,5,0
432,16,51933,1,0
352,0,52189,1,0
320,64,52446,1,0
256,16,52702,2,0,B|192:112|304:176,1,180
352,128,53472,1,0
336,272,53985,5,0
336,272,54241,1,0
336,272,54497,1,0
320,336,54754,2,2,B|256:336|240:272,1,90
272,224,55267,1,2
128,208,55780,5,0
144,272,56036,1,0
80,256,56293,1,0
64,192,56549,1,0
112,144,56806,1,0
224,160,57190,1,0
320,176,57575,1,0
208,256,58088,1,0
336,320,58601,1,0
192,368,59114,1,0
192,368,59370,1,0
176,224,59883,5,0
240,176,60140,1,0
176,144,60396,1,0
112,112,60653,1,0
48,80,60909,2,0,B|144:32|224:48,1,180
272,112,61678,1,0
416,48,62191,5,0
368,96,62448,1,0
416,144,62704,1,0
352,160,62961,2,2,B|384:240|448:224,1,90
464,192,63474,1,2
352,288,63987,5,0
288,256,64243,1,0
208,256,64499,1,0
144,208,64756,1,0
80,224,65012,2,2,B|112:288|160:304,1,90
208,320,65525,1,2
272,320,65782,1,2
384,240,66295,1,2
256,176,66808,1,2
384,112,67320,1,2
384,112,67577,1,2
160,96,68090,5,0
80,80,68346,1,0
32,128,68603,1,0
64,192,68859,1,0
128,160,69116,2,2,B|192:192|192:240,1,90
208,160,69629,2,2,B|256:144|288:96,1,90
288,160,70142,2,2,B|320:176|352:224,1,90
352,160,70654,2,2,B|388:148|432:96,1,90
432,160,71167,1,4
448,288,71937,5,0
384,256,72193,1,0
320,288,72450,1,0
256,256,72706,1,0
192,288,72963,1,0
128,256,73219,1,0
128,176,73476,1,0
192,128,73732,1,0
256,96,73988,1,0
320,128,74245,1,0
448,64,74758,5,2
392,64,75271,1,2
392,64,75399,1,2
392,64,75527,1,2
328,64,75784,1,2
48,144,83990,5,0
80,208,84247,1,0
144,176,84503,1,0
192,240,84760,1,0
240,176,85016,2,2,B|288:208|304:240,1,90
352,192,85529,2,2,B|320:144|272:112,1,90
336,64,86042,5,0
400,96,86299,1,0
432,160,86555,1,0
400,224,86811,1,0
448,272,87068,2,2,B|400:320|352:320,1,90
320,272,87581,1,2
288,128,88094,5,0
256,192,88350,1,0
208,144,88607,1,0
176,208,88863,1,0
128,160,89120,2,2,B|112:176|96:272,1,90
160,288,89633,2,2,B|208:272|256:240,1,90
288,192,90145,1,2
352,224,90402,1,2
352,144,90658,1,2
464,64,91171,5,0
400,16,91428,1,0
336,64,91684,1,0
288,16,91941,1,0
144,48,92454,1,2
112,176,93223,5,4
168,176,93736,1,4
168,176,93864,1,4
168,176,93992,1,4
232,176,94249,1,4
400,176,94762,5,0
352,224,95018,1,0
400,272,95275,1,0
352,320,95531,1,0
304,272,95788,1,0
256,224,96044,1,0
304,176,96300,1,0
256,128,96557,1,0
208,176,96813,2,0,B|128:240,1,90
96,176,97326,2,0,B|176:112,1,90
208,64,97839,2,0,B|336:64,1,90
368,96,98352,2,0,B|448:176,1,90
384,208,98865,5,0
336,256,99122,1,0
288,208,99378,1,0
240,256,99634,1,0
160,256,99891,2,0,B|80:192,3,90
96,128,100917,1,0
96,48,101173,1,0
160,48,101430,2,0,B|240:128,1,90
160,128,101943,2,0,B|240:208,2,90
160,256,102968,5,0
208,304,103225,1,0
272,304,103481,1,0
320,256,103738,1,0
416,144,104251,1,0
416,144,104507,1,0
336,144,104764,1,0
336,64,105020,1,0
192,64,105533,6,0,B|96:96|64:192,3,180
128,240,107328,1,0
192,192,107585,1,0
192,192,107841,1,0
256,160,108098,2,0,B|304:224|304:288|256:336,3,180
336,336,109893,1,0
336,336,110149,1,0
128,192,127589,5,0
160,128,127846,1,0
224,96,128102,1,0
288,96,128359,1,0
304,160,128615,2,0,B|208:176|176:288,1,180
208,336,129384,1,0
352,304,129897,5,0
416,320,130154,1,0
400,256,130410,1,0
448,208,130667,2,2,B|448:144|384:128,1,90
368,192,131180,1,2
304,48,131693,5,0
240,96,131949,1,0
176,64,132206,1,0
112,112,132462,1,0
176,144,132718,2,0,B|272:160|352:80,1,180
416,96,133488,1,0
464,144,133744,2,0,B|528:240|432:320,3,180
304,336,135796,5,0
256,272,136052,1,0
208,320,136309,1,0
160,272,136565,1,0
112,320,136822,2,0,B|64:256|64:208|128:160,1,180
176,208,137591,1,0
320,208,138104,5,0
384,192,138361,1,0
400,128,138617,1,0
448,80,138873,2,2,C|416:48|352:48,1,90
320,96,139386,1,2
192,160,139899,5,0
144,112,140156,1,0
112,176,140412,1,0
112,240,140669,1,0
144,304,140925,2,0,C|226:273|256:176,1,180
320,144,141695,1,0
384,160,141951,2,2,B|480:256|416:336,3,180
288,304,144003,5,0
224,320,144259,1,0
160,304,144516,1,0
112,256,144772,1,0
80,192,145029,1,0
64,128,145285,1,0
80,64,145541,1,0
224,48,146054,2,0,B|304:80|320:128,1,90
256,144,146567,2,0,B|192:176|160:208,1,90
224,240,147080,2,0,B|272:240|320:288,1,90
304,272,147593,1,4
400,176,148106,5,0
336,144,148363,1,0
320,64,148619,1,0
256,96,148875,1,0
224,160,149132,2,0,B|192:192|224:256,1,90
144,240,149645,1,0
128,160,149901,2,0,B|64:192|64:240,1,90
192,304,150671,5,4
256,320,150927,1,4
320,288,151184,2,4,B|288:240|336:192,1,90
400,224,151696,1,4
368,80,152209,5,0
224,80,152722,1,0
80,80,153235,1,0
112,144,153491,1,0
176,176,153748,1,0
240,176,154004,2,2,B|352:208|352:304,3,180
272,304,155799,1,2
272,304,156056,1,2
192,304,156312,5,0
80,208,156825,1,0
80,64,157338,1,0
128,112,157594,1,0
176,64,157851,1,0
240,64,158107,2,2,B|352:112|352:208,3,180
272,176,159903,5,0
224,128,160160,1,0
160,160,160416,1,0
160,224,160673,1,0
224,256,160929,2,2,B|274:255|336:208,1,90
352,176,161442,2,2,B|334:127|272:96,1,90
336,48,161955,5,0
400,96,162212,1,0
432,160,162468,1,0
400,224,162724,1,0
448,272,162981,2,2,B|400:320|352:320,1,90
320,272,163494,1,2
288,128,164007,5,0
256,192,164263,1,0
208,144,164520,1,0
176,208,164776,1,0
128,160,165033,2,2,B|112:176|96:272,1,90
160,288,165546,2,2,B|208:272|256:240,1,90
288,192,166058,1,2
352,224,166315,1,2
352,144,166571,1,2
464,64,167084,5,0
400,16,167341,1,0
336,64,167597,1,0
288,16,167854,1,0
144,48,168367,1,2
112,176,169135,5,4
168,176,169648,1,4
168,176,169776,1,4
168,176,169904,1,4
232,176,170161,1,4
160,272,178881,6,0,B|80:208|80:112,1,180
224,96,179907,1,0
288,128,180163,1,0
304,64,180419,1,0
368,112,180676,2,0,B|432:192|336:288,3,180
288,320,182471,1,0
288,320,182728,1,0
208,320,182984,5,2
128,320,183241,1,2
80,272,183497,1,2
128,224,183753,1,2
64,176,184010,2,2,B|112:112|176:112,1,90
208,128,184523,1,2
176,64,184779,1,2
240,32,185036,2,4,B|320:80|320:192,3,180
384,192,186831,5,0
448,144,187087,1,0
384,96,187344,1,0
448,64,187600,1,0
512,96,187857,1,0
512,160,188113,1,0
480,224,188370,1,0
416,240,188626,1,0
400,304,188883,5,0
352,352,189139,2,2,B|272:320|272:272,1,90
336,256,189652,2,2,B|304:224|240:208,1,90
208,272,190165,1,2
64,272,190678,5,0
32,208,190934,1,0
96,208,191191,1,0
64,144,191447,1,0
128,144,191704,1,0
160,208,191960,1,0
192,144,192217,1,0
224,80,192473,1,0
144,80,192730,1,0
192,16,192986,1,0
256,16,193242,1,0
304,80,193499,1,0
272,144,193755,1,0
336,144,194012,1,0
400,144,194268,1,0
320,256,194781,5,0
240,256,195038,1,0
272,320,195294,1,0
192,320,195551,1,0
160,256,195807,1,0
192,192,196064,1,0
240,144,196320,1,0
288,192,196576,1,0
336,144,196833,1,0
400,144,197089,1,0
448,96,197346,1,0
256,192,197602,12,4,200936
