osu file format v5

[General]
AudioFilename: 04 - Castle Corridor.mp3
AudioLeadIn: 1015
PreviewTime: -1
Countdown: 1
SampleSet: Normal
StackLeniency: 0.7
Mode: 0
LetterboxInBreaks: 1
EditorDistanceSpacing: 0.800000011920929

[Metadata]
Title:Castle Corridor
Artist:Castlevania - Aria of Sorrow
Creator:Larto
Version:LARTO Mix
Source:
Tags:

[Difficulty]
HPDrainRate:5
CircleSize:5
OverallDifficulty:7
SliderMultiplier:2.6
SliderTickRate:2

[Events]
//Background and Video events
0,0,"9_8204_916049a209648d4.jpg"
//Break Periods
//Storyboard Layer 0 (Background)
//Storyboard Layer 1 (Fail)
//Storyboard Layer 2 (Pass)
//Storyboard Layer 3 (Foreground)
//Storyboard Sound Samples
//Background Colour Transformations
3,100,163,162,255

[TimingPoints]
1755.19670281343,436.842371771553,4,1,0,49,1,0
13877,-100,4,1,0,21,0,0
14095,-100,4,1,0,28,0,0
14314,-100,4,1,0,41,0,0
14532,-100,4,1,0,29,0,0
14750,-100,4,1,0,19,0,0
14969,-100,4,1,0,31,0,0
15186,-100,4,1,0,41,0,0
15406,-100,4,1,0,31,0,0
15622,-100,4,1,0,21,0,0
15843,-100,4,1,0,29,0,0
16058,-100,4,1,0,41,0,0
16280,-100,4,1,0,29,0,0
16494,-100,4,1,0,19,0,0
16717,-100,4,1,0,28,0,0
16934,-100,4,1,0,49,0,0
17263,-100,4,1,0,70,0,0
17590,-100,4,1,0,50,0,0
43855,-100,4,1,0,35,0,0
44018,-100,4,1,0,20,0,0
44236,-100,4,1,0,60,0,0
44511,-100,4,1,0,43,0,0
44729,-100,4,1,0,32,0,0
44892,-100,4,1,0,49,0,0
45166,-100,4,1,0,36,0,0
45384,-100,4,1,0,49,0,0
47350,-100,4,1,0,49,0,0
47568,-100,4,1,0,34,0,0
47731,-100,4,1,0,59,0,0
48004,-100,4,1,0,60,0,0
48222,-100,4,1,0,44,0,0
48385,-100,4,1,0,53,0,0
48658,-100,4,1,0,34,0,0
48876,-100,4,1,0,21,0,0
49149,-100,4,1,0,51,0,0
62781,-100,4,2,0,49,0,0
64528,-100,4,1,0,49,0,0

[Colours]
Combo1 : 0,0,0
Combo2 : 255,255,255
Combo3 : 244,37,0
Combo4 : 169,103,63

[HitObjects]
320,192,1536,1,0
376,280,1755,2,8,B|424:232|416:128|352:72,1,195
192,192,2410,5,0
136,104,2628,2,8,B|88:152|96:256|160:312,1,195
256,96,3284,5,0
256,96,3502,2,4,B|256:304,2,195
256,96,4376,1,8
192,16,4594,1,2
320,16,4813,1,8
256,96,5031,1,2
328,224,5249,6,8,B|440:224|512:160,2,195,8|8|0
192,288,6123,2,8,B|80:288|8:224,2,195,8|8|0
256,352,6997,2,4,C|272:288|240:192|256:96,1,260
200,32,7652,1,0
256,16,7761,1,0
312,32,7870,1,0
328,160,8089,1,2
184,160,8307,1,0
328,160,8526,1,2
408,264,8744,5,12
256,296,9072,1,8
104,264,9399,1,0
104,136,9618,1,8
256,88,9945,1,8
408,136,10273,1,0
300,127,10492,6,6,B|332:151|348:192|345:248|305:293|263:303|212:287|175:264|156:199|175:161|228:103,1,390
256,88,11256,1,0
312,63,11365,2,6,B|343:76|364:104|386:143|420:182|404:238|388:308|316:332|286:337|265:336|228:332|186:313,1,390,6|2
200,216,12239,6,8,B|136:176|80:232|0:208,2,195
312,168,13113,2,2,B|376:208|432:152|512:176,2,195
320,272,13986,6,0,C|190:272,1,130,0|2
320,336,14423,2,0,C|190:336,1,130,0|2
128,248,14860,1,0
200,192,15078,1,2
312,192,15297,1,0
392,152,15515,1,2
304,112,15734,6,0,C|174:112,1,130,0|2
304,48,16171,2,0,C|174:48,1,130,0|2
112,136,16608,1,0
200,192,16826,1,2
312,192,17045,1,4
136,336,17481,6,4,C|176:320|216:336|256:320|296:336|336:320|376:336|432:320,1,260,4|0
432,216,18136,1,0
432,216,18245,1,0
432,216,18355,2,8,C|392:232|352:216|312:232|272:216|232:232|192:216|136:232,1,260,8|0
96,128,19010,1,0
96,128,19119,1,0
96,128,19228,2,2,C|136:112|176:128|216:112|256:128|296:112|336:128|392:112,1,260,2|0
448,56,19884,1,0
448,56,19993,1,0
448,56,20102,2,8,C|408:40|368:56|328:40|288:56|248:40|208:56|152:40,1,260
200,160,20757,5,0
200,160,20976,2,4,B|200:96|264:96|328:96|328:160|328:224|264:224|200:224,1,260,4|0
216,344,21631,5,0
216,344,21740,1,0
216,344,21849,2,2,B|296:352|360:336|408:272|416:216,1,260,2|0
399,104,22505,5,0
399,104,22614,1,0
400,104,22723,2,2,B|369:32|301:0|221:4|173:34,1,260,2|0
104,96,23378,5,0
104,96,23488,1,0
104,96,23597,2,4,B|61:140|56:220|88:296|161:319,1,260
312,288,24252,5,0
312,288,24471,2,8,C|328:256|360:232|352:184|384:160|368:104|400:64,1,260
200,96,25126,5,0
200,96,25235,1,0
200,96,25344,2,8,C|184:128|152:152|160:200|128:224|144:280|112:320,1,260
224,312,25999,5,0
224,312,26109,1,0
224,312,26218,2,8,C|240:280|272:256|264:208|296:184|280:128|312:88,1,260
160,48,26873,5,0
208,32,26982,1,0
256,16,27092,1,2
352,48,27310,5,0
256,88,27528,1,2
256,264,27965,6,6,B|168:192|64:272,2,195
256,264,28839,2,8,B|344:336|448:256,2,195
352,224,29713,5,0
440,168,29931,1,8
352,120,30149,1,0
264,168,30368,1,8
176,224,30586,5,0
264,280,30805,1,8
176,336,31023,1,0
88,280,31242,1,8
0,224,31460,5,0
88,168,31678,1,8
176,112,31897,1,0
88,64,32115,1,8
176,16,32334,5,0
264,64,32552,1,8
352,112,32771,1,0
264,160,32989,1,8
176,208,33207,6,0,B|168:288|272:264,1,130,0|8
352,216,33644,2,0,B|360:136|256:160,1,130,0|8
352,112,34081,6,0,B|344:32|448:56,1,130,0|8
512,104,34518,2,0,B|520:184|416:160,1,130,0|8
424,264,34955,5,0
352,336,35173,1,8
256,368,35392,1,0
152,344,35610,1,8
72,280,35828,5,0
40,176,36047,1,8
88,80,36265,1,0
176,32,36484,5,0
176,32,36593,1,0
176,32,36702,6,2,B|328:40|392:208,1,260
464,120,37357,1,0
400,32,37576,2,2,B|320:64|208:144|200:200,1,260
112,248,38231,1,0
120,144,38449,2,2,B|272:128|384:264,1,260
432,168,39105,1,0
352,104,39323,2,6,B|296:176|184:184|128:72,1,260
240,80,39978,1,0
256,192,40197,12,0,41725
256,192,41944,12,0,42818
256,120,43146,5,0
256,120,43473,1,0
256,120,43582,1,0
256,120,43692,2,8,B|144:48,2,130
256,120,44347,2,8,B|368:48,2,130
256,120,45002,2,8,B|256:264,2,130,8|8|4
112,200,46313,5,0
112,200,46422,1,0
112,200,46531,1,2
112,200,46640,1,0
112,200,46749,1,2
112,200,46859,1,2
112,200,46968,1,2
112,200,47077,1,0
112,200,47186,6,8,B|0:128,2,130
112,200,47842,2,8,B|224:128,2,130
112,200,48497,2,8,B|112:344,2,130
112,200,49371,1,4
440,328,49807,5,0
440,328,49917,1,0
440,328,50026,1,2
440,328,50135,1,0
440,328,50244,1,2
440,328,50353,1,2
440,328,50463,1,2
440,328,50572,1,0
440,328,50681,6,8,B|288:328,1,130,8|0
208,328,51118,1,8
136,248,51336,1,0
136,248,51446,1,0
136,248,51555,2,2,B|288:248,1,130,10|2
368,248,51992,1,10
440,168,52210,5,0
440,168,52319,1,0
440,168,52428,2,0,B|288:168,1,130,8|0
208,168,52865,1,8
136,96,53084,1,0
136,96,53193,1,0
136,96,53302,2,2,B|288:96,1,130
368,96,53739,1,2
440,168,53957,6,0,B|448:184|472:224|448:256|408:296|368:280,1,130,0|8
336,199,54394,2,0,B|320:192|296:221|272:253|296:293|304:309,1,130,0|8
224,232,54831,2,0,B|232:248|256:288|232:320|192:360|152:344,1,130,0|4
135,256,55268,2,0,B|120:256|95:278|71:310|95:350|103:366,1,130,0|4
24,280,55705,5,0
56,184,55923,1,2
136,120,56142,1,2
224,72,56360,1,2
328,56,56578,1,2
432,80,56797,2,4,B|440:168|360:280|240:288,1,260
168,328,57452,5,0
80,304,57671,2,2,B|72:216|168:104|288:88,1,260
216,232,58326,5,0
216,232,58435,1,0
216,232,58544,2,2,C|232:184|280:184|296:136|344:136|376:72,1,260
456,200,59199,5,0
456,200,59309,1,0
456,200,59418,1,12
88,344,59855,1,12
88,40,60292,1,12
256,192,60728,1,12
352,56,61165,6,2,B|312:32|216:24|144:64,1,195
112,264,61821,5,0
160,328,62039,2,2,B|200:352|296:360|368:320,1,195
336,72,62694,5,0
208,72,62913,1,0
320,152,63131,1,2
184,152,63349,1,2
296,224,63568,1,0
168,224,63786,1,2
272,296,64005,1,2
144,296,64223,1,2
248,368,64442,1,0
376,344,64660,6,8,B|448:272|448:176|408:112,2,195,8|0|0
248,232,65534,6,8,B|168:176|168:104|176:32,2,195,8|8|0
272,104,66407,6,4,B|392:184|352:280,2,195
144,216,67281,6,8,B|40:264|64:344,3,130,8|8|8|0
184,328,68155,6,2,B|304:376|376:296,1,195
328,56,68810,5,0
328,56,69028,2,6,B|208:8|136:88,1,195
256,192,69684,5,0
212,127,69902,6,6,B|180:151|164:192|167:248|207:293|249:303|300:287|337:264|356:199|337:161|284:103,1,390
256,88,70666,1,0
200,63,70775,2,6,B|169:76|148:104|126:143|92:182|108:238|124:308|196:332|226:337|247:336|284:332|326:313,1,390,6|2
360,304,71649,6,8,B|424:224|408:160|336:72,1,195
152,304,72305,1,0
152,304,72523,2,2,B|88:224|104:160|176:72,1,195
256,192,73178,1,0
352,192,73397,6,4,B|384:256|352:320|288:320|224:320|160:224,1,260
160,192,74052,1,8
160,192,74161,1,0
160,192,74271,2,0,B|128:128|160:64|224:64|288:64|352:160,1,260,8|0
389,168,74926,5,0
388,168,75144,2,6,B|396:248|396:312|300:360|252:344,1,260
203,255,75799,1,0
124,168,76018,2,6,B|116:248|116:312|212:360|260:344,1,260
309,255,76673,1,0
456,344,76892,5,8
56,344,77328,1,8
56,40,77765,1,8
456,40,78202,1,8
256,40,78639,5,8
408,192,79076,1,8
256,344,79513,1,8
104,192,79949,1,8
144,192,80059,1,0
184,192,80168,1,0
224,192,80277,1,0
256,192,80386,1,8
360,288,80823,5,8
152,288,81260,1,8
152,96,81697,1,8
360,96,82134,5,8
256,344,82571,1,8
104,192,83008,1,8
256,40,83445,1,8
408,192,83881,5,8
408,296,84099,1,0
304,296,84318,1,0
208,296,84536,1,0
104,296,84755,5,8
104,192,84973,1,0
104,88,85191,1,0
208,88,85410,1,0
304,88,85628,5,8
408,88,85847,1,0
408,192,86065,1,0
304,192,86284,1,0
208,192,86502,5,8
104,192,86721,1,0
104,296,86939,1,0
208,296,87158,1,0
296,376,87376,6,12,B|224:384|192:328|192:256|200:224|256:192|256:192|328:152|352:104|320:24|216:0,2,520
256,192,89232,12,4,90871
