osu file format v5

[General]
AudioFilename: HSM3 - Now or Never.mp3
AudioLeadIn: 0
PreviewTime: -1
Countdown: 0
SampleSet: None
StackLeniency: 0.7
Mode: 0
LetterboxInBreaks: 1
EditorBookmarks: 7680,24341,41523,57143,90465,108168,123788,143521,176310

[Metadata]
Title:Now or Never (From High School Musical 3)
Artist:Cast
Creator:kevind515
Version:Not So Hard
Source:
Tags:

[Difficulty]
HPDrainRate:4
CircleSize:4
OverallDifficulty:0
SliderMultiplier:1.4
SliderTickRate:1

[Events]
//Background and Video events
0,0,"hsm3.jpg"
//Break Periods
2,73483,89707
2,159335,174510
//Storyboard Layer 0 (Background)
//Storyboard Layer 1 (Failing)
//Storyboard Layer 2 (Passing)
//Storyboard Layer 3 (Foreground)
//Storyboard Sound Samples
//Background Colour Transformations
3,100,163,162,255

[TimingPoints]
7680,520.464966056882,4,0,0,100

[Colours]
Combo1 : 0,0,160
Combo2 : 255,0,0
Combo3 : 192,192,192
Combo4 : 0,0,0

[HitObjects]
96,96,7679,1,0
96,160,8720,1,0
96,224,9761,1,0
96,288,10802,1,0
192,288,11843,5,0
192,224,12884,1,0
192,160,13925,1,0
192,96,14966,1,0
320,96,16007,5,0
320,160,17048,1,0
320,224,18089,1,0
320,288,19130,1,0
416,288,20171,5,0
416,224,21212,1,0
416,160,22253,1,0
416,96,23293,1,0
160,128,25375,5,0
256,128,25896,1,0
352,128,26416,1,0
352,256,27457,5,0
256,256,27978,1,0
160,256,28498,1,0
224,192,29539,5,0
288,192,30059,1,0
256,64,30840,5,0
256,128,31361,1,0
256,192,31881,1,0
256,256,32402,1,0
256,288,32662,1,2
96,96,33703,5,0
96,192,34223,1,0
96,288,34744,1,0
416,96,35785,5,0
416,192,36305,1,0
416,288,36826,1,0
192,192,37866,5,2
320,192,38387,1,2
256,128,38907,6,0,B|256:288,4,140
160,160,42030,5,0
192,96,42551,1,0
224,32,43071,1,0
288,32,44112,1,0
320,96,44633,1,0
352,160,45153,1,0
64,256,46194,5,0
128,256,46714,1,0
192,256,47235,1,0
256,256,47755,1,0
320,256,48276,1,0
384,256,48796,1,0
448,256,49317,1,0
224,96,50358,6,0,B|416:96|512:96,1,280
96,288,52439,5,0
96,288,52700,1,0
96,288,52960,1,0
96,288,53220,1,0
96,288,53480,1,0
256,192,54521,12,4,56604
64,64,57644,5,0
64,128,58165,1,0
64,192,58685,1,0
64,224,58945,1,0
64,256,59206,1,0
448,64,59726,5,0
448,128,60246,1,0
448,192,60767,1,0
448,224,61027,1,0
448,256,61287,1,0
160,192,61808,5,0
224,192,62328,1,0
288,192,62849,1,0
320,192,63109,1,0
352,192,63369,1,0
192,320,64150,5,4
320,320,64931,1,4
32,32,65972,5,0
96,32,66492,1,0
160,32,67013,1,0
192,32,67273,1,0
224,32,67533,1,0
480,128,68053,5,0
416,128,68574,1,0
352,128,69094,1,0
320,128,69355,1,0
288,128,69615,1,0
128,352,70135,5,0
192,352,70656,1,0
256,352,71176,1,0
288,352,71436,1,0
320,352,71697,1,0
352,352,71957,1,0
256,64,72477,5,0
256,320,73258,1,4
96,96,91474,5,0
96,192,91995,1,0
96,288,92515,1,0
224,288,94077,5,0
320,288,94597,1,0
416,288,95118,1,0
416,192,96159,5,0
416,96,96679,1,0
320,96,97199,6,2,B|192:192,4,140
64,64,100322,5,0
128,128,100843,1,0
192,192,101363,1,0
320,192,102404,5,0
384,128,102925,1,0
448,64,103445,1,0
256,160,104486,5,0
256,224,105006,1,0
128,288,105787,5,0
192,288,106308,1,0
256,288,106828,1,0
320,288,107349,1,0
352,288,107609,1,0
64,96,108650,5,0
128,128,109170,1,0
192,96,109691,1,0
448,96,110732,1,0
384,128,111252,1,0
320,96,111772,1,0
64,320,112813,5,0
128,320,113334,1,0
192,320,113854,1,0
256,320,114375,1,0
320,320,114895,1,0
384,320,115416,1,0
448,320,115936,1,0
96,64,116977,6,0,B|96:352,1,280
384,128,119059,5,0
384,128,119319,1,0
384,128,119579,1,0
384,128,119840,1,0
384,128,120100,1,0
256,192,121141,12,4,123224
64,64,124264,1,0
128,64,124784,1,0
192,64,125305,1,0
224,64,125565,1,0
256,64,125825,1,0
128,160,126346,5,0
192,160,126866,1,0
256,160,127386,1,0
288,160,127647,1,0
320,160,127907,1,0
192,256,128427,5,0
256,256,128948,1,0
320,256,129468,1,0
352,256,129729,1,0
384,256,129989,1,0
256,160,130769,5,0
256,256,131550,1,0
96,96,132591,5,0
96,160,133112,1,0
96,224,133632,1,0
96,256,133892,1,0
96,288,134152,1,0
224,288,134673,5,0
224,224,135193,1,0
224,160,135714,1,0
224,128,135974,1,0
224,96,136234,1,0
384,64,136755,5,0
384,128,137275,1,0
384,192,137796,1,0
384,224,138056,1,0
384,256,138316,1,0
384,288,138576,1,0
160,96,139097,5,0
352,288,139878,1,0
256,192,140919,12,0,143000
96,256,144041,2,0,B|96:32|257:32|416:32|416:288,1,560
448,128,147164,6,0,B|420:293|285:383|196:328|96:256|96:96,2,560
96,192,152369,5,0
256,192,153410,1,0
160,288,154451,1,0
352,288,155492,1,0
160,96,157573,5,0
224,160,158094,1,0
288,224,158614,1,0
352,288,159135,1,4
64,64,176310,5,0
128,64,176831,1,0
192,64,177351,1,0
224,64,177611,1,0
256,64,177872,1,4
416,64,178392,5,0
416,128,178912,1,0
416,160,179433,1,0
416,192,179693,1,0
416,224,179953,1,4
416,320,180474,5,0
352,320,180994,1,0
288,320,181515,1,0
256,320,181775,1,0
224,320,182035,1,4
128,320,182816,5,0
128,224,183597,1,0
96,288,184638,5,0
160,288,185158,1,0
224,288,185679,1,0
256,288,185939,1,0
288,288,186199,1,4
448,288,186719,5,0
448,224,187240,1,0
448,160,187760,1,0
448,128,188021,1,0
448,96,188281,1,4
352,64,188801,5,0
288,64,189322,1,0
224,64,189842,1,0
192,64,190102,1,0
160,64,190363,1,0
128,64,190623,1,0
64,128,191143,5,0
64,256,191924,1,0
256,192,192965,12,4,198690
