osu file format v5

[General]
AudioFilename: HSM3 - Now or Never.mp3
AudioLeadIn: 0
PreviewTime: -1
Countdown: 0
SampleSet: None
StackLeniency: 0.7
Mode: 0
LetterboxInBreaks: 1
EditorBookmarks: 7680,24341,41523,57143,90465,108168,123788,143521,176310

[Metadata]
Title:Now or Never (From High School Musical 3)
Artist:Cast
Creator:kevind515
Version:Not So Easy
Source:
Tags:

[Difficulty]
HPDrainRate:5
CircleSize:5
OverallDifficulty:5
SliderMultiplier:1.4
SliderTickRate:2

[Events]
//Background and Video events
0,0,"hsm3.jpg"
//Break Periods
2,73978,90274
2,159335,175110
//Storyboard Layer 0 (Background)
//Storyboard Layer 1 (Failing)
//Storyboard Layer 2 (Passing)
//Storyboard Layer 3 (Foreground)
//Storyboard Sound Samples
//Background Colour Transformations
3,100,163,162,255

[TimingPoints]
7680,520.464966056882,4,0,0,100

[Colours]
Combo1 : 0,0,160
Combo2 : 255,0,0
Combo3 : 192,192,192
Combo4 : 0,0,0

[HitObjects]
64,64,7940,1,0
64,64,8200,1,0
64,128,8720,1,0
64,128,8981,1,0
64,192,9501,1,0
64,192,9761,1,0
64,256,10282,1,0
64,288,10802,1,0
64,320,11323,1,0
192,288,12103,5,0
192,288,12364,1,0
192,224,12884,1,0
192,224,13144,1,0
192,160,13665,1,0
192,160,13925,1,0
192,96,14446,1,0
192,64,14966,1,0
192,32,15486,1,0
320,64,16267,5,0
320,64,16527,1,0
320,128,17048,1,0
320,128,17308,1,0
320,192,17829,1,0
320,192,18089,1,0
320,256,18609,1,0
320,288,19130,1,0
320,320,19650,1,0
448,288,20431,5,0
448,288,20691,1,0
448,224,21212,1,0
448,224,21472,1,0
448,160,21992,1,0
448,160,22253,1,0
448,96,22773,1,0
448,64,23293,1,0
448,32,23814,1,0
288,96,24334,6,0,B|64:224,1,210
96,224,25375,1,0
128,224,25636,1,0
160,224,25896,1,0
192,224,26156,1,0
224,224,26416,1,0
320,288,27197,5,0
320,288,27457,2,0,B|320:160,1,70
320,224,27978,2,0,B|320:96,1,70
320,128,28498,1,0
160,64,29279,6,0,B|33:202|192:320,1,280
256,64,30840,5,0
256,128,31361,1,0
256,192,31881,1,0
256,256,32402,1,0
256,288,32662,1,0
96,96,33703,5,0
96,128,33963,1,0
96,160,34223,1,0
96,192,34483,1,0
96,224,34744,1,0
448,64,35785,5,0
448,96,36045,1,0
448,128,36305,1,0
448,160,36565,1,0
448,192,36826,1,0
160,256,37346,5,0
224,224,37866,1,0
256,192,38127,1,0
288,160,38387,1,0
192,64,38907,6,0,B|320:128,1,140
317,127,39688,2,0,B|157:223,1,140
196,199,40469,2,0,B|328:278,1,140
160,192,41770,5,0
160,160,42030,1,0
192,128,42290,1,0
192,96,42551,1,0
224,64,42811,1,0
224,32,43071,1,0
288,32,43852,1,0
288,64,44112,1,0
320,96,44372,1,0
320,128,44633,1,0
352,160,44893,1,0
352,192,45153,1,0
64,256,46194,5,0
96,256,46454,1,0
128,256,46714,1,0
160,256,46975,1,0
192,256,47235,1,0
256,256,47755,1,0
320,256,48276,1,0
384,256,48796,1,0
416,256,49056,1,0
320,64,50097,6,0,B|494:198|288:352,1,350
96,288,52439,5,0
96,288,52700,1,0
96,288,52960,1,0
96,288,53220,1,0
96,288,53480,1,2
256,192,54521,12,4,56604
96,128,57644,1,0
96,128,57774,1,0
96,128,57904,1,0
96,128,58034,1,0
96,128,58295,1,0
96,192,58685,1,0
96,224,58945,1,0
96,256,59206,1,0
256,288,59726,5,0
256,288,59856,1,0
256,288,59986,1,0
256,288,60116,1,0
256,288,60377,1,0
256,224,60767,1,0
256,192,61027,1,0
256,160,61287,1,0
384,96,61808,5,0
384,96,61938,1,0
384,96,62068,1,0
384,96,62198,1,0
384,96,62458,1,0
384,160,62849,1,0
384,192,63109,1,0
384,224,63369,1,0
384,288,64150,6,0,B|96:64,1,350
192,64,65972,5,0
192,64,66102,1,0
192,64,66232,1,0
192,64,66362,1,0
192,64,66622,1,0
256,64,67013,1,0
288,64,67273,1,0
320,64,67533,1,0
320,160,68053,5,0
320,160,68184,1,0
320,160,68314,1,0
320,160,68444,1,0
320,160,68704,1,0
256,160,69094,1,0
224,160,69355,1,0
192,160,69615,1,0
192,288,70135,5,0
192,288,70265,1,0
192,288,70396,1,0
192,288,70526,1,0
192,288,70786,1,0
256,288,71176,1,0
288,288,71436,1,0
320,288,71697,1,0
352,288,71957,1,0
416,192,72477,6,4,B|320:98|166:94|96:192|96:192,1,350
96,128,91474,5,0
96,160,91735,1,0
96,192,91995,1,0
96,224,92255,1,0
96,256,92515,1,0
96,288,92776,1,0
192,288,93816,5,0
192,288,94077,2,0,B|288:288,1,70
256,288,94597,2,0,B|352:288,1,70
352,288,95118,1,0
384,320,95898,6,0,B|455:148|320:32,1,280
224,32,97460,6,2,B|108:44|21:116|20:278|139:356|288:352,1,490
64,64,100322,5,0
96,96,100582,1,0
128,128,100843,1,0
160,160,101103,1,0
192,192,101363,1,0
320,192,102404,5,0
352,160,102664,1,0
384,128,102925,1,0
416,96,103185,1,0
448,64,103445,1,0
256,128,104226,5,0
256,160,104486,1,0
256,192,104746,1,0
256,224,105006,1,0
256,256,105267,1,0
192,320,105787,6,0,B|320:256,1,140
317,257,106568,2,0,B|189:193,1,140
192,195,107349,2,0,B|320:131,1,140
448,96,108389,5,0
416,128,108650,1,0
384,160,108910,1,0
352,192,109170,1,0
320,192,109430,1,0
288,192,109691,1,0
64,96,110471,1,0
96,128,110732,1,0
128,160,110992,1,0
160,192,111252,1,0
192,192,111512,1,0
224,192,111772,1,0
64,320,112813,5,0
96,320,113074,1,0
128,320,113334,1,0
160,320,113594,1,0
192,320,113854,1,0
256,320,114375,1,0
320,320,114895,1,0
384,320,115416,1,0
416,320,115676,1,0
106,38,116717,6,0,B|106:166,1,70
106,108,117237,2,0,B|202:204,1,70
156,158,117758,2,0,B|284:158,1,70
288,160,118539,1,0
384,128,119059,5,0
384,128,119319,1,0
384,128,119579,1,0
384,128,119840,1,0
384,128,120100,1,0
256,192,121141,12,4,123224
64,96,124264,1,0
64,96,124394,1,0
64,96,124524,1,0
64,96,124654,1,0
64,96,124914,1,0
128,96,125305,1,0
160,96,125565,1,0
192,96,125825,1,0
160,192,126346,5,0
160,192,126476,1,0
160,192,126606,1,0
160,192,126736,1,0
160,192,126996,1,0
224,192,127386,1,0
256,192,127647,1,0
288,192,127907,1,0
256,288,128427,5,0
256,288,128557,1,0
256,288,128688,1,0
256,288,128818,1,0
256,288,129078,1,0
320,288,129468,1,0
352,288,129729,1,0
384,288,129989,1,0
416,96,130769,6,0,B|96:288,1,350
64,256,132591,5,0
64,256,132721,1,0
64,256,132851,1,0
64,256,132981,1,0
64,256,133242,1,0
64,192,133632,1,0
64,160,133892,1,0
64,128,134152,1,0
160,96,134673,5,0
160,96,134803,1,0
160,96,134933,1,0
160,96,135063,1,0
160,96,135324,1,0
224,96,135714,1,0
256,96,135974,1,0
288,96,136234,1,0
224,160,136755,5,0
224,160,136885,1,0
224,160,137015,1,0
224,160,137145,1,0
224,160,137405,1,0
224,224,137796,1,0
224,256,138056,1,0
224,288,138316,1,0
224,320,138576,1,0
96,96,139097,5,0
160,128,139487,1,0
224,160,139878,1,0
320,192,140398,1,0
256,192,140919,12,4,143000
352,64,143781,1,0
320,64,144041,1,0
256,64,144432,1,0
192,64,144822,1,0
160,64,145082,2,0,B|384:256,1,280
320,288,147164,5,0
256,288,147685,1,0
224,288,147945,1,0
192,288,148205,1,0
160,288,148465,1,0
128,288,148726,1,0
64,288,149246,2,0,B|352:288,2,280
34,235,152109,6,0,B|6:100|146:95,1,210
141,96,153149,2,0,B|226:87|397:288,1,280
384,288,154711,1,0
416,288,154971,1,0
448,288,155231,1,0
448,224,155752,1,0
416,192,156012,1,0
384,160,156272,1,0
320,128,157573,5,0
288,128,157834,1,0
256,128,158094,1,0
192,128,158614,1,0
192,192,159135,1,4
128,96,176310,5,0
128,96,176440,1,0
128,96,176570,1,0
128,96,176700,1,0
128,96,176961,1,0
192,96,177351,1,0
224,96,177611,1,0
256,96,177872,1,0
384,96,178392,5,0
384,96,178522,1,0
384,96,178652,1,0
384,96,178782,1,0
384,96,179043,1,0
384,160,179433,1,0
384,192,179693,1,0
384,224,179953,1,0
352,320,180474,5,0
352,320,180604,1,0
352,320,180734,1,0
352,320,180864,1,0
352,320,181124,1,0
288,320,181515,1,0
256,320,181775,1,0
224,320,182035,1,0
128,320,182816,5,0
128,256,183206,1,0
128,192,183597,1,0
128,128,184117,1,4
256,64,184638,5,0
256,64,184768,1,0
256,64,184898,1,0
256,64,185028,1,0
256,64,185288,1,0
256,128,185679,1,0
256,160,185939,1,0
256,192,186199,1,0
384,128,186719,5,0
384,128,186850,1,0
384,128,186980,1,0
384,128,187110,1,0
384,128,187370,1,0
384,192,187760,1,0
384,224,188021,1,0
384,256,188281,1,0
160,96,188801,5,0
160,96,188931,1,0
160,96,189062,1,0
160,96,189192,1,0
160,96,189452,1,0
160,160,189842,1,0
160,192,190102,1,0
160,224,190363,1,0
160,256,190623,1,0
160,288,191143,5,0
224,224,191534,1,0
288,192,191924,1,0
352,224,192445,1,0
256,192,192965,12,4,198690
