osu file format v14

[General]
AudioFilename: Cash Cash - Take Me Home feat. Bebe Rexha [Official Lyric Video].mp3
AudioLeadIn: 0
PreviewTime: -1
Countdown: 0
SampleSet: Normal
StackLeniency: 0.7
Mode: 0
LetterboxInBreaks: 1
WidescreenStoryboard: 0

[Editor]
DistanceSpacing: 1
BeatDivisor: 2
GridSize: 4
TimelineZoom: 1

[Metadata]
Title:Cash Cash - Take Me Home feat. Bebe Rexha [Official Lyric Video]
TitleUnicode:Cash Cash - Take Me Home feat. Bebe Rexha [Official Lyric Video]
Artist:
ArtistUnicode:
Creator:ivander20
Version:
Source:
Tags:
BeatmapID:535192
BeatmapSetID:230023

[Difficulty]
HPDrainRate:2
CircleSize:3
OverallDifficulty:2
ApproachRate:2
SliderMultiplier:1.1
SliderTickRate:2

[Events]
//Background and Video events
0,0,"CC-TMH_CHAINSMOKERS-REMIX-780x780.jpg",0,0
//Break Periods
//Storyboard Layer 0 (Background)
//Storyboard Layer 1 (Fail)
//Storyboard Layer 2 (Pass)
//Storyboard Layer 3 (Foreground)
//Storyboard Sound Samples

[TimingPoints]
0,468.75,4,1,0,80,1,0
75468,-100,4,1,0,80,0,1
92369,-100,4,1,0,80,0,0
136875,-100,4,1,0,80,0,1
152343,-100,4,1,0,80,0,0
165937,-100,4,1,0,80,0,1
182358,-100,4,1,0,80,0,0

[Colours]
Combo1 : 255,128,64
Combo2 : 128,255,0
Combo3 : 255,0,0
Combo4 : 0,0,255

[HitObjects]
272,124,703,5,0,0:0:0:0:
124,180,1171,1,0,0:0:0:0:
252,256,1640,1,0,0:0:0:0:
152,80,2109,1,0,0:0:0:0:
264,80,2578,1,0,0:0:0:0:
388,152,3046,1,0,0:0:0:0:
252,220,3515,2,0,L|116:216,2,110,0|0|0,0:0|0:0|0:0,0:0:0:0:
256,108,4921,1,0,0:0:0:0:
392,112,5390,5,0,0:0:0:0:
316,216,5859,1,0,0:0:0:0:
256,108,6328,1,0,0:0:0:0:
168,200,6796,1,0,0:0:0:0:
160,312,7265,2,0,L|244:316,2,55,0|0|0,0:0|0:0|0:0,0:0:0:0:
272,248,8203,5,0,0:0:0:0:
272,204,8437,1,0,0:0:0:0:
272,164,8671,1,0,0:0:0:0:
340,60,9140,2,0,L|244:60,2,55,0|0|0,0:0|0:0|0:0,0:0:0:0:
408,152,10078,1,0,0:0:0:0:
408,272,10546,1,0,0:0:0:0:
292,204,11015,1,0,0:0:0:0:
224,88,11484,5,0,0:0:0:0:
112,112,11953,2,0,L|112:220,2,55,0|0|0,0:0|0:0|0:0,0:0:0:0:
108,280,12890,1,0,0:0:0:0:
212,212,13359,1,0,0:0:0:0:
104,172,13828,1,0,0:0:0:0:
156,64,14296,1,0,0:0:0:0:
256,192,14765,12,0,18046,0:0:0:0:
168,140,18515,6,0,P|232:88|288:112,1,110
244,184,19453,2,0,P|316:164|328:124,1,110
240,60,20390,2,0,L|120:56,1,110,0|0,0:0|0:0,0:0:0:0:
128,60,21328,2,0,L|120:180,1,110
252,184,22265,1,0,0:0:0:0:
396,60,22734,6,0,L|396:192,1,110
396,280,23671,2,0,L|252:276,1,110
300,168,24609,2,0,L|300:40,1,110
208,88,25546,1,0,0:0:0:0:
208,296,26015,1,0,0:0:0:0:
208,188,26484,1,0,0:0:0:0:
108,84,26953,1,0,0:0:0:0:
236,76,27421,5,0,0:0:0:0:
288,76,27656,1,0,0:0:0:0:
340,76,27890,1,0,0:0:0:0:
376,80,28359,2,0,P|440:84|416:140,1,110
437,267,29296,2,0,P|444:217|396:208,1,110
300,256,30234,5,0,0:0:0:0:
108,116,30703,1,0,0:0:0:0:
200,192,31171,1,0,0:0:0:0:
296,136,31640,2,0,L|372:36,1,110
404,128,32578,2,0,L|400:284,1,110
280,216,33515,1,0,0:0:0:0:
52,220,33984,1,0,0:0:0:0:
160,220,34453,1,0,0:0:0:0:
108,120,34921,6,0,P|184:56|212:56,1,110,0|0,0:0|0:0,0:0:0:0:
208,148,35859,2,0,L|304:88|304:88,1,110
320,180,36796,1,0,0:0:0:0:
240,260,37265,1,0,0:0:0:0:
192,176,37734,1,0,0:0:0:0:
344,264,38203,1,0,0:0:0:0:
296,112,38671,1,0,0:0:0:0:
276,216,39140,2,0,P|192:192|176:152,1,110
252,128,40078,6,0,P|344:96|380:136,1,110
344,100,41015,1,0,0:0:0:0:
192,224,41484,1,0,0:0:0:0:
344,232,41953,1,0,0:0:0:0:
196,92,42421,1,0,0:0:0:0:
268,160,42890,1,0,0:0:0:0:
280,56,43359,6,0,L|160:56,1,110
136,196,44296,2,0,L|132:312,1,110
208,320,45234,2,0,L|312:324,2,55,0|0|0,0:0|0:0|0:0,0:0:0:0:
208,208,46171,1,0,0:0:0:0:
212,108,46640,2,0,L|296:52,2,55,0|0|0,0:0|0:0|0:0,0:0:0:0:
296,136,47578,1,0,0:0:0:0:
304,256,48046,2,0,L|420:208,1,110
408,112,48984,6,0,P|400:40|364:32,2,110,0|0|0,0:0|0:0|0:0,0:0:0:0:
296,144,50390,1,0,0:0:0:0:
248,144,50625,1,0,0:0:0:0:
208,148,50859,1,0,0:0:0:0:
256,192,51328,12,4,52734,0:0:0:0:
256,192,53203,5,0,0:0:0:0:
212,200,53437,2,0,L|208:92,2,55,0|0|0,0:0|0:0|0:0,0:0:0:0:
212,200,54140,5,0,0:0:0:0:
260,44,54609,6,0,L|376:44,1,110
352,152,55546,2,0,P|288:192|308:216,1,110
384,248,56484,1,0,0:0:0:0:
256,312,56953,2,0,L|168:312,2,55,0|0|0,0:0|0:0|0:0,0:0:0:0:
240,200,57890,1,8,0:2:0:0:
256,192,58125,12,0,59296,0:0:0:0:
260,96,59765,5,0,0:0:0:0:
260,144,60000,1,0,0:0:0:0:
260,180,60234,1,0,0:0:0:0:
140,272,60703,2,0,L|284:272,1,110
256,192,61640,2,0,L|388:192,1,110
328,100,62578,6,0,P|272:68|220:76,2,110,0|0|0,0:0|0:0|0:0,0:0:0:0:
240,196,63984,1,0,0:0:0:0:
160,136,64453,2,0,P|140:60|112:52,2,110,0|0|0,0:0|0:0|0:0,0:0:0:0:
252,104,65859,5,0,0:0:0:0:
364,104,66328,1,0,0:0:0:0:
316,184,66796,2,0,L|316:296,1,110
192,276,67734,2,0,P|184:212|128:192,2,110,0|0|0,0:0|0:0|0:0,0:0:0:0:
272,184,69140,5,0,0:0:0:0:
208,104,69609,1,0,0:0:0:0:
316,96,70078,1,0,0:0:0:0:
364,172,70546,2,0,L|364:292,2,110,0|0|0,0:0|0:0|0:0,0:0:0:0:
296,92,71953,2,0,P|220:56|188:52,2,110,0|0|0,0:0|0:0|0:0,0:0:0:0:
216,168,73359,1,0,0:0:0:0:
256,192,73593,12,0,75234,0:0:0:0:
252,72,75703,5,0,0:0:0:0:
204,72,75937,1,0,0:0:0:0:
156,72,76171,1,0,0:0:0:0:
104,72,76640,2,0,P|92:144|108:180,2,110,0|0|0,0:0|0:0|0:0,0:0:0:0:
220,136,78046,1,0,0:0:0:0:
348,128,78515,2,0,L|344:264,1,110,0|0,0:0|0:0,0:0:0:0:
96,112,79453,1,0,0:0:0:0:
236,256,79921,1,0,0:0:0:0:
208,48,80390,6,0,P|216:112|264:80,2,110,0|0|0,0:0|0:0|0:0,0:0:0:0:
340,64,81796,1,0,0:0:0:0:
348,172,82265,1,0,0:0:0:0:
268,280,82734,2,0,P|256:200|200:176,1,110,0|0,0:0|0:0,0:0:0:0:
188,248,83671,2,0,P|152:196|184:140,1,110
200,72,84609,1,0,0:0:0:0:
272,156,85078,1,0,0:0:0:0:
164,176,85546,6,0,L|44:176,2,110,0|0|0,0:0|0:0|0:0,0:0:0:0:
160,84,86953,1,0,0:0:0:0:
256,88,87421,1,0,0:0:0:0:
256,176,87890,2,0,L|380:176,2,110,0|0|0,0:0|0:0|0:0,0:0:0:0:
172,256,89296,1,0,0:0:0:0:
112,84,89765,2,0,B|384:88|412:116|248:312,1,440
248,188,92109,1,0,0:0:0:0:
252,84,92578,5,0,0:0:0:0:
132,96,93046,1,0,0:0:0:0:
132,204,93515,2,0,L|272:200,2,110,0|0|0,0:0|0:0|0:0,0:0:0:0:
128,104,94921,1,0,0:0:0:0:
248,104,95390,2,0,L|376:108,2,110,0|0|0,0:0|0:0|0:0,0:0:0:0:
248,196,96796,1,0,0:0:0:0:
248,288,97265,2,0,P|372:232|372:156,1,220,0|0,0:0|0:0,0:0:0:0:
272,100,98671,5,0,0:0:0:0:
160,120,99140,1,0,0:0:0:0:
156,252,99609,1,0,0:0:0:0:
280,244,100078,1,0,0:0:0:0:
280,120,100546,2,0,P|336:88|356:120,2,110,0|0|0,0:0|0:0|0:0,0:0:0:0:
280,236,101953,1,0,0:0:0:0:
208,164,102421,1,0,0:0:0:0:
112,116,102890,6,0,P|188:48|308:48,1,220,0|0,0:0|0:0,0:0:0:0:
304,140,104296,1,0,0:0:0:0:
192,152,104765,2,0,P|240:236|360:228,1,220
308,108,106171,1,0,0:0:0:0:
196,104,106640,1,0,0:0:0:0:
92,200,107109,6,0,P|96:276|136:252,2,110,0|0|0,0:0|0:0|0:0,0:0:0:0:
212,208,108515,1,0,0:0:0:0:
280,104,108984,2,0,P|344:168|352:192,2,110,0|0|0,0:0|0:0|0:0,0:0:0:0:
112,108,110390,1,0,0:0:0:0:
216,104,110859,1,0,0:0:0:0:
232,208,111328,1,0,0:0:0:0:
136,212,111796,1,0,0:0:0:0:
116,88,112265,6,0,L|268:92,2,110,0|0|0,0:0|0:0|0:0,0:0:0:0:
112,184,113671,1,0,0:0:0:0:
220,156,114140,1,0,0:0:0:0:
312,88,114609,1,0,0:0:0:0:
428,68,115078,1,0,0:0:0:0:
432,168,115546,2,0,L|320:232,2,110,0|0|0,0:0|0:0|0:0,0:0:0:0:
336,128,116953,6,0,L|200:60,1,110
160,132,117890,1,0,0:0:0:0:
256,192,118125,12,4,122109,0:0:0:0:
244,112,122578,6,0,L|244:208,2,55,0|0|0,0:0|0:0|0:0,0:0:0:0:
360,156,123515,1,0,0:0:0:0:
288,232,123984,2,0,L|224:232,2,55,0|0|0,0:0|0:0|0:0,0:0:0:0:
196,112,124921,1,0,0:0:0:0:
164,76,125156,1,0,0:0:0:0:
136,116,125390,1,0,0:0:0:0:
180,232,125859,1,0,0:0:0:0:
320,180,126328,5,0,0:0:0:0:
360,136,126562,1,0,0:0:0:0:
392,192,126796,1,0,0:0:0:0:
352,240,127265,2,0,L|184:236,2,165,0|0|0,0:0|0:0|0:0,0:0:0:0:
288,144,129140,1,0,0:0:0:0:
196,148,129609,5,0,0:0:0:0:
152,148,129843,1,0,0:0:0:0:
104,144,130078,1,0,0:0:0:0:
100,256,130546,1,0,0:0:0:0:
200,264,131015,1,0,0:0:0:0:
248,180,131484,2,0,P|268:112|312:92,2,110,0|0|0,0:0|0:0|0:0,0:0:0:0:
384,188,132890,5,0,0:0:0:0:
336,284,133359,1,0,0:0:0:0:
248,200,133828,1,0,0:0:0:0:
220,168,134062,1,0,0:0:0:0:
192,136,134296,1,0,0:0:0:0:
156,100,134765,1,0,0:0:0:0:
256,192,135000,12,0,136640,0:0:0:0:
408,92,137109,6,0,L|408:220,2,110,0|0|0,0:0|0:0|0:0,0:0:0:0:
312,156,138515,1,0,0:0:0:0:
220,96,138984,2,0,L|220:232,2,110,0|0|0,0:0|0:0|0:0,0:0:0:0:
124,160,140390,1,0,0:0:0:0:
120,268,140859,2,0,L|280:268,2,110,0|0|0,0:0|0:0|0:0,0:0:0:0:
232,164,142265,1,0,0:0:0:0:
232,64,142734,2,0,L|352:64,2,110,0|0|0,0:0|0:0|0:0,0:0:0:0:
228,180,144140,5,0,0:0:0:0:
124,88,144609,2,0,L|120:228,2,110,0|0|0,0:0|0:0|0:0,0:0:0:0:
240,88,146015,1,0,0:0:0:0:
352,84,146484,2,0,L|356:204,2,110,0|0|0,0:0|0:0|0:0,0:0:0:0:
244,228,147890,5,0,0:0:0:0:
168,284,148359,2,0,P|104:224|96:160,2,110,0|0|0,0:0|0:0|0:0,0:0:0:0:
240,224,149765,1,0,0:0:0:0:
392,216,150234,2,0,P|332:280|268:288,2,110,0|0|0,0:0|0:0|0:0,0:0:0:0:
296,180,151640,1,0,0:0:0:0:
244,152,151875,1,0,0:0:0:0:
192,180,152109,1,0,0:0:0:0:
252,72,152578,5,0,0:0:0:0:
204,72,152812,1,0,0:0:0:0:
156,72,153046,1,0,0:0:0:0:
104,72,153515,2,0,P|92:144|108:180,2,110,0|0|0,0:0|0:0|0:0,0:0:0:0:
220,136,154921,1,0,0:0:0:0:
348,128,155390,2,0,L|344:264,1,110,0|0,0:0|0:0,0:0:0:0:
96,112,156328,1,0,0:0:0:0:
236,256,156796,1,0,0:0:0:0:
208,48,157265,6,0,P|216:112|264:80,2,110,0|0|0,0:0|0:0|0:0,0:0:0:0:
340,64,158671,1,0,0:0:0:0:
348,172,159140,1,0,0:0:0:0:
268,280,159609,2,0,P|256:200|200:176,1,110,0|0,0:0|0:0,0:0:0:0:
188,248,160546,2,0,P|152:196|184:140,1,110
200,72,161484,1,0,0:0:0:0:
272,156,161953,1,0,0:0:0:0:
164,176,162421,6,0,L|44:176,2,110,0|0|0,0:0|0:0|0:0,0:0:0:0:
160,84,163828,1,0,0:0:0:0:
256,88,164296,1,0,0:0:0:0:
256,176,164765,2,0,L|380:176,2,110,0|0|0,0:0|0:0|0:0,0:0:0:0:
92,224,166171,6,0,P|248:304|320:264,2,220,0|0|0,0:0|0:0|0:0,0:0:0:0:
188,180,168515,1,0,0:0:0:0:
180,72,168984,1,0,0:0:0:0:
280,116,169453,1,0,0:0:0:0:
304,204,169921,2,0,P|296:280|340:272,2,110,0|0|0,0:0|0:0|0:0,0:0:0:0:
356,112,171328,5,0,0:0:0:0:
248,88,171796,1,0,0:0:0:0:
132,88,172265,2,0,L|132:208,1,110
248,88,173203,1,0,0:0:0:0:
252,196,173671,6,0,L|392:176,2,110,0|0|0,0:0|0:0|0:0,0:0:0:0:
248,92,175078,1,0,0:0:0:0:
124,96,175546,1,0,0:0:0:0:
124,220,176015,2,0,P|128:304|164:296,2,110,0|0|0,0:0|0:0|0:0,0:0:0:0:
248,184,177421,1,0,0:0:0:0:
456,184,177890,1,0,0:0:0:0:
352,188,178359,1,0,0:0:0:0:
300,96,178828,6,0,P|224:60|160:56,2,110,0|0|0,0:0|0:0|0:0,0:0:0:0:
208,144,180234,1,0,0:0:0:0:
112,168,180703,2,0,P|148:248|176:236,2,110,0|0|0,0:0|0:0|0:0,0:0:0:0:
280,176,182109,1,0,0:0:0:0:
236,88,182578,5,0,0:0:0:0:
196,88,182812,1,0,0:0:0:0:
160,88,183046,1,0,0:0:0:0:
64,84,183515,2,0,L|60:232,2,110,0|0|0,0:0|0:0|0:0,0:0:0:0:
172,184,184921,2,0,B|272:72|268:76,1,110
284,208,185859,1,0,0:0:0:0:
268,92,186328,1,0,0:0:0:0:
184,156,186796,1,0,0:0:0:0:
84,140,187265,6,0,L|84:260,2,110,0|0|0,0:0|0:0|0:0,0:0:0:0:
168,56,188671,1,0,0:0:0:0:
284,60,189140,1,0,0:0:0:0:
100,108,189609,2,0,P|104:232|392:68,1,660
292,80,192890,1,0,0:0:0:0:
172,76,193359,1,0,0:0:0:0:
224,160,193828,1,0,0:0:0:0:
144,232,194296,1,0,0:0:0:0:
304,228,194765,1,0,0:0:0:0:
256,192,195000,12,0,197109,0:0:0:0:
