osu file format v9

[General]
AudioFilename: Reach for the Stars.mp3
AudioLeadIn: 0
PreviewTime: 42884
Countdown: 0
SampleSet: Normal
StackLeniency: 0.3
Mode: 0
LetterboxInBreaks: 1

[Editor]
DistanceSpacing: 0.9
BeatDivisor: 4
GridSize: 8

[Metadata]
Title:Reach for the Stars (Intro Ver.)
Artist:Cash Cash
Creator:ztrot
Version:Insane
Source:Sonic The Hedgehog
Tags:color Jean Paul Makhlouf Lilac James2250

[Difficulty]
HPDrainRate:7
CircleSize:4
OverallDifficulty:7
ApproachRate:8
SliderMultiplier:1.8
SliderTickRate:2

[Events]
//Background and Video events
0,0,"BG.png"
Video,-1057,"Sonic Colors - Opening Movie HD_xvid.avi"
//Break Periods
//Storyboard Layer 0 (Background)
//Storyboard Layer 1 (Fail)
//Storyboard Layer 2 (Pass)
//Storyboard Layer 3 (Foreground)
//Storyboard Sound Samples
//Background Colour Transformations
3,100,163,162,255

[TimingPoints]
5056,295.566502463054,4,1,1,64,1,0
81002,-100,4,1,1,0,0,0

[Colours]
Combo1 : 111,0,221
Combo2 : 102,255,255
Combo3 : 255,255,51
Combo4 : 255,145,34
Combo5 : 0,255,0

[HitObjects]
160,96,5056,2,0,B|8:96|24:192|8:288|168:288,1,360,4|2
256,192,5942,1,2
352,96,6238,2,0,B|504:96|488:192|504:288|344:288,1,360,4|2
256,128,7124,1,2
88,96,7420,2,0,B|104:224|256:240|408:224|424:96,1,450,4|0
424,96,8307,1,0
424,96,8455,1,0
256,328,8898,5,2
256,328,9193,1,2
256,328,9489,1,2
168,192,9785,6,0,B|168:296|64:336,2,180,6|0|2
256,56,10671,1,2
344,192,10967,2,0,B|344:296|448:336,2,180,2|0|2
256,56,11854,1,2
408,104,12149,6,0,B|464:248|368:360|256:368|120:304,1,450,4|0
88,256,13036,1,0
96,168,13184,1,4
408,32,13627,5,0
328,32,13775,2,0,B|328:128|224:176,1,180
200,96,14218,1,0
120,96,14366,1,0
72,168,14514,1,4
256,296,14809,6,0,B|176:360|88:288,1,180
416,296,15696,5,2
416,216,15844,1,8
336,72,16139,2,0,B|256:144|176:72,2,180,8|8|8
336,232,17026,1,8
256,256,17174,1,2
176,232,17322,1,8
336,144,17617,1,8
256,168,17765,1,2
176,144,17913,1,8
320,72,18208,5,8
256,24,18356,2,0,B|160:64,1,90,2|8
256,104,18652,2,0,B|344:136,1,90,2|8
256,184,18947,2,0,B|168:216,1,90,2|8
256,264,19243,1,4
176,128,19538,6,0,B|256:48|336:136,1,180,8|0
80,336,20425,1,2
80,336,20573,1,8
80,176,20868,2,0,B|120:264|224:264,2,180,8|8|8
176,40,21755,1,8
232,104,21903,1,2
176,168,22051,1,8
264,336,22346,1,8
344,312,22494,1,2
328,232,22642,1,8
416,96,22937,5,8
432,176,23085,1,2
352,152,23233,1,8
352,232,23381,1,2
280,192,23528,1,8
256,272,23676,2,0,B|200:272,4,45,8|2|8|2|12
256,112,24267,5,0
112,192,24563,1,0
112,192,24711,1,8
256,344,25006,2,0,B|352:376|416:296,1,180,8|8
256,264,25597,2,0,B|160:296|96:216,1,180,8|8
48,64,26189,6,0,B|256:-24|256:216|480:32,1,450,4|0
256,176,27223,1,0
176,232,27371,2,0,B|256:304|336:232,1,180,0|8
384,168,27814,1,2
368,88,27962,1,8
296,48,28110,2,0,B|240:56|224:120,2,90,2|8|2
368,88,28553,1,8
320,152,28701,1,4
160,136,28996,5,0
56,264,29292,1,2
128,224,29440,1,8
128,304,29588,1,2
200,264,29735,1,8
200,344,29883,1,2
272,304,30031,2,0,B|328:288|360:344,2,90,8|2|8
328,216,30474,6,0,B|256:117|182:219,1,180,0|2
184,216,30918,1,8
144,64,31213,1,8
224,64,31361,1,2
304,64,31509,1,8
400,192,31804,1,8
320,192,31952,1,2
240,192,32100,1,8
168,336,32395,6,0,B|112:352|88:304,1,90,8|2
152,256,32691,2,0,B|144:200|80:216,1,90,8|2
88,136,32987,1,8
120,112,33060,1,2
152,88,33134,1,8
192,72,33208,1,2
232,64,33282,2,0,B|280:64,2,45
400,248,33725,6,0,B|400:360|280:360,1,180
288,280,34169,2,0,B|288:168|408:168,1,180,8|0
296,40,34760,1,8
216,40,34908,1,0
256,112,35056,2,0,B|288:152|336:144,1,90,0|8
336,224,35351,2,0,B|288:216|256:256,1,90
256,256,35647,2,0,B|224:216|176:223,1,90,0|4
123,359,36090,6,0,B|235:367|259:247,1,180,2|0
387,359,36533,2,0,B|275:367|251:247,1,180,10|8
216,104,37124,1,8
256,32,37272,1,2
296,104,37420,1,8
296,184,37568,2,0,B|256:224|208:176,3,90,0|8|0|8
299,186,38159,1,4
168,64,38455,6,0,B|256:32|344:64,1,180,2|2
344,160,38898,2,0,B|256:192|168:160,1,180,8|0
192,312,39489,1,8
112,312,39637,1,2
152,240,39785,1,8
72,240,39932,1,2
72,240,40080,1,8
72,240,40228,1,2
112,168,40376,1,8
152,96,40523,2,0,B|256:16|368:48|440:136|416:224,3,360,4|4|4|4
104,336,42888,6,0,B|24:272|24:160|112:96,1,270,4|0
160,160,43479,2,0,B|216:240|320:232,2,180,8|2|0
304,80,44366,1,2
304,80,44514,2,0,B|408:80|432:192,1,180
360,224,44957,1,8
256,344,45253,6,0,B|160:360|80:288,1,180
88,216,45696,1,2
24,160,45844,1,8
136,40,46139,1,0
152,120,46287,1,2
224,160,46435,1,8
288,112,46583,2,0,B|328:72|384:104,1,90,2|2
344,176,46878,1,2
432,312,47174,1,2
360,344,47322,1,8
304,288,47469,1,0
248,344,47617,1,4
336,208,47913,5,0
256,64,48208,1,8
152,192,48504,1,0
256,64,48799,2,0,B|400:64|496:120|496:272,1,360
336,240,49686,1,2
256,248,49834,1,2
176,240,49982,1,8
312,152,50277,1,2
256,96,50425,1,2
200,152,50573,1,8
96,280,50868,5,2
160,336,51016,1,2
212,274,51164,2,0,B|308:274,1,90,8|0
352,336,51459,1,2
416,280,51607,1,2
256,200,51903,1,2
280,120,52051,2,0,B|232:120,4,45,8|2|8|2|8
136,192,52642,5,8
376,192,52937,1,0
136,232,53233,1,8
376,232,53528,1,0
136,280,53824,1,8
376,280,54120,1,0
136,144,54415,1,8
376,144,54711,1,4
256,192,54858,12,0,57075
256,336,57371,5,2
384,240,57666,1,2
256,144,57962,1,2
128,240,58257,2,0,B|112:144|256:128|408:144|384:240,1,360,4|0
208,312,59144,1,2
304,312,59292,1,8
256,240,59440,1,2
360,112,59735,5,0
296,56,59883,1,8
216,56,60031,1,2
152,112,60179,1,8
256,144,60326,1,8
192,200,60474,2,0,B|200:256|256:264|312:256|320:200,2,180,4|0|4
368,312,61361,1,8
296,344,61509,1,2
216,344,61656,1,8
144,312,61804,1,4
208,168,62100,5,0
304,168,62248,1,8
256,16,62543,1,8
168,152,62839,1,8
344,152,63134,1,8
168,56,63430,1,8
344,56,63725,1,8
256,88,63873,1,2
168,56,64021,1,8
168,56,64169,1,4
216,208,64464,5,0
296,208,64612,1,8
152,136,64908,1,8
368,136,65203,1,8
152,288,65499,1,8
360,288,65794,1,8
256,160,66090,1,8
192,112,66238,1,2
256,64,66386,1,0
320,112,66533,1,4
256,264,66829,5,2
176,224,66977,1,8
336,224,67272,1,8
184,144,67568,2,0,B|168:64|256:0|344:64|328:144,1,270,8|2
256,288,68307,1,2
256,128,68602,1,2
144,248,68898,2,0,B|120:352|256:392|392:352|368:248,3,360,4|4|4|4
256,136,70967,1,2
216,208,71115,1,8
296,208,71262,1,4
216,72,71558,5,8
296,72,71706,1,8
256,288,72001,1,8
168,136,72297,1,8
344,136,72592,1,8
168,232,72888,1,8
344,232,73184,1,8
256,288,73331,1,2
168,232,73479,1,0
168,232,73627,1,4
256,96,73922,5,2
256,96,74070,1,8
416,192,74366,1,8
256,328,74661,1,8
96,192,74957,1,8
256,96,75253,1,8
256,328,75548,1,8
312,272,75696,1,2
256,216,75844,1,8
184,176,75991,1,4
256,32,76287,6,0,B|352:32|416:120,1,180
408,192,76730,2,0,B|320:232|288:336,1,180,8|8
168,112,77469,1,0
344,112,77765,1,0
144,112,78060,1,0
368,112,78356,6,0,B|408:192|328:288|256:288|184:288|96:192|144:112,1,450,4|8
224,136,79243,1,2
256,64,79390,1,4
64,344,80129,1,2
256,288,80425,1,8
448,344,80721,1,4
256,192,80868,12,0,83085
