osu file format v14

[General]
AudioFilename: Cash Cash - Party In Your Bedroom(Sound Artz Handz Up! Radio Edit).mp3
AudioLeadIn: 0
PreviewTime: 159122
Countdown: 0
SampleSet: Normal
StackLeniency: 0.7
Mode: 3
LetterboxInBreaks: 0
SpecialStyle: 0
WidescreenStoryboard: 0

[Editor]
DistanceSpacing: 1.1
BeatDivisor: 4
GridSize: 4
TimelineZoom: 1

[Metadata]
Title:Party In Your Bedroom(Sound Artz Handz Up! Radio Edit)
TitleUnicode:Party In Your Bedroom(Sound Artz Handz Up! Radio Edit)
Artist:Cash Cash
ArtistUnicode:Cash Cash
Creator:ToifAmri
Version:More MX
Source:Radio Edit
Tags:Sound Artz Handz Up! Radio Edit
BeatmapID:665835
BeatmapSetID:296567

[Difficulty]
HPDrainRate:8
CircleSize:4
OverallDifficulty:8
ApproachRate:5
SliderMultiplier:1.10000000596046
SliderTickRate:1

[Events]
//Background and Video events
0,0,"Night-Stars-Sky-The-Milky-Way-Nature-Cities-Wallpapers-Latest.jpg",0,0
//Break Periods
//Storyboard Layer 0 (Background)
//Storyboard Layer 1 (Fail)
//Storyboard Layer 2 (Pass)
//Storyboard Layer 3 (Foreground)
//Storyboard Sound Samples

[TimingPoints]
1881,413.793103448276,4,1,1,30,1,0
1881,-100,4,1,1,30,0,0
31176,-666.666666666667,4,1,1,30,0,0
31570,-100,4,1,1,30,0,0
44915,-100,4,1,1,30,0,0
57846,-666.666666666667,4,1,1,30,0,0
58053,-100,4,1,1,30,0,0
97984,-100,4,1,1,30,0,0
111639,-133.333333333333,4,1,1,30,0,0
111949,-100,4,1,1,30,0,0
135965,-100,4,1,1,30,0,0
141846,-833.333333333333,4,1,1,30,0,0
142467,-100,4,1,1,30,0,0
158812,-666.666666666667,4,1,1,30,0,0
159018,-100,4,1,1,30,0,0
159122,-100,4,1,1,30,0,1
195536,-100,4,1,1,30,0,0

[HitObjects]
64,192,1881,5,8,0:0:0:0:
192,192,1881,1,8,0:0:0:0:
64,192,2087,1,8,0:0:0:0:
320,192,2087,1,8,0:0:0:0:
448,192,2087,1,8,0:0:0:0:
192,192,2191,1,8,0:0:0:0:
320,192,2294,1,8,0:0:0:0:
448,192,2294,1,8,0:0:0:0:
64,192,2501,1,8,0:0:0:0:
320,192,2501,1,8,0:0:0:0:
448,192,2501,1,8,0:0:0:0:
192,192,2605,1,8,0:0:0:0:
320,192,2708,1,8,0:0:0:0:
448,192,2708,1,8,0:0:0:0:
64,192,2915,1,8,0:0:0:0:
320,192,2915,1,8,0:0:0:0:
448,192,2915,1,8,0:0:0:0:
192,192,3018,1,8,0:0:0:0:
320,192,3122,1,8,0:0:0:0:
448,192,3122,1,8,0:0:0:0:
64,192,3329,1,8,0:0:0:0:
320,192,3329,1,8,0:0:0:0:
448,192,3329,1,8,0:0:0:0:
192,192,3432,1,8,0:0:0:0:
320,192,3536,1,8,0:0:0:0:
448,192,3536,1,8,0:0:0:0:
64,192,3743,1,8,0:0:0:0:
320,192,3743,1,8,0:0:0:0:
448,192,3743,1,8,0:0:0:0:
192,192,3846,1,8,0:0:0:0:
320,192,3949,1,8,0:0:0:0:
448,192,3949,1,8,0:0:0:0:
64,192,4156,1,8,0:0:0:0:
320,192,4156,1,8,0:0:0:0:
448,192,4156,1,8,0:0:0:0:
192,192,4260,1,8,0:0:0:0:
320,192,4363,1,8,0:0:0:0:
448,192,4363,1,8,0:0:0:0:
320,192,4570,1,8,0:0:0:0:
192,192,4570,1,8,0:0:0:0:
448,192,4570,1,8,0:0:0:0:
64,192,4570,1,8,0:0:0:0:
64,192,4777,1,8,0:0:0:0:
192,192,4777,1,8,0:0:0:0:
320,192,4777,1,8,0:0:0:0:
448,192,4777,1,8,0:0:0:0:
192,192,4984,1,8,0:0:0:0:
320,192,4984,1,8,0:0:0:0:
448,192,4984,1,8,0:0:0:0:
64,192,4984,1,8,0:0:0:0:
320,192,5191,1,8,0:0:0:0:
448,192,5191,1,8,0:0:0:0:
64,192,5191,1,8,0:0:0:0:
192,192,5398,1,8,0:0:0:0:
448,192,5398,1,8,0:0:0:0:
320,192,5398,1,8,0:0:0:0:
64,192,5501,1,8,0:0:0:0:
320,192,5605,1,8,0:0:0:0:
448,192,5605,1,8,0:0:0:0:
320,192,5812,1,8,0:0:0:0:
64,192,5812,1,8,0:0:0:0:
192,192,5812,1,8,0:0:0:0:
448,192,5915,1,8,0:0:0:0:
64,192,6018,1,8,0:0:0:0:
192,192,6018,1,8,0:0:0:0:
192,192,6225,1,8,0:0:0:0:
448,192,6225,1,8,0:0:0:0:
320,192,6225,1,8,0:0:0:0:
64,192,6329,1,8,0:0:0:0:
320,192,6432,1,8,0:0:0:0:
448,192,6432,1,8,0:0:0:0:
192,192,6639,1,8,0:0:0:0:
448,192,6639,1,8,0:0:0:0:
64,192,6639,1,8,0:0:0:0:
320,192,6743,1,8,0:0:0:0:
64,192,6846,1,8,0:0:0:0:
192,192,6846,1,8,0:0:0:0:
192,192,7053,1,8,0:0:0:0:
448,192,7053,1,8,0:0:0:0:
320,192,7053,1,8,0:0:0:0:
64,192,7156,1,8,0:0:0:0:
320,192,7260,1,8,0:0:0:0:
448,192,7260,1,8,0:0:0:0:
192,192,7467,1,8,0:0:0:0:
448,192,7467,1,8,0:0:0:0:
64,192,7467,1,8,0:0:0:0:
320,192,7570,1,8,0:0:0:0:
64,192,7674,1,8,0:0:0:0:
192,192,7674,1,8,0:0:0:0:
448,192,7674,1,8,0:0:0:0:
192,192,7881,1,8,0:0:0:0:
320,192,7881,1,8,0:0:0:0:
64,192,7881,1,8,0:0:0:0:
448,192,7881,1,8,0:0:0:0:
320,192,8087,1,8,0:0:0:0:
448,192,8087,1,8,0:0:0:0:
192,192,8087,1,8,0:0:0:0:
64,192,8087,1,8,0:0:0:0:
320,192,8294,1,8,0:0:0:0:
192,192,8294,1,8,0:0:0:0:
448,192,8294,1,8,0:0:0:0:
64,192,8501,1,8,0:0:0:0:
192,192,8501,1,8,0:0:0:0:
448,192,8501,1,8,0:0:0:0:
448,192,8708,1,8,0:0:0:0:
192,192,8708,1,8,0:0:0:0:
64,192,8708,1,8,0:0:0:0:
320,192,8812,1,8,0:0:0:0:
64,192,8915,1,8,0:0:0:0:
192,192,8915,1,8,0:0:0:0:
320,192,9122,1,8,0:0:0:0:
64,192,9122,1,8,0:0:0:0:
192,192,9122,1,8,0:0:0:0:
448,192,9225,1,8,0:0:0:0:
64,192,9329,1,8,0:0:0:0:
192,192,9329,1,8,0:0:0:0:
448,192,9536,1,8,0:0:0:0:
192,192,9536,1,8,0:0:0:0:
64,192,9536,1,8,0:0:0:0:
320,192,9639,1,8,0:0:0:0:
64,192,9743,1,8,0:0:0:0:
192,192,9743,1,8,0:0:0:0:
320,192,9949,1,8,0:0:0:0:
64,192,9949,1,8,0:0:0:0:
192,192,9949,1,8,0:0:0:0:
448,192,10053,1,8,0:0:0:0:
64,192,10156,1,8,0:0:0:0:
192,192,10156,1,8,0:0:0:0:
448,192,10363,1,8,0:0:0:0:
192,192,10363,1,8,0:0:0:0:
64,192,10363,1,8,0:0:0:0:
320,192,10467,1,8,0:0:0:0:
192,192,10570,1,8,0:0:0:0:
64,192,10570,1,8,0:0:0:0:
448,192,10570,1,8,0:0:0:0:
320,192,10777,1,8,0:0:0:0:
64,192,10777,1,8,0:0:0:0:
192,192,10777,1,8,0:0:0:0:
448,192,10881,1,8,0:0:0:0:
64,192,10984,1,8,0:0:0:0:
192,192,10984,1,8,0:0:0:0:
448,192,11191,1,8,0:0:0:0:
192,192,11191,1,8,0:0:0:0:
64,192,11191,1,8,0:0:0:0:
320,192,11294,1,8,0:0:0:0:
192,192,11398,1,8,0:0:0:0:
64,192,11398,1,8,0:0:0:0:
448,192,11501,1,8,0:0:0:0:
320,192,11605,1,8,0:0:0:0:
192,192,11605,1,8,0:0:0:0:
448,192,11708,1,8,0:0:0:0:
64,192,11812,1,8,0:0:0:0:
192,192,11812,1,8,0:0:0:0:
448,192,11915,1,8,0:0:0:0:
320,192,12018,1,8,0:0:0:0:
192,192,12018,1,8,0:0:0:0:
448,192,12122,1,8,0:0:0:0:
64,192,12225,1,8,0:0:0:0:
192,192,12329,1,8,0:0:0:0:
320,192,12329,1,8,0:0:0:0:
448,192,12329,1,8,0:0:0:0:
64,192,12432,1,8,0:0:0:0:
320,192,12639,1,8,0:0:0:0:
448,192,12639,1,8,0:0:0:0:
64,192,12639,1,8,0:0:0:0:
192,192,12846,1,8,0:0:0:0:
320,192,12846,1,8,0:0:0:0:
64,192,12949,1,8,0:0:0:0:
448,192,13053,1,8,0:0:0:0:
320,192,13156,1,8,0:0:0:0:
192,192,13156,1,8,0:0:0:0:
448,192,13260,1,8,0:0:0:0:
320,192,13363,1,8,0:0:0:0:
64,192,13467,1,8,0:0:0:0:
192,192,13467,1,8,0:0:0:0:
448,192,13467,1,8,0:0:0:0:
64,192,13674,1,8,0:0:0:0:
192,192,13674,1,8,0:0:0:0:
448,192,13674,1,8,0:0:0:0:
320,192,13674,1,8,0:0:0:0:
192,192,13881,1,8,0:0:0:0:
320,192,13881,1,8,0:0:0:0:
64,192,13881,1,8,0:0:0:0:
192,192,14087,1,8,0:0:0:0:
320,192,14087,1,8,0:0:0:0:
448,192,14087,1,8,0:0:0:0:
320,192,14294,1,8,0:0:0:0:
448,192,14294,1,8,0:0:0:0:
64,192,14294,1,8,0:0:0:0:
320,192,14501,1,8,0:0:0:0:
448,192,14501,1,8,0:0:0:0:
64,192,14501,1,8,0:0:0:0:
192,192,14501,1,8,0:0:0:0:
64,192,14708,128,8,14915:0:0:0:0:
192,192,14708,128,8,14915:0:0:0:0:
64,192,15122,1,8,0:0:0:0:
192,192,15122,1,8,0:0:0:0:
320,192,15225,1,8,0:0:0:0:
448,192,15329,1,8,0:0:0:0:
192,192,15329,1,8,0:0:0:0:
320,192,15432,1,8,0:0:0:0:
64,192,15536,1,8,0:0:0:0:
192,192,15536,1,8,0:0:0:0:
320,192,15639,1,8,0:0:0:0:
448,192,15743,1,8,0:0:0:0:
192,192,15743,1,8,0:0:0:0:
320,192,15846,1,8,0:0:0:0:
64,192,15949,1,8,0:0:0:0:
192,192,15949,1,8,0:0:0:0:
320,192,16053,1,8,0:0:0:0:
448,192,16156,1,8,0:0:0:0:
192,192,16156,1,8,0:0:0:0:
320,192,16260,1,8,0:0:0:0:
64,192,16363,1,8,0:0:0:0:
192,192,16363,1,8,0:0:0:0:
320,192,16467,1,8,0:0:0:0:
64,192,16570,1,8,0:0:0:0:
448,192,16570,1,8,0:0:0:0:
192,192,16674,1,8,0:0:0:0:
448,192,16777,1,8,0:0:0:0:
320,192,16777,1,8,0:0:0:0:
64,192,16881,1,8,0:0:0:0:
192,192,16984,1,8,0:0:0:0:
448,192,16984,1,8,0:0:0:0:
64,192,17087,1,8,0:0:0:0:
320,192,17191,1,8,0:0:0:0:
448,192,17191,1,8,0:0:0:0:
192,192,17294,1,8,0:0:0:0:
64,192,17398,1,8,0:0:0:0:
320,192,17398,1,8,0:0:0:0:
192,192,17501,1,8,0:0:0:0:
320,192,17605,1,8,0:0:0:0:
448,192,17605,1,8,0:0:0:0:
64,192,17605,1,8,0:0:0:0:
192,192,17812,1,8,0:0:0:0:
448,192,17812,1,8,0:0:0:0:
320,192,17915,1,8,0:0:0:0:
64,192,18018,1,8,0:0:0:0:
192,192,18018,1,8,0:0:0:0:
448,192,18122,1,8,0:0:0:0:
192,192,18225,1,8,0:0:0:0:
64,192,18329,1,8,0:0:0:0:
320,192,18432,1,8,0:0:0:0:
192,192,18432,1,8,0:0:0:0:
448,192,18536,1,8,0:0:0:0:
320,192,18639,1,8,0:0:0:0:
64,192,18639,1,8,0:0:0:0:
192,192,18743,1,8,0:0:0:0:
64,192,18846,1,8,0:0:0:0:
320,192,18846,1,8,0:0:0:0:
192,192,18949,1,8,0:0:0:0:
448,192,19053,1,8,0:0:0:0:
320,192,19053,1,8,0:0:0:0:
192,192,19156,1,8,0:0:0:0:
64,192,19260,1,8,0:0:0:0:
320,192,19260,1,8,0:0:0:0:
448,192,19260,1,8,0:0:0:0:
192,192,19363,1,8,0:0:0:0:
448,192,19467,1,8,0:0:0:0:
64,192,19467,1,8,0:0:0:0:
320,192,19570,1,8,0:0:0:0:
64,192,19674,1,8,0:0:0:0:
192,192,19674,1,8,0:0:0:0:
448,192,19674,1,8,0:0:0:0:
320,192,19777,1,8,0:0:0:0:
64,192,19881,1,8,0:0:0:0:
448,192,19881,1,8,0:0:0:0:
320,192,19984,1,8,0:0:0:0:
192,192,20087,1,8,0:0:0:0:
448,192,20191,1,8,0:0:0:0:
64,192,20191,1,8,0:0:0:0:
320,192,20294,1,8,0:0:0:0:
448,192,20398,1,8,0:0:0:0:
448,192,20501,1,8,0:0:0:0:
320,192,20501,1,8,0:0:0:0:
192,192,20501,1,8,0:0:0:0:
64,192,20605,1,8,0:0:0:0:
320,192,20708,1,8,0:0:0:0:
192,192,20708,1,8,0:0:0:0:
448,192,20812,1,8,0:0:0:0:
64,192,20812,1,8,0:0:0:0:
192,192,20915,1,8,0:0:0:0:
320,192,21018,1,8,0:0:0:0:
448,192,21018,1,8,0:0:0:0:
64,192,21122,1,8,0:0:0:0:
192,192,21122,1,8,0:0:0:0:
448,192,21225,1,8,0:0:0:0:
320,192,21225,1,8,0:0:0:0:
320,192,21329,1,8,0:0:0:0:
192,192,21432,1,8,0:0:0:0:
448,192,21536,1,8,0:0:0:0:
64,192,21536,1,8,0:0:0:0:
192,192,21743,128,8,22570:0:0:0:0:
320,192,21743,128,8,22984:0:0:0:0:
64,192,21743,1,8,0:0:0:0:
448,192,21743,1,8,0:0:0:0:
64,192,21949,1,8,0:0:0:0:
448,192,22156,1,8,0:0:0:0:
64,192,22156,1,8,0:0:0:0:
448,192,22363,1,8,0:0:0:0:
64,192,22363,1,8,0:0:0:0:
64,192,22570,1,8,0:0:0:0:
448,192,22570,1,8,0:0:0:0:
64,192,22777,1,8,0:0:0:0:
192,192,22777,1,8,0:0:0:0:
448,192,22777,1,8,0:0:0:0:
448,192,22984,1,8,0:0:0:0:
192,192,22984,1,8,0:0:0:0:
64,192,23087,1,8,0:0:0:0:
192,192,23191,1,8,0:0:0:0:
320,192,23191,1,8,0:0:0:0:
448,192,23294,1,8,0:0:0:0:
64,192,23398,1,8,0:0:0:0:
320,192,23398,1,8,0:0:0:0:
448,192,23501,1,8,0:0:0:0:
192,192,23605,1,8,0:0:0:0:
320,192,23605,1,8,0:0:0:0:
448,192,23708,1,8,0:0:0:0:
64,192,23812,1,8,0:0:0:0:
192,192,23812,1,8,0:0:0:0:
320,192,23812,1,8,0:0:0:0:
448,192,23915,1,8,0:0:0:0:
192,192,24018,1,8,0:0:0:0:
320,192,24018,1,8,0:0:0:0:
64,192,24122,1,8,0:0:0:0:
320,192,24225,1,8,0:0:0:0:
448,192,24225,1,8,0:0:0:0:
192,192,24225,1,8,0:0:0:0:
64,192,24329,1,8,0:0:0:0:
192,192,24432,1,8,0:0:0:0:
320,192,24432,1,8,0:0:0:0:
448,192,24536,1,8,0:0:0:0:
64,192,24639,1,8,0:0:0:0:
192,192,24639,1,8,0:0:0:0:
320,192,24639,1,8,0:0:0:0:
448,192,24743,1,8,0:0:0:0:
320,192,24846,1,8,0:0:0:0:
64,192,24846,1,8,0:0:0:0:
192,192,24846,1,8,0:0:0:0:
448,192,24949,1,8,0:0:0:0:
192,192,25053,1,8,0:0:0:0:
64,192,25053,1,8,0:0:0:0:
320,192,25053,1,8,0:0:0:0:
320,192,25260,1,8,0:0:0:0:
448,192,25260,1,8,0:0:0:0:
192,192,25260,1,8,0:0:0:0:
320,192,25467,1,8,0:0:0:0:
448,192,25467,1,8,0:0:0:0:
192,192,25467,1,8,0:0:0:0:
64,192,25467,1,8,0:0:0:0:
64,192,25674,1,8,0:0:0:0:
192,192,25674,1,8,0:0:0:0:
320,192,25674,1,8,0:0:0:0:
192,192,25881,1,8,0:0:0:0:
64,192,25881,1,8,0:0:0:0:
448,192,25881,1,8,0:0:0:0:
320,192,25881,1,8,0:0:0:0:
320,192,26087,1,8,0:0:0:0:
448,192,26087,1,8,0:0:0:0:
64,192,26087,1,8,0:0:0:0:
64,192,26294,1,8,0:0:0:0:
192,192,26294,1,8,0:0:0:0:
448,192,26294,1,8,0:0:0:0:
320,192,26501,1,8,0:0:0:0:
448,192,26501,1,8,0:0:0:0:
64,192,26501,1,8,0:0:0:0:
64,192,26708,1,8,0:0:0:0:
192,192,26708,1,8,0:0:0:0:
448,192,26708,1,8,0:0:0:0:
320,192,26915,1,8,0:0:0:0:
448,192,26915,1,8,0:0:0:0:
192,192,26915,1,8,0:0:0:0:
320,192,27122,1,8,0:0:0:0:
448,192,27122,1,8,0:0:0:0:
64,192,27122,1,8,0:0:0:0:
192,192,27122,1,8,0:0:0:0:
320,192,27329,1,8,0:0:0:0:
448,192,27329,1,8,0:0:0:0:
192,192,27329,1,8,0:0:0:0:
64,192,27432,1,8,0:0:0:0:
192,192,27536,1,8,0:0:0:0:
64,192,27639,1,8,0:0:0:0:
320,192,27639,1,8,0:0:0:0:
192,192,27743,1,8,0:0:0:0:
64,192,27846,1,8,0:0:0:0:
320,192,27846,1,8,0:0:0:0:
192,192,27949,1,8,0:0:0:0:
448,192,27949,1,8,0:0:0:0:
0,0,28156,5,8,0:0:0:0:
64,192,28363,1,8,0:0:0:0:
192,192,28363,1,8,0:0:0:0:
320,192,28467,1,8,0:0:0:0:
448,192,28467,1,8,0:0:0:0:
64,192,28570,1,8,0:0:0:0:
192,192,28570,1,8,0:0:0:0:
320,192,28674,1,8,0:0:0:0:
448,192,28674,1,8,0:0:0:0:
64,192,28777,1,8,0:0:0:0:
192,192,28777,1,8,0:0:0:0:
320,192,28881,1,8,0:0:0:0:
448,192,28881,1,8,0:0:0:0:
64,192,28984,1,8,0:0:0:0:
192,192,28984,1,8,0:0:0:0:
320,192,29087,1,8,0:0:0:0:
448,192,29087,1,8,0:0:0:0:
320,192,29191,1,8,0:0:0:0:
448,192,29191,1,8,0:0:0:0:
64,192,29294,1,8,0:0:0:0:
192,192,29294,1,8,0:0:0:0:
320,192,29398,1,8,0:0:0:0:
448,192,29398,1,8,0:0:0:0:
64,192,29501,1,8,0:0:0:0:
192,192,29501,1,8,0:0:0:0:
320,192,29605,1,8,0:0:0:0:
448,192,29605,1,8,0:0:0:0:
64,192,29708,1,8,0:0:0:0:
192,192,29708,1,8,0:0:0:0:
320,192,29812,1,8,0:0:0:0:
448,192,29812,1,8,0:0:0:0:
64,192,29915,1,8,0:0:0:0:
192,192,29915,1,8,0:0:0:0:
64,192,30018,1,8,0:0:0:0:
192,192,30018,1,8,0:0:0:0:
320,192,30122,1,8,0:0:0:0:
448,192,30122,1,8,0:0:0:0:
64,192,30225,1,8,0:0:0:0:
448,192,30329,1,8,0:0:0:0:
192,192,30329,1,8,0:0:0:0:
320,192,30432,1,8,0:0:0:0:
64,192,30432,1,8,0:0:0:0:
448,192,30536,1,8,0:0:0:0:
192,192,30536,1,8,0:0:0:0:
64,192,30639,1,8,0:0:0:0:
320,192,30639,1,8,0:0:0:0:
64,192,30846,128,8,31053:0:0:0:0:
192,192,30846,128,8,31053:0:0:0:0:
64,192,31674,1,8,0:0:0:0:
192,192,31674,1,8,0:0:0:0:
448,192,31674,1,8,0:0:0:0:
320,192,31777,1,8,0:0:0:0:
192,192,31881,1,8,0:0:0:0:
64,192,31881,1,8,0:0:0:0:
448,192,31881,1,8,0:0:0:0:
320,192,31984,1,8,0:0:0:0:
192,192,32087,1,8,0:0:0:0:
64,192,32191,1,8,0:0:0:0:
192,192,32294,1,8,0:0:0:0:
448,192,32294,1,8,0:0:0:0:
320,192,32398,1,8,0:0:0:0:
64,192,32398,1,8,0:0:0:0:
192,192,32501,1,8,0:0:0:0:
448,192,32605,1,8,0:0:0:0:
64,192,32605,1,8,0:0:0:0:
320,192,32708,1,8,0:0:0:0:
192,192,32708,1,8,0:0:0:0:
64,192,32812,1,8,0:0:0:0:
448,192,32812,1,8,0:0:0:0:
192,192,32915,1,8,0:0:0:0:
320,192,33018,1,8,0:0:0:0:
64,192,33122,1,8,0:0:0:0:
448,192,33122,1,8,0:0:0:0:
192,192,33225,1,8,0:0:0:0:
320,192,33329,1,8,0:0:0:0:
64,192,33329,1,8,0:0:0:0:
448,192,33432,1,8,0:0:0:0:
192,192,33536,1,8,0:0:0:0:
320,192,33536,1,8,0:0:0:0:
64,192,33536,1,8,0:0:0:0:
448,192,33639,1,8,0:0:0:0:
320,192,33743,1,8,0:0:0:0:
192,192,33743,1,8,0:0:0:0:
448,192,33846,1,8,0:0:0:0:
64,192,33949,1,8,0:0:0:0:
320,192,33949,1,8,0:0:0:0:
192,192,34053,1,8,0:0:0:0:
64,192,34156,1,8,0:0:0:0:
192,192,34260,1,8,0:0:0:0:
448,192,34260,1,8,0:0:0:0:
320,192,34363,1,8,0:0:0:0:
64,192,34467,1,8,0:0:0:0:
192,192,34467,1,8,0:0:0:0:
320,192,34570,1,8,0:0:0:0:
448,192,34570,1,8,0:0:0:0:
192,192,34674,1,8,0:0:0:0:
64,192,34777,1,8,0:0:0:0:
320,192,34777,1,8,0:0:0:0:
192,192,34881,1,8,0:0:0:0:
448,192,34881,1,8,0:0:0:0:
320,192,34984,1,8,0:0:0:0:
64,192,34984,1,8,0:0:0:0:
192,192,35087,1,8,0:0:0:0:
448,192,35191,1,8,0:0:0:0:
320,192,35191,1,8,0:0:0:0:
64,192,35294,1,8,0:0:0:0:
192,192,35294,1,8,0:0:0:0:
320,192,35398,1,8,0:0:0:0:
448,192,35398,1,8,0:0:0:0:
192,192,35501,1,8,0:0:0:0:
448,192,35605,1,8,0:0:0:0:
64,192,35605,1,8,0:0:0:0:
320,192,35708,1,8,0:0:0:0:
64,192,35812,1,8,0:0:0:0:
192,192,35812,1,8,0:0:0:0:
320,192,35812,1,8,0:0:0:0:
448,192,35915,1,8,0:0:0:0:
192,192,36018,1,8,0:0:0:0:
64,192,36018,1,8,0:0:0:0:
448,192,36018,1,8,0:0:0:0:
320,192,36122,1,8,0:0:0:0:
64,192,36225,1,8,0:0:0:0:
448,192,36225,1,8,0:0:0:0:
320,192,36329,1,8,0:0:0:0:
192,192,36329,1,8,0:0:0:0:
448,192,36432,1,8,0:0:0:0:
64,192,36432,1,8,0:0:0:0:
192,192,36536,1,8,0:0:0:0:
320,192,36536,1,8,0:0:0:0:
320,192,36639,1,8,0:0:0:0:
64,192,36639,1,8,0:0:0:0:
448,192,36743,1,8,0:0:0:0:
192,192,36743,1,8,0:0:0:0:
64,192,36846,1,8,0:0:0:0:
320,192,36846,1,8,0:0:0:0:
192,192,36949,1,8,0:0:0:0:
64,192,37053,1,8,0:0:0:0:
448,192,37053,1,8,0:0:0:0:
320,192,37156,1,8,0:0:0:0:
192,192,37156,1,8,0:0:0:0:
448,192,37260,1,8,0:0:0:0:
64,192,37260,1,8,0:0:0:0:
192,192,37363,1,8,0:0:0:0:
320,192,37363,1,8,0:0:0:0:
64,192,37467,1,8,0:0:0:0:
448,192,37467,1,8,0:0:0:0:
320,192,37570,1,8,0:0:0:0:
192,192,37570,1,8,0:0:0:0:
448,192,37674,1,8,0:0:0:0:
64,192,37674,1,8,0:0:0:0:
320,192,37777,1,8,0:0:0:0:
192,192,37777,1,8,0:0:0:0:
64,192,37881,1,8,0:0:0:0:
448,192,37881,1,8,0:0:0:0:
320,192,37984,1,8,0:0:0:0:
64,192,37984,1,8,0:0:0:0:
192,192,38087,1,8,0:0:0:0:
448,192,38191,1,8,0:0:0:0:
320,192,38191,1,8,0:0:0:0:
64,192,38294,1,8,0:0:0:0:
448,192,38294,1,8,0:0:0:0:
192,192,38294,1,8,0:0:0:0:
320,192,38398,1,8,0:0:0:0:
192,192,38501,1,8,0:0:0:0:
64,192,38501,1,8,0:0:0:0:
448,192,38501,1,8,0:0:0:0:
448,192,38605,1,8,0:0:0:0:
192,192,38605,1,8,0:0:0:0:
320,192,38708,1,8,0:0:0:0:
64,192,38708,1,8,0:0:0:0:
64,192,38812,1,8,0:0:0:0:
448,192,38812,1,8,0:0:0:0:
192,192,38812,1,8,0:0:0:0:
192,192,38915,1,8,0:0:0:0:
320,192,38915,1,8,0:0:0:0:
448,192,39018,1,8,0:0:0:0:
64,192,39018,1,8,0:0:0:0:
320,192,39122,1,8,0:0:0:0:
192,192,39122,1,8,0:0:0:0:
64,192,39225,1,8,0:0:0:0:
448,192,39225,1,8,0:0:0:0:
448,192,39329,1,8,0:0:0:0:
320,192,39329,1,8,0:0:0:0:
64,192,39329,1,8,0:0:0:0:
192,192,39432,1,8,0:0:0:0:
64,192,39432,1,8,0:0:0:0:
448,192,39536,1,8,0:0:0:0:
192,192,39536,1,8,0:0:0:0:
64,192,39639,1,8,0:0:0:0:
320,192,39639,1,8,0:0:0:0:
192,192,39743,1,8,0:0:0:0:
448,192,39743,1,8,0:0:0:0:
448,192,39846,1,8,0:0:0:0:
64,192,39846,1,8,0:0:0:0:
192,192,39846,1,8,0:0:0:0:
320,192,39949,1,8,0:0:0:0:
192,192,39949,1,8,0:0:0:0:
64,192,40053,1,8,0:0:0:0:
448,192,40053,1,8,0:0:0:0:
192,192,40156,1,8,0:0:0:0:
64,192,40156,1,8,0:0:0:0:
320,192,40260,1,8,0:0:0:0:
448,192,40260,1,8,0:0:0:0:
192,192,40363,1,8,0:0:0:0:
448,192,40467,1,8,0:0:0:0:
320,192,40467,1,8,0:0:0:0:
64,192,40467,1,8,0:0:0:0:
64,192,40570,1,8,0:0:0:0:
320,192,40570,1,8,0:0:0:0:
192,192,40674,1,8,0:0:0:0:
448,192,40777,1,8,0:0:0:0:
64,192,40777,1,8,0:0:0:0:
192,192,40777,1,8,0:0:0:0:
320,192,40881,1,8,0:0:0:0:
192,192,40984,1,8,0:0:0:0:
448,192,41087,1,8,0:0:0:0:
64,192,41087,1,8,0:0:0:0:
192,192,41087,1,8,0:0:0:0:
320,192,41191,1,8,0:0:0:0:
192,192,41191,1,8,0:0:0:0:
64,192,41294,1,8,0:0:0:0:
448,192,41294,1,8,0:0:0:0:
320,192,41294,1,8,0:0:0:0:
192,192,41398,1,8,0:0:0:0:
448,192,41398,1,8,0:0:0:0:
320,192,41501,1,8,0:0:0:0:
64,192,41501,1,8,0:0:0:0:
192,192,41501,1,8,0:0:0:0:
448,192,41605,1,8,0:0:0:0:
64,192,41605,1,8,0:0:0:0:
192,192,41708,1,8,0:0:0:0:
320,192,41812,1,8,0:0:0:0:
64,192,41812,1,8,0:0:0:0:
64,192,41915,1,8,0:0:0:0:
448,192,41915,1,8,0:0:0:0:
320,192,42018,1,8,0:0:0:0:
192,192,42122,1,8,0:0:0:0:
448,192,42122,1,8,0:0:0:0:
448,192,42225,1,8,0:0:0:0:
64,192,42225,1,8,0:0:0:0:
320,192,42329,1,8,0:0:0:0:
192,192,42329,1,8,0:0:0:0:
64,192,42432,1,8,0:0:0:0:
448,192,42432,1,8,0:0:0:0:
192,192,42536,1,8,0:0:0:0:
448,192,42639,1,8,0:0:0:0:
320,192,42639,1,8,0:0:0:0:
64,192,42639,1,8,0:0:0:0:
64,192,42743,1,8,0:0:0:0:
448,192,42743,1,8,0:0:0:0:
320,192,42846,1,8,0:0:0:0:
192,192,42949,1,8,0:0:0:0:
64,192,42949,1,8,0:0:0:0:
448,192,42949,1,8,0:0:0:0:
320,192,43053,1,8,0:0:0:0:
64,192,43053,1,8,0:0:0:0:
448,192,43156,1,8,0:0:0:0:
64,192,43260,1,8,0:0:0:0:
192,192,43260,1,8,0:0:0:0:
448,192,43260,1,8,0:0:0:0:
320,192,43363,1,8,0:0:0:0:
192,192,43467,1,8,0:0:0:0:
448,192,43467,1,8,0:0:0:0:
448,192,43570,1,8,0:0:0:0:
64,192,43570,1,8,0:0:0:0:
320,192,43674,1,8,0:0:0:0:
192,192,43674,1,8,0:0:0:0:
192,192,43777,1,8,0:0:0:0:
448,192,43777,1,8,0:0:0:0:
64,192,43881,1,8,0:0:0:0:
320,192,43881,1,8,0:0:0:0:
320,192,43984,1,8,0:0:0:0:
64,192,43984,1,8,0:0:0:0:
192,192,44087,1,8,0:0:0:0:
448,192,44087,1,8,0:0:0:0:
448,192,44191,1,8,0:0:0:0:
64,192,44191,1,8,0:0:0:0:
64,192,44294,1,8,0:0:0:0:
320,192,44294,1,8,0:0:0:0:
192,192,44398,1,8,0:0:0:0:
64,192,44398,1,8,0:0:0:0:
320,192,44501,1,8,0:0:0:0:
448,192,44501,1,8,0:0:0:0:
192,192,44501,1,8,0:0:0:0:
192,192,44605,1,8,0:0:0:0:
64,192,44605,1,8,0:0:0:0:
320,192,44605,1,8,0:0:0:0:
448,192,44708,1,8,0:0:0:0:
320,192,44708,1,8,0:0:0:0:
192,192,44708,1,8,0:0:0:0:
320,192,44812,1,8,0:0:0:0:
64,192,44915,1,8,0:0:0:0:
192,192,44915,1,8,0:0:0:0:
448,192,44915,1,8,0:0:0:0:
192,192,45018,1,8,0:0:0:0:
320,192,45122,1,8,0:0:0:0:
64,192,45122,1,8,0:0:0:0:
448,192,45225,1,8,0:0:0:0:
320,192,45225,1,8,0:0:0:0:
64,192,45329,1,8,0:0:0:0:
192,192,45329,1,8,0:0:0:0:
448,192,45432,1,8,0:0:0:0:
320,192,45536,1,8,0:0:0:0:
192,192,45536,1,8,0:0:0:0:
448,192,45639,1,8,0:0:0:0:
64,192,45743,1,8,0:0:0:0:
192,192,45743,1,8,0:0:0:0:
448,192,45846,1,8,0:0:0:0:
320,192,45949,1,8,0:0:0:0:
192,192,45949,1,8,0:0:0:0:
64,192,45949,1,8,0:0:0:0:
448,192,46053,1,8,0:0:0:0:
64,192,46156,1,8,0:0:0:0:
192,192,46156,1,8,0:0:0:0:
64,192,46260,1,8,0:0:0:0:
320,192,46363,1,8,0:0:0:0:
192,192,46363,1,8,0:0:0:0:
448,192,46467,1,8,0:0:0:0:
320,192,46467,1,8,0:0:0:0:
64,192,46570,1,8,0:0:0:0:
192,192,46570,1,8,0:0:0:0:
448,192,46674,1,8,0:0:0:0:
192,192,46777,1,8,0:0:0:0:
64,192,46777,1,8,0:0:0:0:
320,192,46881,1,8,0:0:0:0:
192,192,46881,1,8,0:0:0:0:
320,192,46984,1,8,0:0:0:0:
448,192,46984,1,8,0:0:0:0:
64,192,47087,1,8,0:0:0:0:
192,192,47191,1,8,0:0:0:0:
320,192,47191,1,8,0:0:0:0:
448,192,47191,1,8,0:0:0:0:
64,192,47294,1,8,0:0:0:0:
320,192,47398,1,8,0:0:0:0:
448,192,47398,1,8,0:0:0:0:
64,192,47501,1,8,0:0:0:0:
192,192,47605,1,8,0:0:0:0:
320,192,47605,1,8,0:0:0:0:
448,192,47605,1,8,0:0:0:0:
64,192,47708,1,8,0:0:0:0:
320,192,47812,1,8,0:0:0:0:
448,192,47812,1,8,0:0:0:0:
192,192,47812,1,8,0:0:0:0:
64,192,47915,1,8,0:0:0:0:
192,192,48018,1,8,0:0:0:0:
320,192,48018,1,8,0:0:0:0:
448,192,48018,1,8,0:0:0:0:
64,192,48122,1,8,0:0:0:0:
320,192,48225,1,8,0:0:0:0:
448,192,48225,1,8,0:0:0:0:
192,192,48225,1,8,0:0:0:0:
64,192,48329,1,8,0:0:0:0:
320,192,48432,1,8,0:0:0:0:
192,192,48432,1,8,0:0:0:0:
448,192,48536,1,8,0:0:0:0:
64,192,48639,1,8,0:0:0:0:
192,192,48639,1,8,0:0:0:0:
448,192,48743,1,8,0:0:0:0:
320,192,48846,1,8,0:0:0:0:
192,192,48846,1,8,0:0:0:0:
448,192,48949,1,8,0:0:0:0:
64,192,49053,1,8,0:0:0:0:
192,192,49053,1,8,0:0:0:0:
448,192,49156,1,8,0:0:0:0:
320,192,49260,1,8,0:0:0:0:
192,192,49260,1,8,0:0:0:0:
64,192,49260,1,8,0:0:0:0:
448,192,49363,1,8,0:0:0:0:
64,192,49467,1,8,0:0:0:0:
192,192,49467,1,8,0:0:0:0:
448,192,49570,1,8,0:0:0:0:
192,192,49674,1,8,0:0:0:0:
64,192,49674,1,8,0:0:0:0:
448,192,49777,1,8,0:0:0:0:
320,192,49881,1,8,0:0:0:0:
448,192,49881,1,8,0:0:0:0:
64,192,49984,1,8,0:0:0:0:
192,192,50087,1,8,0:0:0:0:
320,192,50087,1,8,0:0:0:0:
64,192,50191,1,8,0:0:0:0:
320,192,50294,1,8,0:0:0:0:
448,192,50294,1,8,0:0:0:0:
64,192,50398,1,8,0:0:0:0:
192,192,50501,1,8,0:0:0:0:
320,192,50501,1,8,0:0:0:0:
64,192,50605,1,8,0:0:0:0:
448,192,50708,1,8,0:0:0:0:
320,192,50708,1,8,0:0:0:0:
192,192,50708,1,8,0:0:0:0:
64,192,50812,1,8,0:0:0:0:
320,192,50915,1,8,0:0:0:0:
192,192,50915,1,8,0:0:0:0:
448,192,51018,1,8,0:0:0:0:
320,192,51018,1,8,0:0:0:0:
64,192,51122,1,8,0:0:0:0:
192,192,51122,1,8,0:0:0:0:
320,192,51122,1,8,0:0:0:0:
64,192,51225,1,8,0:0:0:0:
192,192,51329,1,8,0:0:0:0:
320,192,51329,1,8,0:0:0:0:
448,192,51329,1,8,0:0:0:0:
64,192,51432,1,8,0:0:0:0:
192,192,51432,1,8,0:0:0:0:
320,192,51536,1,8,0:0:0:0:
448,192,51536,1,8,0:0:0:0:
192,192,51639,1,8,0:0:0:0:
320,192,51743,1,8,0:0:0:0:
64,192,51743,1,8,0:0:0:0:
448,192,51743,1,8,0:0:0:0:
448,192,51846,1,8,0:0:0:0:
64,192,51949,1,8,0:0:0:0:
192,192,51949,1,8,0:0:0:0:
448,192,51949,1,8,0:0:0:0:
320,192,52053,1,8,0:0:0:0:
192,192,52156,1,8,0:0:0:0:
448,192,52156,1,8,0:0:0:0:
320,192,52260,1,8,0:0:0:0:
64,192,52363,1,8,0:0:0:0:
192,192,52363,1,8,0:0:0:0:
320,192,52467,1,8,0:0:0:0:
448,192,52570,1,8,0:0:0:0:
192,192,52570,1,8,0:0:0:0:
320,192,52674,1,8,0:0:0:0:
64,192,52777,1,8,0:0:0:0:
192,192,52777,1,8,0:0:0:0:
320,192,52881,1,8,0:0:0:0:
448,192,52984,1,8,0:0:0:0:
192,192,52984,1,8,0:0:0:0:
64,192,53087,1,8,0:0:0:0:
320,192,53191,1,8,0:0:0:0:
448,192,53191,1,8,0:0:0:0:
192,192,53191,1,8,0:0:0:0:
320,192,53294,1,8,0:0:0:0:
64,192,53294,1,8,0:0:0:0:
192,192,53398,1,8,0:0:0:0:
64,192,53501,1,8,0:0:0:0:
320,192,53605,1,8,0:0:0:0:
448,192,53605,1,8,0:0:0:0:
192,192,53605,1,8,0:0:0:0:
64,192,53708,1,8,0:0:0:0:
320,192,53708,1,8,0:0:0:0:
192,192,53812,1,8,0:0:0:0:
64,192,53915,1,8,0:0:0:0:
320,192,54018,1,8,0:0:0:0:
448,192,54018,1,8,0:0:0:0:
192,192,54018,1,8,0:0:0:0:
320,192,54122,1,8,0:0:0:0:
64,192,54122,1,8,0:0:0:0:
192,192,54225,1,8,0:0:0:0:
64,192,54329,1,8,0:0:0:0:
320,192,54432,1,8,0:0:0:0:
448,192,54432,1,8,0:0:0:0:
192,192,54432,1,8,0:0:0:0:
64,192,54536,1,8,0:0:0:0:
320,192,54536,1,8,0:0:0:0:
192,192,54639,1,8,0:0:0:0:
320,192,54743,1,8,0:0:0:0:
64,192,54846,1,8,0:0:0:0:
192,192,54846,1,8,0:0:0:0:
448,192,54846,1,8,0:0:0:0:
192,192,55053,1,8,0:0:0:0:
320,192,55053,1,8,0:0:0:0:
64,192,55053,1,8,0:0:0:0:
320,192,55260,1,8,0:0:0:0:
448,192,55260,1,8,0:0:0:0:
64,192,55260,1,8,0:0:0:0:
192,192,55467,1,8,0:0:0:0:
320,192,55467,1,8,0:0:0:0:
448,192,55467,1,8,0:0:0:0:
64,192,55674,1,8,0:0:0:0:
192,192,55674,1,8,0:0:0:0:
448,192,55674,1,8,0:0:0:0:
192,192,55881,1,8,0:0:0:0:
320,192,55881,1,8,0:0:0:0:
64,192,55881,1,8,0:0:0:0:
320,192,56087,1,8,0:0:0:0:
448,192,56087,1,8,0:0:0:0:
64,192,56087,1,8,0:0:0:0:
192,192,56294,1,8,0:0:0:0:
320,192,56294,1,8,0:0:0:0:
448,192,56294,1,8,0:0:0:0:
64,192,56501,1,8,0:0:0:0:
192,192,56501,1,8,0:0:0:0:
320,192,56501,1,8,0:0:0:0:
192,192,56708,1,8,0:0:0:0:
320,192,56708,1,8,0:0:0:0:
64,192,56708,1,8,0:0:0:0:
320,192,56915,1,8,0:0:0:0:
448,192,56915,1,8,0:0:0:0:
64,192,56915,1,8,0:0:0:0:
192,192,56915,1,8,0:0:0:0:
320,192,57018,1,8,0:0:0:0:
448,192,57018,1,8,0:0:0:0:
64,192,57122,1,8,0:0:0:0:
192,192,57122,1,8,0:0:0:0:
192,192,57225,1,8,0:0:0:0:
64,192,57225,1,8,0:0:0:0:
320,192,57329,1,8,0:0:0:0:
448,192,57329,1,8,0:0:0:0:
192,192,57432,1,8,0:0:0:0:
64,192,57432,1,8,0:0:0:0:
320,192,57536,1,8,0:0:0:0:
448,192,57536,1,8,0:0:0:0:
64,192,57639,1,8,0:0:0:0:
192,192,57639,1,8,0:0:0:0:
320,192,57743,1,8,0:0:0:0:
448,192,57743,1,8,0:0:0:0:
192,192,57949,1,8,0:0:0:0:
64,192,58156,1,8,0:0:0:0:
448,192,58156,1,8,0:0:0:0:
192,192,58156,1,8,0:0:0:0:
320,192,58260,1,8,0:0:0:0:
192,192,58363,1,8,0:0:0:0:
448,192,58363,1,8,0:0:0:0:
448,192,58467,1,8,0:0:0:0:
64,192,58467,1,8,0:0:0:0:
320,192,58467,1,8,0:0:0:0:
320,192,58570,1,8,0:0:0:0:
64,192,58570,1,8,0:0:0:0:
192,192,58674,1,8,0:0:0:0:
448,192,58674,1,8,0:0:0:0:
320,192,58777,1,8,0:0:0:0:
192,192,58777,1,8,0:0:0:0:
64,192,58881,1,8,0:0:0:0:
448,192,58881,1,8,0:0:0:0:
192,192,58881,1,8,0:0:0:0:
320,192,58984,1,8,0:0:0:0:
192,192,59087,1,8,0:0:0:0:
448,192,59087,1,8,0:0:0:0:
448,192,59191,1,8,0:0:0:0:
64,192,59191,1,8,0:0:0:0:
320,192,59191,1,8,0:0:0:0:
192,192,59294,1,8,0:0:0:0:
320,192,59398,1,8,0:0:0:0:
192,192,59501,1,8,0:0:0:0:
64,192,59501,1,8,0:0:0:0:
448,192,59605,1,8,0:0:0:0:
64,192,59708,1,8,0:0:0:0:
192,192,59812,1,8,0:0:0:0:
320,192,59812,1,8,0:0:0:0:
64,192,59915,1,8,0:0:0:0:
448,192,59915,1,8,0:0:0:0:
320,192,60018,1,8,0:0:0:0:
448,192,60122,1,8,0:0:0:0:
192,192,60225,1,8,0:0:0:0:
320,192,60225,1,8,0:0:0:0:
64,192,60329,1,8,0:0:0:0:
192,192,60432,1,8,0:0:0:0:
320,192,60432,1,8,0:0:0:0:
448,192,60536,1,8,0:0:0:0:
320,192,60639,1,8,0:0:0:0:
64,192,60743,1,8,0:0:0:0:
448,192,60743,1,8,0:0:0:0:
192,192,60846,1,8,0:0:0:0:
320,192,60949,1,8,0:0:0:0:
64,192,61053,1,8,0:0:0:0:
448,192,61053,1,8,0:0:0:0:
192,192,61156,1,8,0:0:0:0:
64,192,61260,1,8,0:0:0:0:
320,192,61260,1,8,0:0:0:0:
192,192,61363,1,8,0:0:0:0:
320,192,61467,1,8,0:0:0:0:
448,192,61570,1,8,0:0:0:0:
64,192,61570,1,8,0:0:0:0:
320,192,61674,1,8,0:0:0:0:
448,192,61777,1,8,0:0:0:0:
192,192,61777,1,8,0:0:0:0:
320,192,61881,1,8,0:0:0:0:
64,192,61984,1,8,0:0:0:0:
192,192,61984,1,8,0:0:0:0:
448,192,62087,1,8,0:0:0:0:
320,192,62191,1,8,0:0:0:0:
64,192,62191,1,8,0:0:0:0:
448,192,62294,1,8,0:0:0:0:
192,192,62398,1,8,0:0:0:0:
320,192,62398,1,8,0:0:0:0:
64,192,62501,1,8,0:0:0:0:
192,192,62605,1,8,0:0:0:0:
448,192,62605,1,8,0:0:0:0:
64,192,62708,1,8,0:0:0:0:
192,192,62812,1,8,0:0:0:0:
320,192,62812,1,8,0:0:0:0:
448,192,62915,1,8,0:0:0:0:
64,192,62915,1,8,0:0:0:0:
192,192,63018,1,8,0:0:0:0:
448,192,63122,1,8,0:0:0:0:
64,192,63225,1,8,0:0:0:0:
192,192,63225,1,8,0:0:0:0:
320,192,63329,1,8,0:0:0:0:
64,192,63432,1,8,0:0:0:0:
192,192,63432,1,8,0:0:0:0:
448,192,63536,1,8,0:0:0:0:
320,192,63536,1,8,0:0:0:0:
192,192,63639,1,8,0:0:0:0:
448,192,63743,1,8,0:0:0:0:
64,192,63743,1,8,0:0:0:0:
320,192,63846,1,8,0:0:0:0:
192,192,63949,1,8,0:0:0:0:
448,192,63949,1,8,0:0:0:0:
320,192,64053,1,8,0:0:0:0:
64,192,64156,1,8,0:0:0:0:
448,192,64156,1,8,0:0:0:0:
192,192,64260,1,8,0:0:0:0:
448,192,64363,1,8,0:0:0:0:
64,192,64363,1,8,0:0:0:0:
320,192,64467,1,8,0:0:0:0:
448,192,64570,1,8,0:0:0:0:
192,192,64570,1,8,0:0:0:0:
64,192,64674,1,8,0:0:0:0:
192,192,64777,1,8,0:0:0:0:
320,192,64881,1,8,0:0:0:0:
192,192,64984,1,8,0:0:0:0:
320,192,65087,1,8,0:0:0:0:
64,192,65191,1,8,0:0:0:0:
192,192,65191,1,8,0:0:0:0:
448,192,65191,1,8,0:0:0:0:
320,192,65294,1,8,0:0:0:0:
192,192,65398,1,8,0:0:0:0:
448,192,65501,1,8,0:0:0:0:
64,192,65501,1,8,0:0:0:0:
192,192,65605,1,8,0:0:0:0:
320,192,65708,1,8,0:0:0:0:
64,192,65812,1,8,0:0:0:0:
448,192,65812,1,8,0:0:0:0:
192,192,65915,1,8,0:0:0:0:
64,192,66018,1,8,0:0:0:0:
448,192,66018,1,8,0:0:0:0:
320,192,66122,1,8,0:0:0:0:
448,192,66225,1,8,0:0:0:0:
64,192,66225,1,8,0:0:0:0:
192,192,66329,1,8,0:0:0:0:
320,192,66432,1,8,0:0:0:0:
448,192,66536,1,8,0:0:0:0:
64,192,66639,1,8,0:0:0:0:
320,192,66639,1,8,0:0:0:0:
192,192,66743,1,8,0:0:0:0:
320,192,66846,1,8,0:0:0:0:
448,192,66949,1,8,0:0:0:0:
192,192,66949,1,8,0:0:0:0:
64,192,67053,1,8,0:0:0:0:
192,192,67156,1,8,0:0:0:0:
320,192,67156,1,8,0:0:0:0:
448,192,67260,1,8,0:0:0:0:
64,192,67363,1,8,0:0:0:0:
192,192,67363,1,8,0:0:0:0:
320,192,67467,1,8,0:0:0:0:
448,192,67570,1,8,0:0:0:0:
64,192,67570,1,8,0:0:0:0:
192,192,67674,1,8,0:0:0:0:
320,192,67777,1,8,0:0:0:0:
64,192,67881,1,8,0:0:0:0:
448,192,67881,1,8,0:0:0:0:
192,192,67984,1,8,0:0:0:0:
448,192,68087,1,8,0:0:0:0:
64,192,68087,1,8,0:0:0:0:
320,192,68191,1,8,0:0:0:0:
64,192,68294,1,8,0:0:0:0:
448,192,68294,1,8,0:0:0:0:
192,192,68398,1,8,0:0:0:0:
64,192,68501,1,8,0:0:0:0:
448,192,68501,1,8,0:0:0:0:
320,192,68605,1,8,0:0:0:0:
448,192,68708,1,8,0:0:0:0:
64,192,68708,1,8,0:0:0:0:
320,192,68812,1,8,0:0:0:0:
64,192,68915,1,8,0:0:0:0:
448,192,68915,1,8,0:0:0:0:
192,192,69018,1,8,0:0:0:0:
448,192,69122,1,8,0:0:0:0:
64,192,69122,1,8,0:0:0:0:
320,192,69225,1,8,0:0:0:0:
64,192,69329,1,8,0:0:0:0:
448,192,69329,1,8,0:0:0:0:
192,192,69432,1,8,0:0:0:0:
320,192,69536,1,8,0:0:0:0:
64,192,69536,1,8,0:0:0:0:
192,192,69639,1,8,0:0:0:0:
448,192,69743,1,8,0:0:0:0:
320,192,69743,1,8,0:0:0:0:
64,192,69846,1,8,0:0:0:0:
320,192,69949,1,8,0:0:0:0:
192,192,70053,1,8,0:0:0:0:
64,192,70053,1,8,0:0:0:0:
448,192,70156,1,8,0:0:0:0:
320,192,70156,1,8,0:0:0:0:
64,192,70260,1,8,0:0:0:0:
320,192,70363,1,8,0:0:0:0:
192,192,70467,1,8,0:0:0:0:
448,192,70467,1,8,0:0:0:0:
320,192,70570,1,8,0:0:0:0:
64,192,70674,1,8,0:0:0:0:
448,192,70674,1,8,0:0:0:0:
192,192,70777,1,8,0:0:0:0:
448,192,70881,128,8,71294:0:0:0:0:
320,192,70881,1,8,0:0:0:0:
64,192,70984,1,8,0:0:0:0:
192,192,71087,1,8,0:0:0:0:
320,192,71191,1,8,0:0:0:0:
192,192,71294,1,8,0:0:0:0:
320,192,71398,1,8,0:0:0:0:
64,192,71501,1,8,0:0:0:0:
448,192,71501,1,8,0:0:0:0:
320,192,71605,1,8,0:0:0:0:
448,192,71708,1,8,0:0:0:0:
64,192,71708,1,8,0:0:0:0:
192,192,71812,1,8,0:0:0:0:
320,192,71915,1,8,0:0:0:0:
448,192,72018,1,8,0:0:0:0:
192,192,72018,1,8,0:0:0:0:
64,192,72122,1,8,0:0:0:0:
320,192,72225,1,8,0:0:0:0:
192,192,72225,1,8,0:0:0:0:
448,192,72329,1,8,0:0:0:0:
64,192,72329,1,8,0:0:0:0:
320,192,72432,1,8,0:0:0:0:
64,192,72536,1,8,0:0:0:0:
448,192,72536,1,8,0:0:0:0:
192,192,72639,1,8,0:0:0:0:
320,192,72639,1,8,0:0:0:0:
64,192,72743,1,8,0:0:0:0:
320,192,72846,1,8,0:0:0:0:
448,192,72846,1,8,0:0:0:0:
192,192,72949,1,8,0:0:0:0:
448,192,73053,1,8,0:0:0:0:
64,192,73156,1,8,0:0:0:0:
320,192,73260,1,8,0:0:0:0:
192,192,73363,1,8,0:0:0:0:
448,192,73467,1,8,0:0:0:0:
320,192,73467,1,8,0:0:0:0:
64,192,73570,1,8,0:0:0:0:
192,192,73674,1,8,0:0:0:0:
320,192,73777,1,8,0:0:0:0:
64,192,73777,1,8,0:0:0:0:
448,192,73881,1,8,0:0:0:0:
192,192,73984,1,8,0:0:0:0:
320,192,74087,1,8,0:0:0:0:
64,192,74087,1,8,0:0:0:0:
448,192,74191,1,8,0:0:0:0:
64,192,74294,1,8,0:0:0:0:
192,192,74294,1,8,0:0:0:0:
320,192,74398,1,8,0:0:0:0:
192,192,74501,1,8,0:0:0:0:
448,192,74605,1,8,0:0:0:0:
320,192,74605,1,8,0:0:0:0:
64,192,74708,1,8,0:0:0:0:
320,192,74812,1,8,0:0:0:0:
192,192,74915,1,8,0:0:0:0:
448,192,75018,1,8,0:0:0:0:
320,192,75018,1,8,0:0:0:0:
64,192,75122,1,8,0:0:0:0:
320,192,75225,1,8,0:0:0:0:
192,192,75329,1,8,0:0:0:0:
448,192,75329,1,8,0:0:0:0:
320,192,75432,1,8,0:0:0:0:
64,192,75536,1,8,0:0:0:0:
448,192,75639,1,8,0:0:0:0:
192,192,75743,1,8,0:0:0:0:
448,192,75743,1,8,0:0:0:0:
320,192,75846,1,8,0:0:0:0:
64,192,75949,1,8,0:0:0:0:
192,192,75949,1,8,0:0:0:0:
448,192,76053,1,8,0:0:0:0:
192,192,76156,1,8,0:0:0:0:
64,192,76156,1,8,0:0:0:0:
320,192,76260,1,8,0:0:0:0:
64,192,76363,1,8,0:0:0:0:
192,192,76363,1,8,0:0:0:0:
448,192,76363,1,8,0:0:0:0:
320,192,76467,1,8,0:0:0:0:
448,192,76570,1,8,0:0:0:0:
192,192,76674,1,8,0:0:0:0:
320,192,76777,1,8,0:0:0:0:
64,192,76881,1,8,0:0:0:0:
448,192,76881,1,8,0:0:0:0:
320,192,76984,1,8,0:0:0:0:
192,192,77087,1,8,0:0:0:0:
448,192,77191,1,8,0:0:0:0:
64,192,77191,1,8,0:0:0:0:
320,192,77294,1,8,0:0:0:0:
64,192,77398,1,8,0:0:0:0:
448,192,77398,1,8,0:0:0:0:
192,192,77501,1,8,0:0:0:0:
448,192,77605,1,8,0:0:0:0:
64,192,77605,1,8,0:0:0:0:
320,192,77708,1,8,0:0:0:0:
64,192,77812,1,8,0:0:0:0:
448,192,77812,1,8,0:0:0:0:
192,192,77915,1,8,0:0:0:0:
448,192,78018,1,8,0:0:0:0:
64,192,78018,1,8,0:0:0:0:
320,192,78122,1,8,0:0:0:0:
64,192,78225,1,8,0:0:0:0:
448,192,78225,1,8,0:0:0:0:
192,192,78329,1,8,0:0:0:0:
320,192,78432,1,8,0:0:0:0:
64,192,78432,1,8,0:0:0:0:
448,192,78536,1,8,0:0:0:0:
192,192,78536,1,8,0:0:0:0:
320,192,78639,1,8,0:0:0:0:
64,192,78743,1,8,0:0:0:0:
448,192,78743,1,8,0:0:0:0:
192,192,78846,1,8,0:0:0:0:
320,192,78949,1,8,0:0:0:0:
64,192,79053,1,8,0:0:0:0:
448,192,79053,1,8,0:0:0:0:
320,192,79156,1,8,0:0:0:0:
448,192,79260,1,8,0:0:0:0:
192,192,79260,1,8,0:0:0:0:
320,192,79363,1,8,0:0:0:0:
64,192,79467,1,8,0:0:0:0:
192,192,79467,1,8,0:0:0:0:
448,192,79467,1,8,0:0:0:0:
320,192,79570,1,8,0:0:0:0:
448,192,79674,1,8,0:0:0:0:
64,192,79674,1,8,0:0:0:0:
192,192,79777,1,8,0:0:0:0:
64,192,79881,1,8,0:0:0:0:
448,192,79881,1,8,0:0:0:0:
320,192,79984,1,8,0:0:0:0:
192,192,80087,1,8,0:0:0:0:
448,192,80191,1,8,0:0:0:0:
64,192,80191,1,8,0:0:0:0:
320,192,80294,1,8,0:0:0:0:
448,192,80398,1,8,0:0:0:0:
192,192,80398,1,8,0:0:0:0:
64,192,80501,1,8,0:0:0:0:
320,192,80605,1,8,0:0:0:0:
192,192,80708,1,8,0:0:0:0:
448,192,80708,1,8,0:0:0:0:
64,192,80812,1,8,0:0:0:0:
320,192,80915,1,8,0:0:0:0:
448,192,81018,1,8,0:0:0:0:
64,192,81018,1,8,0:0:0:0:
192,192,81122,1,8,0:0:0:0:
320,192,81122,1,8,0:0:0:0:
64,192,81225,1,8,0:0:0:0:
448,192,81225,1,8,0:0:0:0:
192,192,81329,1,8,0:0:0:0:
448,192,81432,1,8,0:0:0:0:
64,192,81432,1,8,0:0:0:0:
320,192,81536,1,8,0:0:0:0:
64,192,81639,1,8,0:0:0:0:
448,192,81639,1,8,0:0:0:0:
192,192,81743,1,8,0:0:0:0:
448,192,81846,1,8,0:0:0:0:
64,192,81846,1,8,0:0:0:0:
320,192,81949,1,8,0:0:0:0:
192,192,82053,1,8,0:0:0:0:
448,192,82053,1,8,0:0:0:0:
320,192,82156,1,8,0:0:0:0:
64,192,82260,1,8,0:0:0:0:
448,192,82260,1,8,0:0:0:0:
192,192,82363,1,8,0:0:0:0:
448,192,82467,1,8,0:0:0:0:
64,192,82467,1,8,0:0:0:0:
320,192,82570,1,8,0:0:0:0:
64,192,82674,1,8,0:0:0:0:
448,192,82674,1,8,0:0:0:0:
192,192,82777,1,8,0:0:0:0:
320,192,82881,1,8,0:0:0:0:
64,192,82881,1,8,0:0:0:0:
192,192,82984,1,8,0:0:0:0:
448,192,83087,1,8,0:0:0:0:
64,192,83087,1,8,0:0:0:0:
320,192,83191,1,8,0:0:0:0:
64,192,83294,1,8,0:0:0:0:
448,192,83294,1,8,0:0:0:0:
192,192,83398,1,8,0:0:0:0:
320,192,83501,1,8,0:0:0:0:
64,192,83501,1,8,0:0:0:0:
192,192,83605,1,8,0:0:0:0:
448,192,83708,1,8,0:0:0:0:
64,192,83708,1,8,0:0:0:0:
320,192,83812,1,8,0:0:0:0:
192,192,83915,1,8,0:0:0:0:
448,192,83915,1,8,0:0:0:0:
64,192,84018,1,8,0:0:0:0:
320,192,84018,1,8,0:0:0:0:
448,192,84122,128,8,84536:0:0:0:0:
192,192,84122,1,8,0:0:0:0:
320,192,84225,1,8,0:0:0:0:
64,192,84329,1,8,0:0:0:0:
192,192,84432,1,8,0:0:0:0:
320,192,84536,1,8,0:0:0:0:
64,192,84639,1,8,0:0:0:0:
192,192,84639,1,8,0:0:0:0:
320,192,84743,1,8,0:0:0:0:
192,192,84846,1,8,0:0:0:0:
448,192,84949,1,8,0:0:0:0:
64,192,84949,1,8,0:0:0:0:
320,192,85053,1,8,0:0:0:0:
64,192,85156,1,8,0:0:0:0:
448,192,85156,1,8,0:0:0:0:
320,192,85260,1,8,0:0:0:0:
448,192,85363,1,8,0:0:0:0:
64,192,85363,1,8,0:0:0:0:
192,192,85467,1,8,0:0:0:0:
64,192,85570,1,8,0:0:0:0:
448,192,85570,1,8,0:0:0:0:
320,192,85674,1,8,0:0:0:0:
192,192,85777,1,8,0:0:0:0:
320,192,85881,1,8,0:0:0:0:
448,192,85984,1,8,0:0:0:0:
64,192,86087,1,8,0:0:0:0:
320,192,86087,1,8,0:0:0:0:
192,192,86191,1,8,0:0:0:0:
320,192,86294,1,8,0:0:0:0:
64,192,86294,1,8,0:0:0:0:
448,192,86398,1,8,0:0:0:0:
192,192,86501,1,8,0:0:0:0:
320,192,86605,1,8,0:0:0:0:
192,192,86708,1,8,0:0:0:0:
448,192,86708,1,8,0:0:0:0:
64,192,86812,1,8,0:0:0:0:
320,192,86915,1,8,0:0:0:0:
192,192,87018,1,8,0:0:0:0:
448,192,87122,1,8,0:0:0:0:
64,192,87122,1,8,0:0:0:0:
320,192,87225,1,8,0:0:0:0:
64,192,87329,1,8,0:0:0:0:
192,192,87329,1,8,0:0:0:0:
448,192,87432,1,8,0:0:0:0:
320,192,87536,1,8,0:0:0:0:
64,192,87639,1,8,0:0:0:0:
448,192,87639,1,8,0:0:0:0:
320,192,87743,1,8,0:0:0:0:
192,192,87846,1,8,0:0:0:0:
448,192,87949,1,8,0:0:0:0:
64,192,87949,1,8,0:0:0:0:
320,192,88053,1,8,0:0:0:0:
64,192,88156,1,8,0:0:0:0:
192,192,88156,1,8,0:0:0:0:
448,192,88260,1,8,0:0:0:0:
192,192,88363,1,8,0:0:0:0:
64,192,88363,1,8,0:0:0:0:
320,192,88467,1,8,0:0:0:0:
64,192,88570,1,8,0:0:0:0:
448,192,88674,1,8,0:0:0:0:
192,192,88674,1,8,0:0:0:0:
320,192,88777,1,8,0:0:0:0:
192,192,88881,1,8,0:0:0:0:
320,192,88984,1,8,0:0:0:0:
192,192,89087,1,8,0:0:0:0:
64,192,89191,1,8,0:0:0:0:
320,192,89294,1,8,0:0:0:0:
448,192,89294,1,8,0:0:0:0:
192,192,89398,1,8,0:0:0:0:
448,192,89501,1,8,0:0:0:0:
64,192,89501,1,8,0:0:0:0:
320,192,89605,1,8,0:0:0:0:
64,192,89708,1,8,0:0:0:0:
448,192,89708,1,8,0:0:0:0:
192,192,89812,1,8,0:0:0:0:
320,192,89915,1,8,0:0:0:0:
64,192,89915,1,8,0:0:0:0:
192,192,90018,1,8,0:0:0:0:
448,192,90122,1,8,0:0:0:0:
320,192,90225,1,8,0:0:0:0:
64,192,90329,1,8,0:0:0:0:
448,192,90329,1,8,0:0:0:0:
192,192,90432,1,8,0:0:0:0:
448,192,90536,1,8,0:0:0:0:
64,192,90536,1,8,0:0:0:0:
320,192,90639,1,8,0:0:0:0:
64,192,90743,1,8,0:0:0:0:
448,192,90743,1,8,0:0:0:0:
192,192,90846,1,8,0:0:0:0:
64,192,90949,1,8,0:0:0:0:
320,192,91053,1,8,0:0:0:0:
448,192,91053,1,8,0:0:0:0:
192,192,91156,1,8,0:0:0:0:
64,192,91260,1,8,0:0:0:0:
448,192,91260,1,8,0:0:0:0:
320,192,91363,1,8,0:0:0:0:
192,192,91467,1,8,0:0:0:0:
448,192,91570,1,8,0:0:0:0:
64,192,91570,1,8,0:0:0:0:
320,192,91674,1,8,0:0:0:0:
64,192,91777,1,8,0:0:0:0:
320,192,91881,1,8,0:0:0:0:
448,192,91881,1,8,0:0:0:0:
192,192,91984,1,8,0:0:0:0:
320,192,92087,1,8,0:0:0:0:
64,192,92191,1,8,0:0:0:0:
448,192,92191,1,8,0:0:0:0:
192,192,92294,1,8,0:0:0:0:
448,192,92398,1,8,0:0:0:0:
320,192,92501,1,8,0:0:0:0:
64,192,92501,1,8,0:0:0:0:
192,192,92605,1,8,0:0:0:0:
320,192,92708,1,8,0:0:0:0:
192,192,92812,1,8,0:0:0:0:
64,192,92812,1,8,0:0:0:0:
320,192,92915,1,8,0:0:0:0:
448,192,93018,1,8,0:0:0:0:
192,192,93122,1,8,0:0:0:0:
320,192,93225,1,8,0:0:0:0:
64,192,93329,1,8,0:0:0:0:
448,192,93329,1,8,0:0:0:0:
192,192,93432,1,8,0:0:0:0:
448,192,93536,1,8,0:0:0:0:
192,192,93639,1,8,0:0:0:0:
320,192,93743,1,8,0:0:0:0:
64,192,93846,1,8,0:0:0:0:
448,192,93846,1,8,0:0:0:0:
192,192,93949,1,8,0:0:0:0:
448,192,94053,1,8,0:0:0:0:
320,192,94156,1,8,0:0:0:0:
64,192,94156,1,8,0:0:0:0:
192,192,94260,1,8,0:0:0:0:
320,192,94363,1,8,0:0:0:0:
448,192,94467,1,8,0:0:0:0:
192,192,94467,1,8,0:0:0:0:
64,192,94570,1,8,0:0:0:0:
320,192,94570,1,8,0:0:0:0:
448,192,94674,1,8,0:0:0:0:
192,192,94674,1,8,0:0:0:0:
320,192,94777,1,8,0:0:0:0:
64,192,94881,1,8,0:0:0:0:
448,192,94881,1,8,0:0:0:0:
320,192,94984,1,8,0:0:0:0:
192,192,95087,1,8,0:0:0:0:
320,192,95191,1,8,0:0:0:0:
64,192,95191,1,8,0:0:0:0:
448,192,95294,1,8,0:0:0:0:
192,192,95294,1,8,0:0:0:0:
64,192,95398,1,8,0:0:0:0:
320,192,95501,1,8,0:0:0:0:
192,192,95605,1,8,0:0:0:0:
448,192,95708,1,8,0:0:0:0:
320,192,95708,1,8,0:0:0:0:
64,192,95812,1,8,0:0:0:0:
320,192,95915,1,8,0:0:0:0:
192,192,96018,1,8,0:0:0:0:
448,192,96122,1,8,0:0:0:0:
64,192,96225,1,8,0:0:0:0:
320,192,96329,1,8,0:0:0:0:
192,192,96432,1,8,0:0:0:0:
448,192,96536,1,8,0:0:0:0:
64,192,96639,1,8,0:0:0:0:
192,192,96743,1,8,0:0:0:0:
448,192,96743,1,8,0:0:0:0:
320,192,96846,1,8,0:0:0:0:
192,192,96949,1,8,0:0:0:0:
448,192,97053,1,8,0:0:0:0:
64,192,97053,1,8,0:0:0:0:
320,192,97156,1,8,0:0:0:0:
64,192,97260,1,8,0:0:0:0:
448,192,97260,1,8,0:0:0:0:
192,192,97363,1,8,0:0:0:0:
448,192,97467,128,8,97881:0:0:0:0:
320,192,97467,1,8,0:0:0:0:
192,192,97570,1,8,0:0:0:0:
64,192,97674,1,8,0:0:0:0:
192,192,97777,1,8,0:0:0:0:
320,192,97881,1,8,0:0:0:0:
64,192,97984,1,8,0:0:0:0:
192,192,98087,1,8,0:0:0:0:
448,192,98191,1,8,0:0:0:0:
320,192,98294,1,8,0:0:0:0:
192,192,98294,1,8,0:0:0:0:
64,192,98398,1,8,0:0:0:0:
448,192,98501,1,8,0:0:0:0:
192,192,98501,1,8,0:0:0:0:
320,192,98501,1,8,0:0:0:0:
64,192,98605,1,8,0:0:0:0:
320,192,98708,1,8,0:0:0:0:
448,192,98812,1,8,0:0:0:0:
192,192,98915,1,8,0:0:0:0:
320,192,98915,1,8,0:0:0:0:
448,192,99018,1,8,0:0:0:0:
64,192,99122,1,8,0:0:0:0:
320,192,99122,1,8,0:0:0:0:
448,192,99225,1,8,0:0:0:0:
192,192,99329,1,8,0:0:0:0:
64,192,99329,1,8,0:0:0:0:
320,192,99329,1,8,0:0:0:0:
192,192,99536,1,8,0:0:0:0:
320,192,99536,1,8,0:0:0:0:
448,192,99536,1,8,0:0:0:0:
64,192,99536,1,8,0:0:0:0:
320,192,99743,1,8,0:0:0:0:
448,192,99743,1,8,0:0:0:0:
192,192,99743,1,8,0:0:0:0:
320,192,99846,1,8,0:0:0:0:
64,192,99949,1,8,0:0:0:0:
448,192,99949,1,8,0:0:0:0:
192,192,99949,1,8,0:0:0:0:
192,192,100053,1,8,0:0:0:0:
320,192,100156,1,8,0:0:0:0:
448,192,100156,1,8,0:0:0:0:
64,192,100156,1,8,0:0:0:0:
192,192,100260,1,8,0:0:0:0:
192,192,100363,1,8,0:0:0:0:
320,192,100363,1,8,0:0:0:0:
64,192,100363,1,8,0:0:0:0:
192,192,100467,1,8,0:0:0:0:
320,192,100570,1,8,0:0:0:0:
448,192,100570,1,8,0:0:0:0:
192,192,100570,1,8,0:0:0:0:
192,192,100674,1,8,0:0:0:0:
64,192,100777,1,8,0:0:0:0:
448,192,100777,1,8,0:0:0:0:
320,192,100777,1,8,0:0:0:0:
192,192,100881,1,8,0:0:0:0:
320,192,100984,1,8,0:0:0:0:
448,192,100984,1,8,0:0:0:0:
64,192,100984,1,8,0:0:0:0:
64,192,101087,1,8,0:0:0:0:
192,192,101191,1,8,0:0:0:0:
320,192,101191,1,8,0:0:0:0:
448,192,101191,1,8,0:0:0:0:
64,192,101294,1,8,0:0:0:0:
320,192,101398,1,8,0:0:0:0:
448,192,101398,1,8,0:0:0:0:
192,192,101398,1,8,0:0:0:0:
320,192,101501,1,8,0:0:0:0:
448,192,101605,1,8,0:0:0:0:
64,192,101605,1,8,0:0:0:0:
192,192,101605,1,8,0:0:0:0:
192,192,101708,1,8,0:0:0:0:
320,192,101812,1,8,0:0:0:0:
448,192,101812,1,8,0:0:0:0:
64,192,101812,1,8,0:0:0:0:
192,192,101915,1,8,0:0:0:0:
192,192,102018,1,8,0:0:0:0:
320,192,102018,1,8,0:0:0:0:
448,192,102018,1,8,0:0:0:0:
192,192,102122,1,8,0:0:0:0:
320,192,102225,1,8,0:0:0:0:
448,192,102225,1,8,0:0:0:0:
192,192,102329,1,8,0:0:0:0:
320,192,102329,1,8,0:0:0:0:
64,192,102432,1,8,0:0:0:0:
448,192,102432,1,8,0:0:0:0:
192,192,102536,1,8,0:0:0:0:
320,192,102639,1,8,0:0:0:0:
448,192,102639,1,8,0:0:0:0:
64,192,102639,1,8,0:0:0:0:
64,192,102743,1,8,0:0:0:0:
192,192,102846,1,8,0:0:0:0:
320,192,102846,1,8,0:0:0:0:
448,192,102846,1,8,0:0:0:0:
64,192,102949,1,8,0:0:0:0:
320,192,103053,1,8,0:0:0:0:
448,192,103053,1,8,0:0:0:0:
192,192,103053,1,8,0:0:0:0:
320,192,103156,1,8,0:0:0:0:
64,192,103260,1,8,0:0:0:0:
448,192,103260,1,8,0:0:0:0:
192,192,103260,1,8,0:0:0:0:
192,192,103363,1,8,0:0:0:0:
320,192,103467,1,8,0:0:0:0:
448,192,103467,1,8,0:0:0:0:
64,192,103467,1,8,0:0:0:0:
448,192,103570,1,8,0:0:0:0:
192,192,103674,1,8,0:0:0:0:
320,192,103674,1,8,0:0:0:0:
64,192,103777,1,8,0:0:0:0:
320,192,103881,1,8,0:0:0:0:
448,192,103881,1,8,0:0:0:0:
192,192,103881,1,8,0:0:0:0:
192,192,103984,1,8,0:0:0:0:
64,192,104087,1,8,0:0:0:0:
448,192,104087,1,8,0:0:0:0:
320,192,104087,1,8,0:0:0:0:
192,192,104191,1,8,0:0:0:0:
320,192,104294,1,8,0:0:0:0:
448,192,104294,1,8,0:0:0:0:
64,192,104294,1,8,0:0:0:0:
320,192,104398,1,8,0:0:0:0:
192,192,104501,1,8,0:0:0:0:
64,192,104501,1,8,0:0:0:0:
448,192,104605,1,8,0:0:0:0:
192,192,104605,1,8,0:0:0:0:
320,192,104708,1,8,0:0:0:0:
448,192,104708,1,8,0:0:0:0:
64,192,104708,1,8,0:0:0:0:
192,192,104812,1,8,0:0:0:0:
320,192,104915,1,8,0:0:0:0:
448,192,104915,1,8,0:0:0:0:
64,192,104915,1,8,0:0:0:0:
192,192,105018,1,8,0:0:0:0:
320,192,105122,1,8,0:0:0:0:
448,192,105122,1,8,0:0:0:0:
64,192,105122,1,8,0:0:0:0:
192,192,105225,1,8,0:0:0:0:
64,192,105329,1,8,0:0:0:0:
192,192,105329,1,8,0:0:0:0:
320,192,105329,1,8,0:0:0:0:
192,192,105432,1,8,0:0:0:0:
320,192,105536,1,8,0:0:0:0:
448,192,105536,1,8,0:0:0:0:
64,192,105536,1,8,0:0:0:0:
320,192,105639,1,8,0:0:0:0:
64,192,105743,1,8,0:0:0:0:
192,192,105743,1,8,0:0:0:0:
448,192,105743,1,8,0:0:0:0:
192,192,105846,1,8,0:0:0:0:
320,192,105949,1,8,0:0:0:0:
448,192,105949,1,8,0:0:0:0:
64,192,105949,1,8,0:0:0:0:
192,192,106053,1,8,0:0:0:0:
192,192,106156,1,8,0:0:0:0:
320,192,106156,1,8,0:0:0:0:
64,192,106260,1,8,0:0:0:0:
320,192,106363,1,8,0:0:0:0:
448,192,106363,1,8,0:0:0:0:
192,192,106363,1,8,0:0:0:0:
192,192,106467,1,8,0:0:0:0:
448,192,106570,1,8,0:0:0:0:
64,192,106570,1,8,0:0:0:0:
320,192,106674,1,8,0:0:0:0:
64,192,106777,1,8,0:0:0:0:
192,192,106777,1,8,0:0:0:0:
448,192,106881,1,8,0:0:0:0:
192,192,106984,1,8,0:0:0:0:
320,192,106984,1,8,0:0:0:0:
448,192,107087,1,8,0:0:0:0:
64,192,107191,1,8,0:0:0:0:
192,192,107191,1,8,0:0:0:0:
192,192,107294,1,8,0:0:0:0:
320,192,107398,1,8,0:0:0:0:
448,192,107398,1,8,0:0:0:0:
64,192,107398,1,8,0:0:0:0:
192,192,107501,1,8,0:0:0:0:
64,192,107605,1,8,0:0:0:0:
192,192,107605,1,8,0:0:0:0:
448,192,107605,1,8,0:0:0:0:
320,192,107708,1,8,0:0:0:0:
192,192,107812,1,8,0:0:0:0:
320,192,107812,1,8,0:0:0:0:
448,192,107915,1,8,0:0:0:0:
64,192,108018,1,8,0:0:0:0:
192,192,108018,1,8,0:0:0:0:
320,192,108018,1,8,0:0:0:0:
192,192,108122,1,8,0:0:0:0:
320,192,108225,1,8,0:0:0:0:
448,192,108225,1,8,0:0:0:0:
64,192,108225,1,8,0:0:0:0:
320,192,108329,1,8,0:0:0:0:
64,192,108432,1,8,0:0:0:0:
192,192,108432,1,8,0:0:0:0:
448,192,108432,1,8,0:0:0:0:
320,192,108536,1,8,0:0:0:0:
64,192,108639,1,8,0:0:0:0:
192,192,108639,1,8,0:0:0:0:
448,192,108639,1,8,0:0:0:0:
320,192,108743,1,8,0:0:0:0:
64,192,108846,1,8,0:0:0:0:
192,192,108846,1,8,0:0:0:0:
448,192,108846,1,8,0:0:0:0:
320,192,108949,1,8,0:0:0:0:
64,192,109053,1,8,0:0:0:0:
448,192,109053,1,8,0:0:0:0:
192,192,109053,1,8,0:0:0:0:
320,192,109156,1,8,0:0:0:0:
64,192,109260,1,8,0:0:0:0:
192,192,109260,1,8,0:0:0:0:
448,192,109260,1,8,0:0:0:0:
320,192,109363,1,8,0:0:0:0:
192,192,109467,1,8,0:0:0:0:
320,192,109467,1,8,0:0:0:0:
448,192,109570,1,8,0:0:0:0:
64,192,109674,1,8,0:0:0:0:
192,192,109674,1,8,0:0:0:0:
320,192,109674,1,8,0:0:0:0:
448,192,109777,1,8,0:0:0:0:
192,192,109881,1,8,0:0:0:0:
320,192,109881,1,8,0:0:0:0:
448,192,109984,1,8,0:0:0:0:
64,192,110087,1,8,0:0:0:0:
192,192,110087,1,8,0:0:0:0:
320,192,110087,1,8,0:0:0:0:
448,192,110191,1,8,0:0:0:0:
192,192,110294,1,8,0:0:0:0:
320,192,110294,1,8,0:0:0:0:
320,192,110398,1,8,0:0:0:0:
64,192,110501,1,8,0:0:0:0:
192,192,110501,1,8,0:0:0:0:
448,192,110501,1,8,0:0:0:0:
320,192,110605,1,8,0:0:0:0:
192,192,110708,1,8,0:0:0:0:
320,192,110708,1,8,0:0:0:0:
448,192,110708,1,8,0:0:0:0:
320,192,110812,1,8,0:0:0:0:
64,192,110915,1,8,0:0:0:0:
192,192,110915,1,8,0:0:0:0:
192,192,111018,1,8,0:0:0:0:
320,192,111122,1,8,0:0:0:0:
448,192,111122,1,8,0:0:0:0:
64,192,111122,1,8,0:0:0:0:
192,192,111225,1,8,0:0:0:0:
192,192,111329,1,8,0:0:0:0:
64,192,111329,1,8,0:0:0:0:
320,192,111329,1,8,0:0:0:0:
192,192,111432,1,8,0:0:0:0:
320,192,111536,1,8,0:0:0:0:
448,192,111536,1,8,0:0:0:0:
64,192,111536,1,8,0:0:0:0:
320,192,111639,1,8,0:0:0:0:
64,192,111743,1,8,0:0:0:0:
192,192,111743,1,8,0:0:0:0:
448,192,111743,1,8,0:0:0:0:
320,192,111846,1,8,0:0:0:0:
448,192,111949,128,8,112363:0:0:0:0:
64,192,111949,1,8,0:0:0:0:
192,192,111949,1,8,0:0:0:0:
320,192,112053,1,8,0:0:0:0:
192,192,112156,1,8,0:0:0:0:
64,192,112260,1,8,0:0:0:0:
320,192,112363,128,8,112777:0:0:0:0:
192,192,112363,1,8,0:0:0:0:
64,192,112467,1,8,0:0:0:0:
448,192,112467,1,8,0:0:0:0:
192,192,112570,1,8,0:0:0:0:
448,192,112674,1,8,0:0:0:0:
64,192,112674,1,8,0:0:0:0:
64,192,112777,1,8,0:0:0:0:
192,192,112777,1,8,0:0:0:0:
448,192,112881,1,8,0:0:0:0:
192,192,112984,1,8,0:0:0:0:
448,192,113087,1,8,0:0:0:0:
64,192,113191,1,8,0:0:0:0:
192,192,113191,1,8,0:0:0:0:
320,192,113294,1,8,0:0:0:0:
192,192,113398,1,8,0:0:0:0:
448,192,113501,1,8,0:0:0:0:
320,192,113501,1,8,0:0:0:0:
64,192,113605,1,8,0:0:0:0:
192,192,113605,1,8,0:0:0:0:
448,192,113708,1,8,0:0:0:0:
320,192,113812,1,8,0:0:0:0:
448,192,113915,1,8,0:0:0:0:
64,192,114018,1,8,0:0:0:0:
192,192,114018,1,8,0:0:0:0:
320,192,114122,1,8,0:0:0:0:
192,192,114225,1,8,0:0:0:0:
448,192,114225,1,8,0:0:0:0:
64,192,114329,1,8,0:0:0:0:
192,192,114432,1,8,0:0:0:0:
320,192,114536,1,8,0:0:0:0:
64,192,114536,1,8,0:0:0:0:
448,192,114639,1,8,0:0:0:0:
192,192,114743,1,8,0:0:0:0:
320,192,114846,1,8,0:0:0:0:
64,192,114949,1,8,0:0:0:0:
448,192,114949,1,8,0:0:0:0:
192,192,115053,1,8,0:0:0:0:
64,192,115156,1,8,0:0:0:0:
320,192,115260,1,8,0:0:0:0:
448,192,115260,1,8,0:0:0:0:
192,192,115363,1,8,0:0:0:0:
64,192,115467,1,8,0:0:0:0:
320,192,115467,1,8,0:0:0:0:
192,192,115570,1,8,0:0:0:0:
320,192,115674,1,8,0:0:0:0:
448,192,115674,1,8,0:0:0:0:
64,192,115777,1,8,0:0:0:0:
320,192,115881,1,8,0:0:0:0:
192,192,115984,1,8,0:0:0:0:
320,192,116087,1,8,0:0:0:0:
448,192,116087,1,8,0:0:0:0:
64,192,116191,1,8,0:0:0:0:
192,192,116294,1,8,0:0:0:0:
448,192,116294,1,8,0:0:0:0:
320,192,116398,1,8,0:0:0:0:
192,192,116501,1,8,0:0:0:0:
320,192,116605,1,8,0:0:0:0:
64,192,116605,1,8,0:0:0:0:
448,192,116708,1,8,0:0:0:0:
320,192,116812,1,8,0:0:0:0:
64,192,116812,1,8,0:0:0:0:
192,192,116915,1,8,0:0:0:0:
320,192,117018,1,8,0:0:0:0:
192,192,117122,1,8,0:0:0:0:
448,192,117122,1,8,0:0:0:0:
64,192,117225,1,8,0:0:0:0:
320,192,117225,1,8,0:0:0:0:
192,192,117329,1,8,0:0:0:0:
448,192,117432,1,8,0:0:0:0:
64,192,117432,1,8,0:0:0:0:
192,192,117536,1,8,0:0:0:0:
320,192,117639,1,8,0:0:0:0:
64,192,117639,1,8,0:0:0:0:
192,192,117743,1,8,0:0:0:0:
448,192,117846,1,8,0:0:0:0:
64,192,117846,1,8,0:0:0:0:
320,192,117949,1,8,0:0:0:0:
64,192,118053,1,8,0:0:0:0:
448,192,118053,1,8,0:0:0:0:
192,192,118156,1,8,0:0:0:0:
448,192,118260,1,8,0:0:0:0:
64,192,118260,1,8,0:0:0:0:
192,192,118363,1,8,0:0:0:0:
320,192,118467,1,8,0:0:0:0:
64,192,118467,1,8,0:0:0:0:
192,192,118570,1,8,0:0:0:0:
448,192,118570,1,8,0:0:0:0:
320,192,118674,1,8,0:0:0:0:
64,192,118777,1,8,0:0:0:0:
192,192,118777,1,8,0:0:0:0:
448,192,118881,1,8,0:0:0:0:
192,192,118984,1,8,0:0:0:0:
320,192,119087,1,8,0:0:0:0:
64,192,119087,1,8,0:0:0:0:
192,192,119191,1,8,0:0:0:0:
448,192,119191,1,8,0:0:0:0:
64,192,119294,1,8,0:0:0:0:
320,192,119398,1,8,0:0:0:0:
448,192,119398,1,8,0:0:0:0:
192,192,119501,1,8,0:0:0:0:
64,192,119605,1,8,0:0:0:0:
448,192,119605,1,8,0:0:0:0:
192,192,119708,1,8,0:0:0:0:
320,192,119812,1,8,0:0:0:0:
448,192,119812,1,8,0:0:0:0:
64,192,119812,1,8,0:0:0:0:
192,192,119915,1,8,0:0:0:0:
320,192,120018,1,8,0:0:0:0:
64,192,120018,1,8,0:0:0:0:
448,192,120122,1,8,0:0:0:0:
192,192,120225,1,8,0:0:0:0:
320,192,120225,1,8,0:0:0:0:
64,192,120329,1,8,0:0:0:0:
448,192,120432,1,8,0:0:0:0:
192,192,120432,1,8,0:0:0:0:
64,192,120536,1,8,0:0:0:0:
192,192,120639,1,8,0:0:0:0:
320,192,120639,1,8,0:0:0:0:
64,192,120743,1,8,0:0:0:0:
448,192,120743,1,8,0:0:0:0:
320,192,120846,1,8,0:0:0:0:
448,192,120949,1,8,0:0:0:0:
64,192,120949,1,8,0:0:0:0:
192,192,121053,1,8,0:0:0:0:
320,192,121156,1,8,0:0:0:0:
64,192,121260,1,8,0:0:0:0:
448,192,121260,1,8,0:0:0:0:
192,192,121363,1,8,0:0:0:0:
320,192,121467,1,8,0:0:0:0:
64,192,121467,1,8,0:0:0:0:
192,192,121570,1,8,0:0:0:0:
448,192,121674,1,8,0:0:0:0:
64,192,121674,1,8,0:0:0:0:
320,192,121777,1,8,0:0:0:0:
64,192,121881,1,8,0:0:0:0:
448,192,121881,1,8,0:0:0:0:
192,192,121984,1,8,0:0:0:0:
320,192,122087,1,8,0:0:0:0:
64,192,122191,1,8,0:0:0:0:
448,192,122191,1,8,0:0:0:0:
192,192,122294,1,8,0:0:0:0:
448,192,122398,1,8,0:0:0:0:
64,192,122398,1,8,0:0:0:0:
320,192,122501,1,8,0:0:0:0:
64,192,122605,1,8,0:0:0:0:
448,192,122605,1,8,0:0:0:0:
320,192,122708,1,8,0:0:0:0:
192,192,122812,1,8,0:0:0:0:
448,192,122915,1,8,0:0:0:0:
64,192,122915,1,8,0:0:0:0:
320,192,123018,1,8,0:0:0:0:
64,192,123122,1,8,0:0:0:0:
448,192,123122,1,8,0:0:0:0:
192,192,123225,1,8,0:0:0:0:
320,192,123329,1,8,0:0:0:0:
64,192,123329,1,8,0:0:0:0:
448,192,123432,1,8,0:0:0:0:
192,192,123432,1,8,0:0:0:0:
320,192,123536,1,8,0:0:0:0:
64,192,123639,1,8,0:0:0:0:
448,192,123639,1,8,0:0:0:0:
192,192,123743,1,8,0:0:0:0:
320,192,123846,1,8,0:0:0:0:
64,192,123846,1,8,0:0:0:0:
448,192,123949,1,8,0:0:0:0:
192,192,123949,1,8,0:0:0:0:
320,192,124053,1,8,0:0:0:0:
192,192,124156,1,8,0:0:0:0:
64,192,124260,1,8,0:0:0:0:
320,192,124260,1,8,0:0:0:0:
448,192,124363,1,8,0:0:0:0:
192,192,124467,1,8,0:0:0:0:
320,192,124570,1,8,0:0:0:0:
64,192,124674,1,8,0:0:0:0:
448,192,124674,1,8,0:0:0:0:
192,192,124777,1,8,0:0:0:0:
448,192,124881,1,8,0:0:0:0:
64,192,124881,1,8,0:0:0:0:
320,192,124984,1,8,0:0:0:0:
64,192,125087,1,8,0:0:0:0:
448,192,125087,1,8,0:0:0:0:
320,192,125191,1,8,0:0:0:0:
192,192,125294,1,8,0:0:0:0:
448,192,125398,1,8,0:0:0:0:
64,192,125398,1,8,0:0:0:0:
192,192,125501,1,8,0:0:0:0:
320,192,125605,128,8,125915:0:0:0:0:
192,192,125708,1,8,0:0:0:0:
64,192,125812,1,8,0:0:0:0:
192,192,125915,1,8,0:0:0:0:
64,192,126018,1,8,0:0:0:0:
192,192,126018,1,8,0:0:0:0:
320,192,126018,1,8,0:0:0:0:
448,192,126018,1,8,0:0:0:0:
192,192,126122,1,8,0:0:0:0:
320,192,126225,1,8,0:0:0:0:
64,192,126329,1,8,0:0:0:0:
320,192,126432,1,8,0:0:0:0:
192,192,126536,1,8,0:0:0:0:
448,192,126639,1,8,0:0:0:0:
320,192,126743,1,8,0:0:0:0:
192,192,126846,1,8,0:0:0:0:
320,192,126949,1,8,0:0:0:0:
64,192,127053,1,8,0:0:0:0:
192,192,127156,1,8,0:0:0:0:
448,192,127260,1,8,0:0:0:0:
192,192,127363,1,8,0:0:0:0:
320,192,127467,1,8,0:0:0:0:
64,192,127570,1,8,0:0:0:0:
192,192,127674,1,8,0:0:0:0:
448,192,127777,1,8,0:0:0:0:
320,192,127881,1,8,0:0:0:0:
64,192,127984,1,8,0:0:0:0:
320,192,128087,1,8,0:0:0:0:
192,192,128191,1,8,0:0:0:0:
448,192,128294,1,8,0:0:0:0:
320,192,128294,1,8,0:0:0:0:
64,192,128398,1,8,0:0:0:0:
192,192,128398,1,8,0:0:0:0:
320,192,128501,1,8,0:0:0:0:
448,192,128605,1,8,0:0:0:0:
192,192,128708,1,8,0:0:0:0:
64,192,128708,1,8,0:0:0:0:
320,192,128812,1,8,0:0:0:0:
448,192,128915,1,8,0:0:0:0:
64,192,129018,1,8,0:0:0:0:
320,192,129122,1,8,0:0:0:0:
192,192,129225,1,8,0:0:0:0:
320,192,129329,1,8,0:0:0:0:
448,192,129329,1,8,0:0:0:0:
192,192,129432,1,8,0:0:0:0:
320,192,129432,1,8,0:0:0:0:
64,192,129536,1,8,0:0:0:0:
192,192,129536,1,8,0:0:0:0:
320,192,129639,1,8,0:0:0:0:
448,192,129743,1,8,0:0:0:0:
64,192,129846,1,8,0:0:0:0:
192,192,129949,1,8,0:0:0:0:
448,192,130053,1,8,0:0:0:0:
320,192,130156,1,8,0:0:0:0:
64,192,130260,1,8,0:0:0:0:
192,192,130260,1,8,0:0:0:0:
320,192,130363,1,8,0:0:0:0:
192,192,130467,1,8,0:0:0:0:
448,192,130570,1,8,0:0:0:0:
64,192,130674,1,8,0:0:0:0:
320,192,130777,1,8,0:0:0:0:
192,192,130881,1,8,0:0:0:0:
320,192,130984,1,8,0:0:0:0:
64,192,131087,1,8,0:0:0:0:
192,192,131191,1,8,0:0:0:0:
448,192,131294,1,8,0:0:0:0:
320,192,131398,1,8,0:0:0:0:
64,192,131501,1,8,0:0:0:0:
192,192,131605,1,8,0:0:0:0:
320,192,131708,1,8,0:0:0:0:
448,192,131812,1,8,0:0:0:0:
64,192,131812,1,8,0:0:0:0:
192,192,131915,1,8,0:0:0:0:
320,192,131915,1,8,0:0:0:0:
448,192,132018,1,8,0:0:0:0:
320,192,132122,1,8,0:0:0:0:
64,192,132225,1,8,0:0:0:0:
320,192,132329,1,8,0:0:0:0:
192,192,132432,1,8,0:0:0:0:
448,192,132536,1,8,0:0:0:0:
64,192,132639,1,8,0:0:0:0:
320,192,132743,1,8,0:0:0:0:
192,192,132846,1,8,0:0:0:0:
448,192,132949,1,8,0:0:0:0:
64,192,133053,1,8,0:0:0:0:
320,192,133156,1,8,0:0:0:0:
192,192,133260,1,8,0:0:0:0:
320,192,133363,1,8,0:0:0:0:
448,192,133363,1,8,0:0:0:0:
64,192,133467,1,8,0:0:0:0:
320,192,133570,1,8,0:0:0:0:
192,192,133674,1,8,0:0:0:0:
448,192,133777,1,8,0:0:0:0:
320,192,133881,1,8,0:0:0:0:
64,192,133984,1,8,0:0:0:0:
192,192,134087,1,8,0:0:0:0:
64,192,134191,1,8,0:0:0:0:
320,192,134294,1,8,0:0:0:0:
448,192,134398,1,8,0:0:0:0:
64,192,134398,1,8,0:0:0:0:
320,192,134501,1,8,0:0:0:0:
192,192,134605,1,8,0:0:0:0:
320,192,134708,1,8,0:0:0:0:
64,192,134812,1,8,0:0:0:0:
320,192,134915,1,8,0:0:0:0:
192,192,135018,1,8,0:0:0:0:
448,192,135122,1,8,0:0:0:0:
320,192,135225,1,8,0:0:0:0:
64,192,135329,1,8,0:0:0:0:
320,192,135432,1,8,0:0:0:0:
192,192,135536,1,8,0:0:0:0:
320,192,135639,1,8,0:0:0:0:
448,192,135743,1,8,0:0:0:0:
64,192,135846,1,8,0:0:0:0:
192,192,135949,128,8,136053:0:0:0:0:
320,192,135949,128,8,136053:0:0:0:0:
64,192,136156,1,8,0:0:0:0:
448,192,136156,1,8,0:0:0:0:
64,192,136363,1,8,0:0:0:0:
448,192,136363,1,8,0:0:0:0:
64,192,136570,1,8,0:0:0:0:
448,192,136570,1,8,0:0:0:0:
192,192,136777,128,8,136881:0:0:0:0:
320,192,136777,128,8,136881:0:0:0:0:
64,192,136777,1,8,0:0:0:0:
448,192,136777,1,8,0:0:0:0:
64,192,136984,1,8,0:0:0:0:
448,192,136984,1,8,0:0:0:0:
64,192,137191,1,8,0:0:0:0:
448,192,137191,1,8,0:0:0:0:
64,192,137398,1,8,0:0:0:0:
448,192,137398,1,8,0:0:0:0:
192,192,137605,128,8,137708:0:0:0:0:
320,192,137605,128,8,137708:0:0:0:0:
64,192,137605,1,8,0:0:0:0:
448,192,137605,1,8,0:0:0:0:
64,192,137812,1,8,0:0:0:0:
448,192,137812,1,8,0:0:0:0:
192,192,138018,128,8,138122:0:0:0:0:
320,192,138018,128,8,138122:0:0:0:0:
448,192,138018,1,8,0:0:0:0:
64,192,138018,1,8,0:0:0:0:
64,192,138225,1,8,0:0:0:0:
448,192,138225,1,8,0:0:0:0:
192,192,138432,128,8,138536:0:0:0:0:
320,192,138432,128,8,138536:0:0:0:0:
448,192,138432,1,8,0:0:0:0:
64,192,138432,1,8,0:0:0:0:
64,192,138639,1,8,0:0:0:0:
192,192,138846,1,8,0:0:0:0:
64,192,139053,1,8,0:0:0:0:
320,192,139260,1,8,0:0:0:0:
448,192,139260,1,8,0:0:0:0:
64,192,139260,1,8,0:0:0:0:
192,192,139467,1,8,0:0:0:0:
64,192,139467,1,8,0:0:0:0:
448,192,139467,1,8,0:0:0:0:
320,192,139674,1,8,0:0:0:0:
448,192,139674,1,8,0:0:0:0:
64,192,139674,1,8,0:0:0:0:
64,192,139881,1,8,0:0:0:0:
192,192,139881,1,8,0:0:0:0:
448,192,139881,1,8,0:0:0:0:
320,192,140087,1,8,0:0:0:0:
448,192,140087,1,8,0:0:0:0:
64,192,140087,1,8,0:0:0:0:
64,192,140294,1,8,0:0:0:0:
192,192,140294,1,8,0:0:0:0:
448,192,140294,1,8,0:0:0:0:
320,192,140501,1,8,0:0:0:0:
448,192,140501,1,8,0:0:0:0:
64,192,140501,1,8,0:0:0:0:
192,192,140708,1,8,0:0:0:0:
320,192,140708,1,8,0:0:0:0:
448,192,140708,1,8,0:0:0:0:
64,192,140915,1,8,0:0:0:0:
192,192,140915,1,8,0:0:0:0:
448,192,140915,1,8,0:0:0:0:
320,192,141122,1,8,0:0:0:0:
448,192,141122,1,8,0:0:0:0:
64,192,141122,1,8,0:0:0:0:
64,192,141329,1,8,0:0:0:0:
192,192,141329,1,8,0:0:0:0:
448,192,141329,1,8,0:0:0:0:
320,192,141536,1,8,0:0:0:0:
448,192,141536,1,8,0:0:0:0:
64,192,141536,1,8,0:0:0:0:
64,192,141743,1,8,0:0:0:0:
192,192,141743,1,8,0:0:0:0:
448,192,141743,1,8,0:0:0:0:
320,192,141949,1,8,0:0:0:0:
448,192,141949,1,8,0:0:0:0:
64,192,141949,1,8,0:0:0:0:
64,192,142156,1,8,0:0:0:0:
192,192,142156,1,8,0:0:0:0:
448,192,142156,1,8,0:0:0:0:
320,192,142363,1,8,0:0:0:0:
448,192,142363,1,8,0:0:0:0:
64,192,142363,1,8,0:0:0:0:
192,192,142570,128,8,143398:0:0:0:0:
64,192,142570,1,8,0:0:0:0:
320,192,142570,1,8,0:0:0:0:
448,192,142570,1,8,0:0:0:0:
320,192,142777,1,8,0:0:0:0:
64,192,142777,1,8,0:0:0:0:
448,192,142881,1,8,0:0:0:0:
320,192,142984,1,8,0:0:0:0:
64,192,142984,1,8,0:0:0:0:
448,192,143087,1,8,0:0:0:0:
320,192,143191,1,8,0:0:0:0:
64,192,143191,1,8,0:0:0:0:
320,192,143398,128,8,144225:0:0:0:0:
64,192,143398,1,8,0:0:0:0:
448,192,143398,1,8,0:0:0:0:
192,192,143501,1,8,0:0:0:0:
64,192,143605,1,8,0:0:0:0:
448,192,143605,1,8,0:0:0:0:
192,192,143708,1,8,0:0:0:0:
64,192,143812,1,8,0:0:0:0:
448,192,143812,1,8,0:0:0:0:
192,192,143915,1,8,0:0:0:0:
64,192,144018,1,8,0:0:0:0:
448,192,144018,1,8,0:0:0:0:
448,192,144225,128,8,145053:0:0:0:0:
192,192,144225,1,8,0:0:0:0:
64,192,144225,1,8,0:0:0:0:
320,192,144329,1,8,0:0:0:0:
192,192,144432,1,8,0:0:0:0:
64,192,144432,1,8,0:0:0:0:
320,192,144536,1,8,0:0:0:0:
192,192,144639,1,8,0:0:0:0:
64,192,144639,1,8,0:0:0:0:
320,192,144743,1,8,0:0:0:0:
192,192,144846,1,8,0:0:0:0:
64,192,144846,1,8,0:0:0:0:
320,192,145053,128,8,145881:0:0:0:0:
64,192,145053,1,8,0:0:0:0:
192,192,145053,1,8,0:0:0:0:
192,192,145156,1,8,0:0:0:0:
64,192,145260,1,8,0:0:0:0:
448,192,145260,1,8,0:0:0:0:
192,192,145363,1,8,0:0:0:0:
64,192,145467,1,8,0:0:0:0:
448,192,145467,1,8,0:0:0:0:
192,192,145570,1,8,0:0:0:0:
64,192,145674,1,8,0:0:0:0:
448,192,145674,1,8,0:0:0:0:
192,192,145881,128,8,146708:0:0:0:0:
448,192,145881,1,8,0:0:0:0:
64,192,145881,1,8,0:0:0:0:
64,192,145984,1,8,0:0:0:0:
448,192,146087,1,8,0:0:0:0:
320,192,146087,1,8,0:0:0:0:
64,192,146191,1,8,0:0:0:0:
448,192,146294,1,8,0:0:0:0:
320,192,146294,1,8,0:0:0:0:
64,192,146398,1,8,0:0:0:0:
448,192,146501,1,8,0:0:0:0:
320,192,146501,1,8,0:0:0:0:
64,192,146708,128,8,147536:0:0:0:0:
320,192,146708,1,8,0:0:0:0:
448,192,146708,1,8,0:0:0:0:
192,192,146812,1,8,0:0:0:0:
320,192,146915,1,8,0:0:0:0:
448,192,146915,1,8,0:0:0:0:
192,192,147018,1,8,0:0:0:0:
320,192,147122,1,8,0:0:0:0:
448,192,147122,1,8,0:0:0:0:
192,192,147225,1,8,0:0:0:0:
320,192,147329,1,8,0:0:0:0:
448,192,147329,1,8,0:0:0:0:
192,192,147536,128,8,148363:0:0:0:0:
320,192,147536,1,8,0:0:0:0:
448,192,147536,1,8,0:0:0:0:
448,192,147639,1,8,0:0:0:0:
320,192,147743,1,8,0:0:0:0:
64,192,147743,1,8,0:0:0:0:
448,192,147846,1,8,0:0:0:0:
320,192,147949,1,8,0:0:0:0:
64,192,147949,1,8,0:0:0:0:
448,192,148053,1,8,0:0:0:0:
320,192,148156,1,8,0:0:0:0:
64,192,148156,1,8,0:0:0:0:
64,192,148363,128,8,149191:0:0:0:0:
448,192,148363,1,8,0:0:0:0:
320,192,148363,1,8,0:0:0:0:
320,192,148467,1,8,0:0:0:0:
448,192,148570,1,8,0:0:0:0:
192,192,148570,1,8,0:0:0:0:
320,192,148674,1,8,0:0:0:0:
448,192,148777,1,8,0:0:0:0:
192,192,148777,1,8,0:0:0:0:
320,192,148881,1,8,0:0:0:0:
448,192,148984,1,8,0:0:0:0:
192,192,148984,1,8,0:0:0:0:
192,192,149191,128,8,149605:0:0:0:0:
320,192,149191,1,8,0:0:0:0:
448,192,149191,1,8,0:0:0:0:
64,192,149294,1,8,0:0:0:0:
448,192,149398,1,8,0:0:0:0:
320,192,149398,1,8,0:0:0:0:
320,192,149605,128,8,150018:0:0:0:0:
64,192,149605,1,8,0:0:0:0:
448,192,149605,1,8,0:0:0:0:
192,192,149708,1,8,0:0:0:0:
64,192,149812,1,8,0:0:0:0:
448,192,149812,1,8,0:0:0:0:
448,192,150018,128,8,150846:0:0:0:0:
192,192,150018,1,8,0:0:0:0:
64,192,150018,1,8,0:0:0:0:
192,192,150225,1,8,0:0:0:0:
320,192,150225,1,8,0:0:0:0:
64,192,150329,1,8,0:0:0:0:
192,192,150432,1,8,0:0:0:0:
320,192,150432,1,8,0:0:0:0:
64,192,150536,1,8,0:0:0:0:
192,192,150639,1,8,0:0:0:0:
320,192,150639,1,8,0:0:0:0:
64,192,150743,1,8,0:0:0:0:
64,192,150846,128,8,151260:0:0:0:0:
192,192,150846,1,8,0:0:0:0:
320,192,150846,1,8,0:0:0:0:
448,192,150949,1,8,0:0:0:0:
192,192,151053,1,8,0:0:0:0:
320,192,151053,1,8,0:0:0:0:
320,192,151260,128,8,151674:0:0:0:0:
192,192,151260,1,8,0:0:0:0:
448,192,151260,1,8,0:0:0:0:
192,192,151467,1,8,0:0:0:0:
448,192,151467,1,8,0:0:0:0:
64,192,151674,128,8,152501:0:0:0:0:
192,192,151674,1,8,0:0:0:0:
448,192,151674,1,8,0:0:0:0:
320,192,151777,1,8,0:0:0:0:
192,192,151881,1,8,0:0:0:0:
448,192,151881,1,8,0:0:0:0:
320,192,151984,1,8,0:0:0:0:
192,192,152087,1,8,0:0:0:0:
448,192,152087,1,8,0:0:0:0:
320,192,152191,1,8,0:0:0:0:
192,192,152294,1,8,0:0:0:0:
448,192,152294,1,8,0:0:0:0:
320,192,152398,1,8,0:0:0:0:
192,192,152501,128,8,152915:0:0:0:0:
448,192,152501,1,8,0:0:0:0:
64,192,152605,1,8,0:0:0:0:
448,192,152708,1,8,0:0:0:0:
64,192,152915,128,8,153329:0:0:0:0:
320,192,152915,1,8,0:0:0:0:
448,192,152915,1,8,0:0:0:0:
192,192,153018,1,8,0:0:0:0:
320,192,153122,1,8,0:0:0:0:
448,192,153122,1,8,0:0:0:0:
192,192,153329,128,8,153743:0:0:0:0:
448,192,153329,1,8,0:0:0:0:
320,192,153329,1,8,0:0:0:0:
64,192,153432,1,8,0:0:0:0:
448,192,153536,1,8,0:0:0:0:
320,192,153536,1,8,0:0:0:0:
64,192,153743,128,8,154156:0:0:0:0:
320,192,153743,1,8,0:0:0:0:
448,192,153743,1,8,0:0:0:0:
192,192,153846,1,8,0:0:0:0:
320,192,153949,1,8,0:0:0:0:
448,192,153949,1,8,0:0:0:0:
192,192,154156,128,8,154570:0:0:0:0:
448,192,154156,1,8,0:0:0:0:
320,192,154156,1,8,0:0:0:0:
448,192,154363,1,8,0:0:0:0:
64,192,154363,1,8,0:0:0:0:
320,192,154570,128,8,154984:0:0:0:0:
448,192,154570,1,8,0:0:0:0:
64,192,154570,1,8,0:0:0:0:
448,192,154777,1,8,0:0:0:0:
192,192,154777,1,8,0:0:0:0:
64,192,154984,128,8,155087:0:0:0:0:
448,192,154984,128,8,155087:0:0:0:0:
192,192,154984,1,8,0:0:0:0:
192,192,155191,1,8,0:0:0:0:
320,192,155294,1,8,0:0:0:0:
64,192,155294,1,8,0:0:0:0:
192,192,155398,1,8,0:0:0:0:
64,192,155501,1,8,0:0:0:0:
320,192,155501,1,8,0:0:0:0:
192,192,155605,1,8,0:0:0:0:
64,192,155708,1,8,0:0:0:0:
320,192,155708,1,8,0:0:0:0:
320,192,155812,1,8,0:0:0:0:
448,192,155812,1,8,0:0:0:0:
192,192,155812,1,8,0:0:0:0:
192,192,156018,1,8,0:0:0:0:
64,192,156018,1,8,0:0:0:0:
448,192,156018,1,8,0:0:0:0:
320,192,156225,1,8,0:0:0:0:
448,192,156225,1,8,0:0:0:0:
64,192,156225,1,8,0:0:0:0:
64,192,156432,1,8,0:0:0:0:
192,192,156432,1,8,0:0:0:0:
320,192,156536,1,8,0:0:0:0:
448,192,156536,1,8,0:0:0:0:
64,192,156639,1,8,0:0:0:0:
192,192,156639,1,8,0:0:0:0:
320,192,156743,1,8,0:0:0:0:
448,192,156743,1,8,0:0:0:0:
64,192,156846,1,8,0:0:0:0:
192,192,156846,1,8,0:0:0:0:
320,192,156949,1,8,0:0:0:0:
448,192,156949,1,8,0:0:0:0:
64,192,157053,1,8,0:0:0:0:
192,192,157053,1,8,0:0:0:0:
320,192,157260,1,8,0:0:0:0:
448,192,157260,1,8,0:0:0:0:
192,192,157467,1,8,0:0:0:0:
320,192,157467,1,8,0:0:0:0:
448,192,157674,1,8,0:0:0:0:
192,192,157881,1,8,0:0:0:0:
320,192,157881,1,8,0:0:0:0:
448,192,158087,1,8,0:0:0:0:
64,192,158294,1,8,0:0:0:0:
192,192,158294,1,8,0:0:0:0:
448,192,158501,1,8,0:0:0:0:
64,192,158708,1,8,0:0:0:0:
192,192,158708,1,8,0:0:0:0:
448,192,158915,1,8,0:0:0:0:
192,192,159122,1,8,0:0:0:0:
320,192,159122,1,8,0:0:0:0:
448,192,159225,1,8,0:0:0:0:
192,192,159329,1,8,0:0:0:0:
320,192,159432,1,8,0:0:0:0:
64,192,159536,1,8,0:0:0:0:
320,192,159639,1,8,0:0:0:0:
448,192,159743,1,8,0:0:0:0:
192,192,159846,1,8,0:0:0:0:
320,192,159949,1,8,0:0:0:0:
448,192,160053,1,8,0:0:0:0:
64,192,160156,1,8,0:0:0:0:
192,192,160260,1,8,0:0:0:0:
320,192,160363,1,8,0:0:0:0:
192,192,160467,1,8,0:0:0:0:
320,192,160570,1,8,0:0:0:0:
448,192,160674,1,8,0:0:0:0:
64,192,160674,1,8,0:0:0:0:
192,192,160777,1,8,0:0:0:0:
320,192,160881,1,8,0:0:0:0:
192,192,160984,1,8,0:0:0:0:
448,192,161087,1,8,0:0:0:0:
320,192,161191,1,8,0:0:0:0:
64,192,161294,1,8,0:0:0:0:
192,192,161398,1,8,0:0:0:0:
448,192,161501,1,8,0:0:0:0:
320,192,161605,1,8,0:0:0:0:
64,192,161708,1,8,0:0:0:0:
192,192,161708,1,8,0:0:0:0:
320,192,161812,1,8,0:0:0:0:
448,192,161812,1,8,0:0:0:0:
192,192,161915,1,8,0:0:0:0:
320,192,162018,1,8,0:0:0:0:
64,192,162122,1,8,0:0:0:0:
320,192,162225,1,8,0:0:0:0:
192,192,162329,1,8,0:0:0:0:
448,192,162432,1,8,0:0:0:0:
64,192,162432,1,8,0:0:0:0:
320,192,162536,1,8,0:0:0:0:
192,192,162536,1,8,0:0:0:0:
64,192,162639,1,8,0:0:0:0:
448,192,162639,1,8,0:0:0:0:
192,192,162743,1,8,0:0:0:0:
448,192,162743,1,8,0:0:0:0:
320,192,162846,1,8,0:0:0:0:
192,192,162846,1,8,0:0:0:0:
64,192,162949,1,8,0:0:0:0:
448,192,162949,1,8,0:0:0:0:
320,192,163053,1,8,0:0:0:0:
192,192,163053,1,8,0:0:0:0:
192,192,163156,1,8,0:0:0:0:
448,192,163260,1,8,0:0:0:0:
64,192,163260,1,8,0:0:0:0:
320,192,163363,1,8,0:0:0:0:
192,192,163363,1,8,0:0:0:0:
64,192,163467,1,8,0:0:0:0:
448,192,163467,1,8,0:0:0:0:
320,192,163570,1,8,0:0:0:0:
192,192,163570,1,8,0:0:0:0:
448,192,163674,1,8,0:0:0:0:
64,192,163674,1,8,0:0:0:0:
192,192,163777,1,8,0:0:0:0:
320,192,163777,1,8,0:0:0:0:
64,192,163881,1,8,0:0:0:0:
320,192,163984,1,8,0:0:0:0:
192,192,163984,1,8,0:0:0:0:
448,192,164087,1,8,0:0:0:0:
64,192,164191,1,8,0:0:0:0:
192,192,164191,1,8,0:0:0:0:
320,192,164294,1,8,0:0:0:0:
448,192,164294,1,8,0:0:0:0:
64,192,164398,1,8,0:0:0:0:
192,192,164398,1,8,0:0:0:0:
320,192,164501,1,8,0:0:0:0:
64,192,164605,1,8,0:0:0:0:
448,192,164605,1,8,0:0:0:0:
192,192,164708,1,8,0:0:0:0:
320,192,164812,1,8,0:0:0:0:
64,192,164812,1,8,0:0:0:0:
448,192,164915,1,8,0:0:0:0:
192,192,164915,1,8,0:0:0:0:
192,192,165018,1,8,0:0:0:0:
320,192,165122,1,8,0:0:0:0:
64,192,165225,1,8,0:0:0:0:
448,192,165225,1,8,0:0:0:0:
320,192,165329,1,8,0:0:0:0:
64,192,165329,1,8,0:0:0:0:
192,192,165432,1,8,0:0:0:0:
448,192,165536,1,8,0:0:0:0:
320,192,165536,1,8,0:0:0:0:
64,192,165639,1,8,0:0:0:0:
320,192,165639,1,8,0:0:0:0:
192,192,165743,1,8,0:0:0:0:
448,192,165743,1,8,0:0:0:0:
320,192,165846,1,8,0:0:0:0:
64,192,165846,1,8,0:0:0:0:
192,192,165949,1,8,0:0:0:0:
448,192,166053,1,8,0:0:0:0:
320,192,166053,1,8,0:0:0:0:
64,192,166156,1,8,0:0:0:0:
192,192,166156,1,8,0:0:0:0:
320,192,166260,1,8,0:0:0:0:
448,192,166260,1,8,0:0:0:0:
192,192,166363,1,8,0:0:0:0:
64,192,166467,1,8,0:0:0:0:
448,192,166467,1,8,0:0:0:0:
320,192,166570,1,8,0:0:0:0:
192,192,166674,1,8,0:0:0:0:
448,192,166674,1,8,0:0:0:0:
64,192,166674,1,8,0:0:0:0:
448,192,166777,1,8,0:0:0:0:
192,192,166777,1,8,0:0:0:0:
320,192,166881,1,8,0:0:0:0:
64,192,166984,1,8,0:0:0:0:
448,192,166984,1,8,0:0:0:0:
320,192,167087,1,8,0:0:0:0:
192,192,167087,1,8,0:0:0:0:
192,192,167191,1,8,0:0:0:0:
448,192,167294,1,8,0:0:0:0:
64,192,167294,1,8,0:0:0:0:
320,192,167398,1,8,0:0:0:0:
64,192,167501,1,8,0:0:0:0:
192,192,167501,1,8,0:0:0:0:
320,192,167605,1,8,0:0:0:0:
448,192,167605,1,8,0:0:0:0:
64,192,167708,1,8,0:0:0:0:
192,192,167708,1,8,0:0:0:0:
320,192,167812,1,8,0:0:0:0:
64,192,167812,1,8,0:0:0:0:
448,192,167915,1,8,0:0:0:0:
64,192,167915,1,8,0:0:0:0:
192,192,168018,1,8,0:0:0:0:
320,192,168018,1,8,0:0:0:0:
448,192,168122,1,8,0:0:0:0:
64,192,168122,1,8,0:0:0:0:
192,192,168225,1,8,0:0:0:0:
448,192,168225,1,8,0:0:0:0:
320,192,168329,1,8,0:0:0:0:
64,192,168432,1,8,0:0:0:0:
448,192,168432,1,8,0:0:0:0:
192,192,168536,1,8,0:0:0:0:
320,192,168639,1,8,0:0:0:0:
448,192,168639,1,8,0:0:0:0:
64,192,168743,1,8,0:0:0:0:
192,192,168743,1,8,0:0:0:0:
320,192,168846,1,8,0:0:0:0:
448,192,168949,1,8,0:0:0:0:
192,192,169053,1,8,0:0:0:0:
448,192,169053,1,8,0:0:0:0:
320,192,169156,1,8,0:0:0:0:
192,192,169156,1,8,0:0:0:0:
64,192,169260,1,8,0:0:0:0:
320,192,169260,1,8,0:0:0:0:
448,192,169363,1,8,0:0:0:0:
64,192,169363,1,8,0:0:0:0:
192,192,169467,1,8,0:0:0:0:
320,192,169467,1,8,0:0:0:0:
64,192,169570,1,8,0:0:0:0:
448,192,169570,1,8,0:0:0:0:
192,192,169674,1,8,0:0:0:0:
320,192,169674,1,8,0:0:0:0:
448,192,169777,1,8,0:0:0:0:
64,192,169777,1,8,0:0:0:0:
320,192,169881,1,8,0:0:0:0:
64,192,169984,1,8,0:0:0:0:
448,192,169984,1,8,0:0:0:0:
192,192,170087,1,8,0:0:0:0:
448,192,170087,1,8,0:0:0:0:
320,192,170191,1,8,0:0:0:0:
64,192,170294,1,8,0:0:0:0:
192,192,170294,1,8,0:0:0:0:
448,192,170398,1,8,0:0:0:0:
192,192,170501,1,8,0:0:0:0:
64,192,170501,1,8,0:0:0:0:
320,192,170605,1,8,0:0:0:0:
64,192,170708,1,8,0:0:0:0:
448,192,170708,1,8,0:0:0:0:
192,192,170812,1,8,0:0:0:0:
448,192,170915,1,8,0:0:0:0:
320,192,171018,1,8,0:0:0:0:
64,192,171122,1,8,0:0:0:0:
192,192,171122,1,8,0:0:0:0:
320,192,171225,1,8,0:0:0:0:
448,192,171225,1,8,0:0:0:0:
64,192,171329,1,8,0:0:0:0:
192,192,171329,1,8,0:0:0:0:
320,192,171432,1,8,0:0:0:0:
64,192,171536,1,8,0:0:0:0:
320,192,171639,1,8,0:0:0:0:
448,192,171743,1,8,0:0:0:0:
64,192,171846,1,8,0:0:0:0:
192,192,171949,1,8,0:0:0:0:
320,192,172053,1,8,0:0:0:0:
64,192,172156,1,8,0:0:0:0:
192,192,172260,1,8,0:0:0:0:
448,192,172363,1,8,0:0:0:0:
320,192,172467,1,8,0:0:0:0:
64,192,172570,1,8,0:0:0:0:
192,192,172674,1,8,0:0:0:0:
448,192,172777,1,8,0:0:0:0:
320,192,172881,1,8,0:0:0:0:
64,192,172984,1,8,0:0:0:0:
192,192,172984,1,8,0:0:0:0:
320,192,173087,1,8,0:0:0:0:
192,192,173191,1,8,0:0:0:0:
448,192,173294,1,8,0:0:0:0:
64,192,173398,1,8,0:0:0:0:
320,192,173501,1,8,0:0:0:0:
192,192,173605,1,8,0:0:0:0:
448,192,173708,1,8,0:0:0:0:
320,192,173812,1,8,0:0:0:0:
64,192,173915,1,8,0:0:0:0:
192,192,173915,1,8,0:0:0:0:
320,192,174018,1,8,0:0:0:0:
448,192,174018,1,8,0:0:0:0:
64,192,174122,1,8,0:0:0:0:
192,192,174122,1,8,0:0:0:0:
320,192,174225,1,8,0:0:0:0:
448,192,174329,1,8,0:0:0:0:
192,192,174432,1,8,0:0:0:0:
320,192,174536,1,8,0:0:0:0:
448,192,174639,1,8,0:0:0:0:
64,192,174743,1,8,0:0:0:0:
192,192,174743,1,8,0:0:0:0:
320,192,174846,1,8,0:0:0:0:
448,192,174846,1,8,0:0:0:0:
64,192,174949,1,8,0:0:0:0:
192,192,174949,1,8,0:0:0:0:
320,192,175053,1,8,0:0:0:0:
192,192,175156,1,8,0:0:0:0:
320,192,175260,1,8,0:0:0:0:
64,192,175363,1,8,0:0:0:0:
192,192,175467,1,8,0:0:0:0:
448,192,175570,1,8,0:0:0:0:
320,192,175674,1,8,0:0:0:0:
64,192,175777,1,8,0:0:0:0:
192,192,175881,1,8,0:0:0:0:
320,192,175984,1,8,0:0:0:0:
64,192,176087,1,8,0:0:0:0:
448,192,176087,1,8,0:0:0:0:
192,192,176191,1,8,0:0:0:0:
448,192,176294,1,8,0:0:0:0:
64,192,176294,1,8,0:0:0:0:
320,192,176398,1,8,0:0:0:0:
64,192,176501,1,8,0:0:0:0:
448,192,176501,1,8,0:0:0:0:
192,192,176605,1,8,0:0:0:0:
320,192,176605,1,8,0:0:0:0:
448,192,176708,1,8,0:0:0:0:
64,192,176708,1,8,0:0:0:0:
192,192,176812,1,8,0:0:0:0:
448,192,176812,1,8,0:0:0:0:
320,192,176915,1,8,0:0:0:0:
64,192,177018,1,8,0:0:0:0:
448,192,177018,1,8,0:0:0:0:
192,192,177122,1,8,0:0:0:0:
448,192,177225,1,8,0:0:0:0:
64,192,177225,1,8,0:0:0:0:
320,192,177329,1,8,0:0:0:0:
192,192,177329,1,8,0:0:0:0:
64,192,177432,1,8,0:0:0:0:
448,192,177432,1,8,0:0:0:0:
320,192,177536,1,8,0:0:0:0:
448,192,177536,1,8,0:0:0:0:
192,192,177639,1,8,0:0:0:0:
320,192,177743,1,8,0:0:0:0:
64,192,177846,1,8,0:0:0:0:
192,192,177949,1,8,0:0:0:0:
448,192,178053,1,8,0:0:0:0:
64,192,178156,1,8,0:0:0:0:
320,192,178260,1,8,0:0:0:0:
192,192,178363,1,8,0:0:0:0:
448,192,178363,1,8,0:0:0:0:
320,192,178467,1,8,0:0:0:0:
64,192,178467,1,8,0:0:0:0:
192,192,178570,1,8,0:0:0:0:
64,192,178570,1,8,0:0:0:0:
448,192,178674,1,8,0:0:0:0:
192,192,178674,1,8,0:0:0:0:
320,192,178777,1,8,0:0:0:0:
64,192,178881,1,8,0:0:0:0:
192,192,178881,1,8,0:0:0:0:
448,192,178881,1,8,0:0:0:0:
320,192,178984,1,8,0:0:0:0:
64,192,179087,1,8,0:0:0:0:
448,192,179087,1,8,0:0:0:0:
192,192,179191,1,8,0:0:0:0:
320,192,179191,1,8,0:0:0:0:
448,192,179294,1,8,0:0:0:0:
64,192,179294,1,8,0:0:0:0:
192,192,179398,1,8,0:0:0:0:
448,192,179501,1,8,0:0:0:0:
320,192,179605,1,8,0:0:0:0:
64,192,179708,1,8,0:0:0:0:
320,192,179812,1,8,0:0:0:0:
192,192,179915,1,8,0:0:0:0:
448,192,180018,1,8,0:0:0:0:
192,192,180122,1,8,0:0:0:0:
320,192,180122,1,8,0:0:0:0:
64,192,180225,1,8,0:0:0:0:
448,192,180329,1,8,0:0:0:0:
192,192,180432,1,8,0:0:0:0:
320,192,180536,1,8,0:0:0:0:
64,192,180639,1,8,0:0:0:0:
192,192,180743,1,8,0:0:0:0:
320,192,180846,1,8,0:0:0:0:
192,192,180949,1,8,0:0:0:0:
448,192,181053,1,8,0:0:0:0:
320,192,181156,1,8,0:0:0:0:
64,192,181260,1,8,0:0:0:0:
192,192,181363,1,8,0:0:0:0:
320,192,181467,1,8,0:0:0:0:
192,192,181570,1,8,0:0:0:0:
448,192,181674,1,8,0:0:0:0:
320,192,181777,1,8,0:0:0:0:
448,192,181881,1,8,0:0:0:0:
64,192,181984,1,8,0:0:0:0:
320,192,181984,1,8,0:0:0:0:
192,192,182087,1,8,0:0:0:0:
64,192,182191,1,8,0:0:0:0:
320,192,182294,1,8,0:0:0:0:
448,192,182294,1,8,0:0:0:0:
64,192,182398,1,8,0:0:0:0:
192,192,182398,1,8,0:0:0:0:
320,192,182501,1,8,0:0:0:0:
448,192,182605,1,8,0:0:0:0:
192,192,182605,1,8,0:0:0:0:
64,192,182708,1,8,0:0:0:0:
320,192,182812,1,8,0:0:0:0:
192,192,182915,1,8,0:0:0:0:
448,192,183018,1,8,0:0:0:0:
192,192,183122,1,8,0:0:0:0:
320,192,183225,1,8,0:0:0:0:
448,192,183225,1,8,0:0:0:0:
192,192,183329,1,8,0:0:0:0:
64,192,183329,1,8,0:0:0:0:
320,192,183432,1,8,0:0:0:0:
192,192,183536,1,8,0:0:0:0:
448,192,183536,1,8,0:0:0:0:
320,192,183639,1,8,0:0:0:0:
64,192,183639,1,8,0:0:0:0:
64,192,183743,1,8,0:0:0:0:
192,192,183743,1,8,0:0:0:0:
448,192,183846,1,8,0:0:0:0:
320,192,183846,1,8,0:0:0:0:
192,192,183949,1,8,0:0:0:0:
320,192,184053,1,8,0:0:0:0:
448,192,184053,1,8,0:0:0:0:
64,192,184156,1,8,0:0:0:0:
320,192,184156,1,8,0:0:0:0:
192,192,184260,1,8,0:0:0:0:
448,192,184363,1,8,0:0:0:0:
64,192,184363,1,8,0:0:0:0:
192,192,184363,1,8,0:0:0:0:
320,192,184467,1,8,0:0:0:0:
192,192,184467,1,8,0:0:0:0:
64,192,184570,1,8,0:0:0:0:
448,192,184570,1,8,0:0:0:0:
192,192,184674,1,8,0:0:0:0:
320,192,184674,1,8,0:0:0:0:
448,192,184777,1,8,0:0:0:0:
64,192,184777,1,8,0:0:0:0:
320,192,184881,1,8,0:0:0:0:
192,192,184881,1,8,0:0:0:0:
64,192,184984,1,8,0:0:0:0:
448,192,184984,1,8,0:0:0:0:
192,192,185087,1,8,0:0:0:0:
448,192,185191,1,8,0:0:0:0:
64,192,185294,1,8,0:0:0:0:
320,192,185398,1,8,0:0:0:0:
192,192,185501,1,8,0:0:0:0:
448,192,185501,1,8,0:0:0:0:
320,192,185605,1,8,0:0:0:0:
64,192,185708,1,8,0:0:0:0:
192,192,185812,1,8,0:0:0:0:
448,192,185915,1,8,0:0:0:0:
64,192,185915,1,8,0:0:0:0:
320,192,186018,1,8,0:0:0:0:
192,192,186122,1,8,0:0:0:0:
64,192,186225,1,8,0:0:0:0:
320,192,186329,1,8,0:0:0:0:
192,192,186432,1,8,0:0:0:0:
448,192,186536,1,8,0:0:0:0:
320,192,186639,1,8,0:0:0:0:
64,192,186743,1,8,0:0:0:0:
192,192,186846,1,8,0:0:0:0:
448,192,186949,1,8,0:0:0:0:
320,192,187053,1,8,0:0:0:0:
64,192,187156,1,8,0:0:0:0:
192,192,187260,1,8,0:0:0:0:
448,192,187363,1,8,0:0:0:0:
320,192,187363,1,8,0:0:0:0:
64,192,187467,1,8,0:0:0:0:
192,192,187467,1,8,0:0:0:0:
320,192,187570,1,8,0:0:0:0:
448,192,187570,1,8,0:0:0:0:
64,192,187674,1,8,0:0:0:0:
192,192,187674,1,8,0:0:0:0:
320,192,187777,1,8,0:0:0:0:
448,192,187777,1,8,0:0:0:0:
64,192,187881,1,8,0:0:0:0:
192,192,187881,1,8,0:0:0:0:
320,192,187984,1,8,0:0:0:0:
448,192,187984,1,8,0:0:0:0:
64,192,188087,1,8,0:0:0:0:
192,192,188087,1,8,0:0:0:0:
320,192,188191,1,8,0:0:0:0:
448,192,188294,1,8,0:0:0:0:
320,192,188398,1,8,0:0:0:0:
64,192,188501,1,8,0:0:0:0:
320,192,188605,1,8,0:0:0:0:
448,192,188708,1,8,0:0:0:0:
192,192,188812,1,8,0:0:0:0:
320,192,188915,1,8,0:0:0:0:
448,192,189018,1,8,0:0:0:0:
64,192,189122,1,8,0:0:0:0:
320,192,189225,1,8,0:0:0:0:
192,192,189329,1,8,0:0:0:0:
448,192,189432,1,8,0:0:0:0:
64,192,189536,1,8,0:0:0:0:
320,192,189639,1,8,0:0:0:0:
448,192,189743,1,8,0:0:0:0:
192,192,189846,1,8,0:0:0:0:
64,192,189949,1,8,0:0:0:0:
448,192,190053,1,8,0:0:0:0:
320,192,190156,1,8,0:0:0:0:
64,192,190260,1,8,0:0:0:0:
320,192,190363,1,8,0:0:0:0:
192,192,190467,1,8,0:0:0:0:
448,192,190570,1,8,0:0:0:0:
192,192,190674,1,8,0:0:0:0:
320,192,190777,1,8,0:0:0:0:
64,192,190881,1,8,0:0:0:0:
192,192,190881,1,8,0:0:0:0:
320,192,190984,1,8,0:0:0:0:
448,192,191087,1,8,0:0:0:0:
192,192,191191,1,8,0:0:0:0:
320,192,191294,1,8,0:0:0:0:
64,192,191398,1,8,0:0:0:0:
320,192,191501,1,8,0:0:0:0:
448,192,191605,1,8,0:0:0:0:
192,192,191708,1,8,0:0:0:0:
320,192,191812,1,8,0:0:0:0:
64,192,191915,1,8,0:0:0:0:
192,192,192018,1,8,0:0:0:0:
320,192,192122,1,8,0:0:0:0:
192,192,192225,1,8,0:0:0:0:
448,192,192329,1,8,0:0:0:0:
320,192,192432,1,8,0:0:0:0:
64,192,192536,1,8,0:0:0:0:
192,192,192536,1,8,0:0:0:0:
320,192,192639,1,8,0:0:0:0:
448,192,192743,1,8,0:0:0:0:
64,192,192846,1,8,0:0:0:0:
320,192,192949,1,8,0:0:0:0:
192,192,193053,1,8,0:0:0:0:
448,192,193156,1,8,0:0:0:0:
320,192,193260,1,8,0:0:0:0:
64,192,193363,1,8,0:0:0:0:
192,192,193467,1,8,0:0:0:0:
448,192,193570,1,8,0:0:0:0:
192,192,193674,1,8,0:0:0:0:
320,192,193777,1,8,0:0:0:0:
64,192,193881,1,8,0:0:0:0:
192,192,193984,1,8,0:0:0:0:
448,192,194087,1,8,0:0:0:0:
320,192,194191,1,8,0:0:0:0:
64,192,194294,1,8,0:0:0:0:
320,192,194398,1,8,0:0:0:0:
192,192,194501,1,8,0:0:0:0:
448,192,194605,1,8,0:0:0:0:
320,192,194708,1,8,0:0:0:0:
64,192,194812,1,8,0:0:0:0:
192,192,194915,1,8,0:0:0:0:
448,192,195018,1,8,0:0:0:0:
192,192,195122,1,8,0:0:0:0:
320,192,195225,1,8,0:0:0:0:
448,192,195329,1,8,0:0:0:0:
320,192,195432,1,8,0:0:0:0:
64,192,195536,1,8,0:0:0:0:
192,192,195536,1,8,0:0:0:0:
320,192,195536,1,8,0:0:0:0:
448,192,195536,1,8,0:0:0:0:
320,192,195743,1,8,0:0:0:0:
64,192,195949,1,8,0:0:0:0:
192,192,195949,1,8,0:0:0:0:
448,192,195949,1,8,0:0:0:0:
320,192,196156,1,8,0:0:0:0:
320,192,196363,1,8,0:0:0:0:
448,192,196363,1,8,0:0:0:0:
192,192,196363,1,8,0:0:0:0:
64,192,196363,1,8,0:0:0:0:
192,192,196570,1,8,0:0:0:0:
320,192,196777,1,8,0:0:0:0:
448,192,196777,1,8,0:0:0:0:
64,192,196777,1,8,0:0:0:0:
192,192,196984,1,8,0:0:0:0:
192,192,197191,1,8,0:0:0:0:
320,192,197191,1,8,0:0:0:0:
448,192,197191,1,8,0:0:0:0:
192,192,197398,1,8,0:0:0:0:
192,192,197605,1,8,0:0:0:0:
320,192,197605,1,8,0:0:0:0:
448,192,197605,1,8,0:0:0:0:
64,192,197605,1,8,0:0:0:0:
192,192,197812,1,8,0:0:0:0:
64,192,198018,128,8,198846:0:0:0:0:
192,192,198018,128,8,198846:0:0:0:0:
320,192,198018,128,8,198846:0:0:0:0:
448,192,198018,128,8,198846:0:0:0:0:
