osu file format v8

[General]
AudioFilename: Every Time We Touch.mp3
AudioLeadIn: 0
PreviewTime: 88701
Countdown: 1
SampleSet: Normal
StackLeniency: 0.4
Mode: 0
LetterboxInBreaks: 1

[Editor]
Bookmarks: 72956
DistanceSpacing: 0.699999988079071
BeatDivisor: 2
GridSize: 16

[Metadata]
Title:Everytime We Touch (Feat. MC Oz)
Artist:Cash Cash
Creator:ztrot
Version:Easy
Source:
Tags:Jarby

[Difficulty]
HPDrainRate:2
CircleSize:3
OverallDifficulty:3
ApproachRate:3
SliderMultiplier:1.7
SliderTickRate:2

[Events]
//Background and Video events
0,0,"BG.png"
//Break Periods
2,54646,66623
2,81880,87048
2,139752,144920
//Storyboard Layer 0 (Background)
//Storyboard Layer 1 (Fail)
//Storyboard Layer 2 (Pass)
//Storyboard Layer 3 (Foreground)
//Storyboard Sound Samples
//Background Colour Transformations
3,100,163,162,255

[TimingPoints]
13595,425.531914893617,4,1,0,75,1,0
138275,-100,4,2,0,75,0,0
154658,-100,4,1,0,75,0,0

[Colours]
Combo1 : 248,73,169
Combo2 : 114,215,233
Combo3 : 118,121,239
Combo4 : 157,88,233

[HitObjects]
256,32,13594,6,0,B|48:32|48:256,2,340,4|2|0
256,144,15722,1,0
256,256,16148,1,8
256,32,16999,6,0,B|464:32|464:256,2,340,4|2|0
256,144,19126,1,0
256,256,19552,1,8
480,192,20403,6,0,B|480:384|224:368,2,340,4|2|0
400,96,22531,1,0
288,96,22956,1,8
32,192,23807,6,0,B|32:384|288:368,2,340,4|2|0
112,96,25935,1,0
224,96,26360,1,8
384,272,27212,5,4
384,272,28063,1,0
128,272,28914,5,4
128,272,29765,1,0
256,80,30616,5,4
256,80,31467,1,0
128,192,32318,6,2,B|96:336|224:368|256:288|256:288|288:368|416:336|385:183,1,510
256,192,34020,5,4
256,192,34446,1,8
256,80,34871,5,0
256,80,35297,1,8
144,80,35722,5,4
256,80,36148,1,8
368,80,36573,5,0
368,80,36999,1,8
256,192,37424,12,0,39126
256,64,40829,6,4,B|160:-16|48:32|32:160|128:224,1,340,4|2
224,176,42105,1,0
288,176,42318,1,8
256,64,42743,2,8,B|352:-16|464:32|480:160|384:224,1,340,8|0
288,176,44020,1,0
224,176,44233,1,4
256,288,44658,5,8
256,288,45084,1,0
160,352,45509,1,8
160,352,45935,2,2,B|0:256|0:48,1,340
112,128,47212,1,8
208,48,47637,6,4,B|336:-16|448:160|336:240,2,340,4|8|0
256,160,49765,1,8
160,224,50190,1,2
384,272,51041,5,4
256,80,51892,1,8
128,272,52743,1,4
256,192,53594,5,0
256,192,54020,1,0
256,192,54446,1,4
96,304,68063,6,0,B|256:192|416:304,1,340,4|0
448,240,69126,1,0
416,192,69339,1,8
416,192,69765,6,0,B|259:82|99:194,1,340,4|0
64,144,70829,1,0
96,80,71041,1,8
96,80,71467,6,0,B|256:-32|416:80,1,340,4|0
448,192,72743,1,8
416,304,73169,6,0,B|259:414|99:302,1,340,4|0
32,224,74446,1,8
160,192,74871,6,0,B|96:48|224:-16|256:-18|288:-16|432:48|352:192,1,510,4|8
256,96,76573,5,4
256,240,76999,1,0
256,368,77424,1,0
128,96,78275,5,4
128,240,78701,1,8
256,240,79126,5,0
256,96,79552,1,8
384,96,79977,5,0
384,240,80403,1,8
256,176,80829,5,0
256,176,81680,1,4
256,48,88488,5,0
256,48,88914,1,8
368,112,89339,6,0,B|400:192|336:272,1,170,0|8
256,160,90190,2,0,B|160:208|192:320,1,170,4|8
304,368,91041,2,0,B|400:384|464:304,1,170,0|8
336,224,91892,6,0,B|368:128|288:64|256:155|224:64|144:128|176:224,2,340,4|0|4
256,336,94020,1,8
256,336,94446,1,8
256,336,94871,1,8
256,336,95297,1,4
192,320,96999,5,4
320,320,97424,1,8
296,192,97850,2,0,B|296:16,1,170,0|8
224,24,98488,2,2,B|224:200,1,170
384,320,99552,5,0
256,320,99977,1,8
128,320,100403,1,4
32,208,100829,2,2,B|48:128|48:80|96:32|128:16|176:0|255:-24|336:0|384:16|416:32|464:80|464:128|480:208,1,680
352,192,102956,5,0
256,96,103382,1,8
160,192,103807,1,4
256,288,104233,1,8
352,192,104658,1,2
512,32,105297,6,0,B|-16:32,1,510,8|8
256,192,107212,12,0,108914
192,64,110616,5,4
320,64,111041,1,8
296,192,111467,2,0,B|296:368,1,170,0|8
224,360,112105,2,2,B|224:184,1,170
384,64,113169,5,0
256,64,113594,1,8
128,64,114020,1,4
32,176,114446,2,2,B|48:256|48:304|96:352|128:368|176:384|255:408|336:384|384:368|416:352|464:304|464:256|480:176,1,680
352,192,116573,5,0
256,288,116999,1,8
160,192,117424,1,4
256,96,117850,1,8
352,192,118275,1,2
512,352,118914,6,0,B|-16:352,1,510,8|8
256,192,120829,12,0,122531
48,96,124233,6,0,B|192:192,1,170,4|8
320,192,125084,2,2,B|464:96,3,170
336,48,126786,5,0
256,160,127212,1,8
176,48,127637,1,4
96,160,128063,5,0
176,272,128488,1,8
336,272,128914,1,0
416,160,129339,1,2
416,160,129765,1,2
48,288,131041,6,0,B|192:192,1,170,4|8
320,192,131892,2,2,B|464:288,3,170
336,336,133594,5,0
256,224,134020,1,8
176,336,134445,1,4
256,192,135297,12,4,139552
112,192,146360,5,4
208,192,147212,1,2
304,192,148063,1,0
400,192,148914,1,2
416,64,149765,6,0,B|255:-39|96:64,2,340,0|0|2
256,288,152318,5,0
256,288,152743,1,8
256,288,153169,1,4
320,320,154871,5,4
192,320,155296,1,8
216,192,155722,2,0,B|216:16,1,170,0|8
288,24,156360,2,2,B|288:200,1,170
128,320,157424,5,0
256,320,157849,1,8
384,320,158275,1,4
480,208,158701,2,2,B|464:128|464:80|416:32|384:16|336:0|257:-24|176:0|128:16|96:32|48:80|48:128|32:208,1,680
160,192,160828,5,0
256,96,161254,1,8
352,192,161679,1,4
256,288,162105,1,8
160,192,162530,1,2
0,32,163169,6,0,B|528:32,1,510,8|8
256,192,165084,12,0,168063
256,384,168488,5,4
256,384,168914,1,8
256,256,169339,5,0
256,256,169765,1,8
256,128,170190,5,4
256,128,170616,1,8
256,0,171041,5,0
256,0,171467,1,8
384,48,171892,6,0,B|448:112|416:208,1,170,4|8
304,144,172743,2,0,B|224:208|272:304,1,170,0|8
400,352,173595,5,4
400,352,174020,1,8
256,352,174446,5,0
256,352,174871,1,8
112,352,175297,6,4,B|32:288|32:192|96:112|208:112,2,340,4|0|4
256,192,178275,12,4,182105
48,288,182956,6,0,B|192:192,1,170,4|8
320,192,183807,2,2,B|464:288,3,170
336,336,185509,5,0
256,224,185935,1,8
176,336,186360,1,4
96,224,186786,5,8
176,112,187211,1,0
336,112,187637,1,8
416,224,188062,1,2
416,224,188488,1,2
464,96,188914,6,0,B|320:192,1,170,4|8
192,192,189765,2,2,B|48:96,3,170
176,48,191467,5,0
256,160,191893,1,8
336,48,192318,1,4
256,304,193169,1,0
256,304,194020,1,0
256,320,195722,6,4,B|160:400|48:352|32:224|128:160,1,340,4|2
224,208,196998,1,0
288,208,197211,1,8
256,320,197636,2,8,B|352:400|464:352|480:224|384:160,1,340,8|0
288,208,198913,1,0
224,208,199126,1,4
256,96,199551,5,8
256,96,199977,1,0
160,32,200402,1,8
160,32,200828,2,2,B|0:128|0:336,1,340
112,256,202105,1,8
208,336,202530,6,4,B|336:400|448:224|336:144,2,340,4|8|0
256,224,204658,5,8
160,160,205083,1,2
384,112,205934,5,4
256,304,206785,1,8
128,112,207636,1,4
256,192,207850,12,4,209339
