osu file format v9

[General]
AudioFilename: Cash Cash- Dynamite.mp3
AudioLeadIn: 2000
PreviewTime: 72752
Countdown: 1
SampleSet: Normal
StackLeniency: 0.7
Mode: 0
LetterboxInBreaks: 0

[Editor]
Bookmarks: 650,14721,29329,44205,57831,72796,87091,94239,102503,107687,115523,129754,144272,151420,158568
DistanceSpacing: 1
BeatDivisor: 4
GridSize: 8

[Metadata]
Title:Dynamite
Artist:Cash Cash
Creator:dkun
Version:Pow!
Source:
Tags:Larto Sakura_Hana Xgor Shinde iMuffin Charles445 Odaril Roddie Sushi Sander-Don Zelos arken

[Difficulty]
HPDrainRate:4
CircleSize:4
OverallDifficulty:4
ApproachRate:5
SliderMultiplier:1.6
SliderTickRate:1

[Events]
//Background and Video events
0,0,"bg.jpg"
//Break Periods
2,102728,106701
2,115489,117000
2,122654,124388
//Storyboard Layer 0 (Background)
Sprite,Background,Centre,"flash.jpg",320,240 F,0,72304,72528,1 F,0,72528,72752,1,0
Sprite,Background,Centre,"flash.jpg",320,240 F,0,43648,43927,1 F,0,43927,44095,1,0
Sprite,Background,Centre,"sbe\sadcreature.png",320,240 F,0,14991,15215,0,0.5 C,0,14991,43648,200,200,200 F,0,29263,29319,0.5,0 F,0,29319,29767,0,0.5 F,0,43210,43648,0,0.5 F,0,43648,44095,0.5,0 S,0,43648,44095,1,1.5
Sprite,Background,Centre,"sbe\sadcreature.png",320,240 C,0,14991,43648,225,225,225 F,0,57864,57976,0,1 F,0,71185,71577,0,1 F,0,71577,71633,1,0 F,0,71633,72024,0,1 F,0,72024,72080,1,0 F,0,72080,72248,0,1 F,0,72248,72752,1,0 S,0,72304,72752,1,2.024
Sprite,Background,Centre,"sbe\bgw.png",320,240 F,0,100961,102752,1 F,0,102752,106334,1 F,0,106334,108125,1,0 C,0,108124,,255,255,255 C,0,108125,,0,0,0 F,0,108125,109916,0,0.5 F,0,109916,129618,0.5 R,0,116264,,0
Sprite,Background,Centre,"sbe\sadcreature.png",320,240 L,108125,22 C,0,0,,225,225,225 F,0,0,895,0.5,0
//Storyboard Layer 1 (Fail)
//Storyboard Layer 2 (Pass)
//Storyboard Layer 3 (Foreground)
Sprite,Foreground,Centre,"sbe\sparkle.png",320,240 M,0,115299,,147,116 F,0,115299,115523,0,1 R,0,115299,118881,12.34944,3.604481 F,0,115523,116867,1 F,0,116867,117090,1,0 M,0,117090,,529,232 F,0,117090,117314,0,1 F,0,117314,118658,1 F,0,118658,118881,1,0
Sprite,Foreground,Centre,"sbe\sparkle.png",320,240 M,0,115299,,487,373 S,0,115299,,0.7952002 F,0,115299,115523,0.2012799,1 R,0,115299,117090,0,10.6496 F,0,115523,116867,1 F,0,116867,117090,1,0.2371201 M,0,117090,,238,100 F,0,117090,117314,0.2371201,1 R,0,117090,118881,10.6496,17.38752
Sprite,Foreground,Centre,"sbe\sparkle.png",320,240 M,0,115299,,415,183 S,0,115299,,0.70304 F,0,115299,115523,0,1 R,0,115299,118881,0,10.4448 F,0,115523,116867,1 F,0,116867,117090,1,0 M,0,117090,,203,322 F,0,117090,117314,0,1 F,0,117314,118658,1 F,0,118658,118881,1,0.09375992
Sprite,Foreground,Centre,"sbe\sparkle.png",320,240 M,0,122464,,119,307 F,0,122464,122687,0,1 R,0,122464,126046,8.744961,0 F,0,122687,124031,1 F,0,124031,124255,1,0 M,0,124255,,444,116 F,0,124255,124478,0,1 F,0,124478,125822,1 F,0,125822,126046,1,0
Sprite,Foreground,Centre,"sbe\sparkle.png",320,240 M,0,122464,,180,114 S,0,122464,,0.6620799 F,0,122464,122687,0,1 R,0,122464,126046,-18.28864,-6.8608 F,0,122687,124031,1 F,0,124031,124255,1,0 M,0,124255,,484,381 F,0,124255,124478,0,1 F,0,124478,125822,1 F,0,125822,126046,1,0
Sprite,Foreground,Centre,"sbe\sparkle.png",320,240 M,0,122464,,536,305 F,0,122464,122687,0,1 R,0,122464,126046,3.42016,-9.564159 F,0,122687,124031,1 F,0,124031,124255,1,0 M,0,124255,,242,144 F,0,124255,124478,0,1 F,0,124478,125822,1 F,0,125822,126046,1,0
Sprite,Foreground,Centre,"sbe\bgw.png",320,240 F,0,128284,128620,1,0 F,0,128732,129068,1,0 F,0,129180,129628,1
Sprite,Foreground,Centre,"flash.jpg",320,240 F,0,129516,129628,0,1 S,0,129516,129628,1.3072,1 F,0,129628,129740,1 F,0,129740,130075,1,0
Sprite,Foreground,BottomLeft,"sbe\Larto.png",0,480 F,0,673,873,0,1 MY,1,673,873,550,480 F,0,14553,14753,1,0 MY,2,14553,14753,480,550 F,0,57976,58176,0,1 MY,1,57976,58176,550,480 F,0,72304,72504,1,0 MY,2,72304,72504,480,550 F,0,94255,94455,0,1 MY,1,94255,94455,550,480 F,0,100971,101171,1,0 MY,2,100971,101171,480,550 F,0,129618,129818,0,1 MY,1,129618,129818,550,480 F,0,143946,144146,1,0 MY,2,143946,144146,480,550
Sprite,Foreground,BottomLeft,"sbe\Xgor.png",0,480 F,0,15001,15201,0,1 MY,1,15001,15201,550,480 F,0,28881,29081,1,0 MY,2,28881,29081,480,550 F,0,86643,86843,0,1 MY,1,86643,86843,550,480 F,0,93807,94007,1,0 MY,2,93807,94007,480,550 F,0,107687,107887,0,1 MY,1,107687,107887,550,480 F,0,129170,129370,1,0 MY,2,129170,129370,480,550
Sprite,Foreground,BottomLeft,"sbe\sakura.png",0,480 F,0,29329,29529,0,1 MY,1,29329,29529,550,480 F,0,43658,43858,1,0 MY,2,43658,43858,480,550 F,0,72762,72962,0,1 MY,1,72762,72962,550,480 F,0,86195,86395,1,0 MY,2,86195,86395,480,550 F,0,151558,151758,0,1 MY,1,151558,151758,550,480 F,0,158274,158474,1,0 MY,2,158274,158474,480,550
Sprite,Foreground,BottomLeft,"sbe\shinde.png",0,480 F,0,44105,44305,0,1 MY,1,44105,44305,550,480 F,0,57528,57728,1,0 MY,2,57528,57728,480,550 F,0,144394,144594,0,1 MY,1,144394,144594,550,480 F,0,151110,151310,1,0 MY,2,151110,151310,480,550
Sprite,Foreground,BottomLeft,"sbe\Larto.png",0,480 F,0,673,973,0,1 MY,1,673,973,550,480 F,0,14553,14853,1,0 MY,2,14553,14853,480,550 F,0,57976,58276,0,1 MY,1,57976,58276,550,480 F,0,72304,72604,1,0 MY,2,72304,72604,480,550 F,0,94255,94555,0,1 MY,1,94255,94555,550,480 F,0,100971,101271,1,0 MY,2,100971,101271,480,550 F,0,129618,129918,0,1 MY,1,129618,129918,550,480 F,0,143946,144246,1,0 MY,2,143946,144246,480,550
Sprite,Foreground,BottomLeft,"sbe\Xgor.png",0,480 F,0,15001,15301,0,1 MY,1,15001,15301,550,480 F,0,28881,29181,1,0 MY,2,28881,29181,480,550 F,0,86643,86943,0,1 MY,1,86643,86943,550,480 F,0,93807,94107,1,0 MY,2,93807,94107,480,550 F,0,107687,107987,0,1 MY,1,107687,107987,550,480 F,0,129170,129470,1,0 MY,2,129170,129470,480,550
Sprite,Foreground,BottomLeft,"sbe\sakura.png",0,480 F,0,29329,29629,0,1 MY,1,29329,29629,550,480 F,0,43658,43958,1,0 MY,2,43658,43958,480,550 F,0,72762,73062,0,1 MY,1,72762,73062,550,480 F,0,86195,86495,1,0 MY,2,86195,86495,480,550 F,0,151558,151858,0,1 MY,1,151558,151858,550,480 F,0,158274,158574,1,0 MY,2,158274,158574,480,550
Sprite,Foreground,BottomLeft,"sbe\shinde.png",0,480 F,0,44105,44405,0,1 MY,1,44105,44405,550,480 F,0,57528,57828,1,0 MY,2,57528,57828,480,550 F,0,144394,144694,0,1 MY,1,144394,144694,550,480 F,0,151110,151410,1,0 MY,2,151110,151410,480,550
//Storyboard Sound Samples
//Background Colour Transformations
3,100,163,162,255

[TimingPoints]
663,447.761194029851,4,1,0,80,1,0
14991,-100,4,2,0,60,0,0
15215,-100,4,2,0,100,0,0
18573,-100,4,2,0,60,0,0
18797,-100,4,2,0,100,0,0
21707,-80,4,2,0,100,0,0
22155,-100,4,2,0,60,0,0
22379,-100,4,2,0,100,0,0
25737,-100,4,2,0,60,0,0
25961,-100,4,2,0,100,0,0
44095,-100,4,1,0,100,0,1
45103,-100,4,1,0,70,0,1
45439,-100,4,1,0,100,0,1
45998,-100,4,1,0,70,0,1
46334,-100,4,1,0,100,0,1
52267,-100,4,1,0,70,0,1
52491,-100,4,1,0,100,0,1
53163,-100,4,1,0,70,0,1
53386,-100,4,1,0,100,0,1
56185,-100,4,1,0,70,0,1
57080,-100,4,1,0,100,0,1
57976,-100,4,1,0,80,0,0
57976,-100,4,1,0,100,0,0
72752,-100,4,1,0,100,0,1
94245,-100,4,1,0,80,0,1
100961,-100,4,1,0,100,0,0
108573,-100,4,2,0,100,0,0
109021,-100,4,1,0,100,0,0
109468,-100,4,2,0,100,0,0
109916,-100,4,1,0,100,0,0
110140,-100,4,2,0,100,0,0
110812,-100,4,1,0,100,0,0
111260,-100,4,2,0,100,0,0
111707,-100,4,1,0,100,0,0
112155,-100,4,2,0,100,0,0
112603,-100,4,1,0,100,0,0
113051,-100,4,2,0,100,0,0
113498,-100,4,1,0,100,0,0
113946,-100,4,2,0,100,0,0
114394,-100,4,1,0,100,0,0
118424,-100,4,2,0,100,0,0
118871,-100,4,1,0,100,0,0
119319,-100,4,2,0,100,0,0
122454,-100,4,1,0,100,0,0
125588,-100,4,2,0,100,0,0
126036,-100,4,1,0,100,0,0
126483,-100,4,1,0,70,0,0
128051,-100,4,1,0,100,0,0
128274,-100,4,1,0,70,0,0
128722,-100,4,1,0,100,0,0
128946,-100,4,1,0,70,0,0
129170,-100,4,1,0,100,0,0
129394,-100,4,2,0,100,0,0
129618,-100,4,1,0,100,0,1
130065,-100,4,1,0,80,0,1
146185,-100,4,1,0,70,0,1
146633,-100,4,1,0,100,0,1
148871,-100,4,1,0,80,0,1
150215,-100,4,1,0,100,0,1
150327,-100,4,1,0,50,0,1
150551,-100,4,1,0,100,0,1
150774,-100,4,1,0,50,0,1
150998,-100,4,1,0,100,0,1
158274,-100,4,1,0,100,0,0

[Colours]
Combo1 : 128,128,192
Combo2 : 255,128,64
Combo3 : 255,128,255

[HitObjects]
160,136,663,6,0,B|112:148|96:192|112:236|160:248,2,160,2|2|2
256,192,2006,1,8
336,192,2230,2,2,B|416:192|464:104,1,160
256,56,3125,2,2,B|176:56|128:144,1,160
48,272,4245,6,4,B|224:272,1,160,4|8
256,328,4916,1,2
304,272,5140,2,4,B|464:272,1,160,2|8
488,200,5812,2,2,B|474:106|394:45|313:45|233:45|152:106|139:200,1,480
208,216,7379,1,8
192,352,7827,6,0,B|208:312|256:296|304:312|320:352,2,160,2|2|2
64,296,9170,1,8
72,224,9394,2,2,B|128:208|184:136|160:80,1,160
312,120,10289,2,2,B|256:136|200:208|224:264,1,160,2|0
256,296,10961,5,8
400,312,11409,2,2,B|480:280|464:176|344:136|504:24,1,320,2|0
512,112,12528,1,2
368,136,12976,2,4,B|288:192|192:184|112:136|104:48,1,320,4|0
184,64,14095,2,0,B|88:192,1,160,0|8
176,328,14991,5,2
256,328,15215,2,0,B|352:328|400:272,1,160,2|0
408,112,16110,1,2
256,56,16558,1,0
104,112,17006,1,2
136,272,17454,2,0,B|256:304|376:272,1,240,0|8
440,232,18349,1,0
392,168,18573,5,2
328,112,18797,2,0,B|256:48|184:112,1,160,2|0
48,192,19692,1,2
184,280,20140,2,0,B|256:216|328:280,1,160,0|2
268,328,20812,2,0,B|224:228|340:200,1,160,0|0
464,344,21707,6,0,B|432:248,1,99.9999985098839,4|0
408,176,22155,1,2
384,96,22379,2,0,B|352:8|256:32,1,160,2|0
104,64,23274,1,2
152,216,23722,1,0
304,176,24170,1,2
456,128,24618,2,0,B|472:280|328:304,1,240,0|8
256,312,25513,1,0
176,304,25737,5,2
112,256,25961,2,0,B|64:176|112:104,1,160,2|0
256,40,26857,1,2
400,104,27304,2,0,B|448:184|400:256,1,160,0|2
352,184,27976,2,0,B|512:184,2,160,0|0|4
256,64,29319,5,2
256,136,29543,1,0
256,280,29991,1,2
376,200,30439,2,0,B|288:200,1,80,0|2
224,200,30886,2,0,B|160:224|154:293|186:334,3,160,0|0|2|0
184,331,32454,1,4
328,328,32901,6,0,B|392:272|440:192|400:96|336:56,1,320
256,80,34021,1,2
176,55,34245,2,0,B|112:96|72:192|120:272|184:328,1,320
256,248,35588,1,2
256,136,36036,1,4
296,72,36260,6,0,B|333:88|334:144,1,80,0|2
336,208,36707,1,0
256,88,37155,1,2
176,208,37603,1,0
304,144,38051,2,0,B|256:192|168:144|184:80,1,160,2|0
176,240,38946,1,2
320,264,39394,1,4
176,280,39842,5,0
256,288,40065,1,2
256,288,40289,2,0,B|256:128,3,160,0|2|0|2
256,128,42080,1,2
256,160,42528,1,8
256,192,42976,5,0
256,216,43200,1,0
256,240,43424,1,0
256,264,43648,1,4
432,328,44095,5,0
488,264,44319,1,0
400,248,44543,1,0
344,316,44767,2,0,B|299:279|306:205|347:177,1,160,0|2
168,68,45663,2,0,B|213:105|206:179|165:207,1,160,0|2
107,137,46558,5,0
107,137,46782,1,0
107,137,47006,1,0
107,137,47230,2,0,B|37:183|37:183|86:241,1,160,4|0
150,301,47901,2,0,B|220:255|220:255|171:197,1,160,4|0
256,192,48797,12,0,50364
256,80,51260,5,0
172,53,51483,1,0
124,127,51707,1,0
207,156,51931,1,0
364,77,52379,2,0,B|446:116|440:211,2,160,2|0|2
272,272,53722,6,0,B|200:312,1,80
120,272,54170,2,0,B|189:233,1,80,0|4
96,80,54842,1,0
16,48,55065,2,0,B|-5:108|35:166|92:166,1,160,4|0
96,80,55737,1,0
172,124,55961,1,4
240,288,56409,6,2,B|192:352|96:352,1,160
117,176,57304,1,0
117,176,57528,1,0
120,176,57752,1,0
40,208,57976,6,2,B|32:120|128:56|200:72,1,240
256,208,59095,1,0
400,240,59543,2,2,B|392:304|344:344|272:336,1,160
112,240,60439,2,2,B|120:304|168:344|240:336,1,160
220,136,61558,6,4,B|156:152|88:128|72:52|96:-8,1,240,4|2
228,44,62677,1,0
364,44,63125,1,2
440,168,63573,1,0
484,224,63797,2,2,B|472:280|392:320|276:272|304:156|360:120,1,320,2|8
220,120,65140,6,2,B|148:184|16:164|-4:120,1,240
136,88,66260,1,0
120,232,66707,1,2
256,292,67155,1,0
392,232,67603,1,2
376,88,68051,5,0
332,148,68274,1,8
164,212,68722,2,2,B|184:260|256:324|328:260|348:212,1,240
328,48,69842,1,0
184,48,70289,1,2
184,192,70737,5,0
256,192,70961,1,0
328,192,71185,1,6
376,328,71633,1,2
256,264,72080,1,2
256,264,72304,1,4
336,72,72752,6,0,B|440:80|416:192,1,160,0|0
418,181,73424,1,8
280,232,73871,2,0,B|304:328|424:328,1,160,0|8
418,181,74767,1,0
418,181,75215,2,0,B|376:88|280:112,1,160,8|0
290,109,75886,1,0
152,160,76334,5,8
296,160,76782,1,0
184,248,77230,1,8
224,112,77677,1,0
264,248,78125,1,8
456,152,78797,6,0,B|416:152|360:112|360:104|376:104|376:112|320:160|240:184,1,240,0|4
328,296,79916,1,0
256,296,80140,1,8
184,296,80364,1,0
112,296,80588,2,0,B|110:240|164:201|224:212|239:257,2,160,0|8|0
184,296,81707,5,0
256,320,81931,1,8
328,296,82155,1,0
256,320,82379,2,0,B|256:224,1,80
256,168,82827,1,8
256,96,83051,1,0
304,232,83498,5,0
184,152,83946,1,0
328,152,84394,1,0
208,232,84842,1,0
256,96,85289,1,0
48,152,85961,6,0,B|88:152|144:112|144:104|128:104|128:112|184:160|264:184,1,240,0|4
408,232,87080,5,8
432,312,87304,1,0
344,296,87528,2,0,B|288:312|232:272|176:296,1,160,2|8
112,320,88200,1,0
24,192,88648,2,0,B|56:88|208:32|288:88,1,320,8|0
344,144,89767,5,8
400,208,89991,1,0
320,224,90215,2,0,B|216:296|80:256,2,240,0|8|8
312,144,91782,1,0
456,216,92230,1,0
344,312,92677,1,0
288,256,92901,2,0,B|232:200,1,80,2|0
304,176,93349,2,0,B|248:120,1,80,8|0
192,64,93797,5,4
84,164,94245,1,2
136,116,94468,1,0
200,148,94692,2,2,B|252:164|324:132|304:56|392:48|428:68,1,240,2|6
336,192,95812,1,0
176,192,96260,2,2,B|188:268|256:292|324:268|336:192,1,240,2|8
264,68,97379,6,0,B|192:120|136:96|96:76,1,160,6|0
40,52,98051,2,2,B|60:136|16:204|-16:220,1,160
68,332,98946,2,2,B|144:352|232:280|164:232|244:144|328:168,1,320
288,244,100065,1,4
256,64,100961,1,4
256,192,101073,12,0,102528
120,128,107901,5,0
120,128,108125,1,0
44,268,108573,2,0,B|120:324|196:268,1,160,8|0
256,128,109468,1,8
280,48,109692,2,0,B|312:56|336:88|332:112,1,80
316,180,110140,2,0,B|264:232|192:200|184:152,1,160,0|8
196,76,110812,1,0
356,76,111260,5,8
384,152,111483,1,0
408,232,111707,2,0,B|360:304|280:320,1,160,0|8
120,320,112603,2,0,B|168:248|248:232,1,160,0|8
304,288,113274,1,0
232,320,113498,2,0,B|120:208,1,160,0|8
96,48,114394,2,0,B|424:48,1,320,0|4
32,192,118200,5,0
32,192,118424,1,8
152,88,118871,2,0,B|208:144|216:232,1,160,0|8
296,232,119543,2,0,B|296:104|448:32,1,240,0|8
464,112,120439,2,0,B|376:152|376:240,1,160
456,216,121110,2,8,B|336:88|168:88,1,320
16,88,122454,1,4
80,88,125588,5,8
8,232,126036,2,0,B|80:280|160:232,1,160,0|8
224,184,126707,2,0,B|336:128|456:184,1,240,0|8
408,248,127603,1,0
504,120,128050,1,0
432,96,128274,1,0
352,232,128722,2,0,B|296:176,1,80
256,232,129170,2,0,B|200:176,1,80
160,232,129618,1,4
68,100,130065,5,8
200,64,130513,2,2,B|268:112|268:192|212:260|140:252,1,240,2|6
144,108,131633,1,0
276,160,132080,2,2,B|368:164|416:104|436:56|432:4,1,240,2|8
288,24,133200,5,6
152,76,133648,1,8
152,76,133871,1,2
52,180,134319,1,0
32,324,134767,2,2,B|144:368|260:352|336:272,1,320,2|0
372,332,135886,2,2,B|308:280|308:216|352:120|416:120,1,240,2|0
448,96,136782,5,4
292,92,137230,1,8
152,60,137677,2,2,B|60:84|36:164|56:220|96:248,1,240,2|6
188,372,138797,1,0
256,244,139245,1,2
324,372,139692,5,8
256,340,139916,1,8
136,260,140364,2,0,B|60:208|88:128|128:112,1,160,4|0
164,72,141036,2,2,B|200:128|268:124|304:76,1,160
444,100,141931,2,2,B|484:188|440:340|268:328,1,320,2|0
212,328,143051,1,0
256,264,143274,1,8
300,328,143498,1,8
256,192,143946,5,4
152,64,144394,5,0
98,123,144618,1,0
75,46,144842,1,0
152,64,145065,1,0
305,20,145513,2,0,B|313:76|233:100|241:164,2,160,4|0|2
472,96,146857,5,0
425,160,147080,1,0
415,239,147304,1,0
433,316,147528,1,4
279,360,147976,2,0,B|299:283,1,80,0|4
264,128,148648,1,0
110,85,149095,2,2,B|72:172|135:252|206:208|278:165|340:245|309:340,1,400
232,360,150439,5,0
205,284,150663,1,0
242,213,150886,1,0
319,194,151110,1,4
432,88,151558,5,8
392,144,151782,1,0
328,176,152006,1,0
256,192,152230,1,4
112,208,152677,6,0,B|144:168|200:152|248:176|264:208,1,160,0|8
394,206,153573,2,0,B|388:223|340:247|284:231|252:191,1,160,0|8
320,168,154245,2,0,B|299:119|247:102|192:137|192:168,1,160,0|4
64,232,155140,2,0,B|64:288|96:336|168:336,2,160
256,192,156483,12,0,158274
