osu file format v9

[General]
AudioFilename: Cash Cash- Dynamite.mp3
AudioLeadIn: 2000
PreviewTime: 72752
Countdown: 1
SampleSet: Normal
StackLeniency: 0.7
Mode: 0
LetterboxInBreaks: 0

[Editor]
Bookmarks: 650,14721,29329,44205,57831,72796,87091,94239,102503,107687,115523,129754,144272,151420,158568
DistanceSpacing: 1
BeatDivisor: 4
GridSize: 8

[Metadata]
Title:Dynamite
Artist:Cash Cash
Creator:dkun
Version:Pop!
Source:
Tags:Larto Sakura_Hana Xgor Shinde iMuffin Charles445 Odaril Roddie Sushi Sander-Don Zelos arken

[Difficulty]
HPDrainRate:3
CircleSize:4
OverallDifficulty:3
ApproachRate:4
SliderMultiplier:1.2
SliderTickRate:1

[Events]
//Background and Video events
0,0,"bg.jpg"
//Break Periods
2,103848,106805
2,115489,117104
//Storyboard Layer 0 (Background)
Sprite,Background,Centre,"flash.jpg",320,240 F,0,72304,72528,1 F,0,72528,72752,1,0
Sprite,Background,Centre,"flash.jpg",320,240 F,0,43648,43927,1 F,0,43927,44095,1,0
Sprite,Background,Centre,"sbe\sadcreature.png",320,240 F,0,14991,15215,0,0.5 C,0,14991,43648,200,200,200 F,0,29263,29319,0.5,0 F,0,29319,29767,0,0.5 F,0,43210,43648,0,0.5 F,0,43648,44095,0.5,0 S,0,43648,44095,1,1.5
Sprite,Background,Centre,"sbe\sadcreature.png",320,240 C,0,14991,43648,225,225,225 F,0,57864,57976,0,1 F,0,71185,71577,0,1 F,0,71577,71633,1,0 F,0,71633,72024,0,1 F,0,72024,72080,1,0 F,0,72080,72248,0,1 F,0,72248,72752,1,0 S,0,72304,72752,1,2.024
Sprite,Background,Centre,"sbe\bgw.png",320,240 F,0,100961,102752,1 F,0,102752,106334,1 F,0,106334,108125,1,0 C,0,108124,,255,255,255 C,0,108125,,0,0,0 F,0,108125,109916,0,0.5 F,0,109916,129618,0.5 R,0,116264,,0
Sprite,Background,Centre,"sbe\sadcreature.png",320,240 L,108125,22 C,0,0,,225,225,225 F,0,0,895,0.5,0
//Storyboard Layer 1 (Fail)
//Storyboard Layer 2 (Pass)
//Storyboard Layer 3 (Foreground)
Sprite,Foreground,Centre,"sbe\sparkle.png",320,240 M,0,115299,,147,116 F,0,115299,115523,0,1 R,0,115299,118881,12.34944,3.604481 F,0,115523,116867,1 F,0,116867,117090,1,0 M,0,117090,,529,232 F,0,117090,117314,0,1 F,0,117314,118658,1 F,0,118658,118881,1,0
Sprite,Foreground,Centre,"sbe\sparkle.png",320,240 M,0,115299,,487,373 S,0,115299,,0.7952002 F,0,115299,115523,0.2012799,1 R,0,115299,117090,0,10.6496 F,0,115523,116867,1 F,0,116867,117090,1,0.2371201 M,0,117090,,238,100 F,0,117090,117314,0.2371201,1 R,0,117090,118881,10.6496,17.38752
Sprite,Foreground,Centre,"sbe\sparkle.png",320,240 M,0,115299,,415,183 S,0,115299,,0.70304 F,0,115299,115523,0,1 R,0,115299,118881,0,10.4448 F,0,115523,116867,1 F,0,116867,117090,1,0 M,0,117090,,203,322 F,0,117090,117314,0,1 F,0,117314,118658,1 F,0,118658,118881,1,0.09375992
Sprite,Foreground,Centre,"sbe\sparkle.png",320,240 M,0,122464,,119,307 F,0,122464,122687,0,1 R,0,122464,126046,8.744961,0 F,0,122687,124031,1 F,0,124031,124255,1,0 M,0,124255,,444,116 F,0,124255,124478,0,1 F,0,124478,125822,1 F,0,125822,126046,1,0
Sprite,Foreground,Centre,"sbe\sparkle.png",320,240 M,0,122464,,180,114 S,0,122464,,0.6620799 F,0,122464,122687,0,1 R,0,122464,126046,-18.28864,-6.8608 F,0,122687,124031,1 F,0,124031,124255,1,0 M,0,124255,,484,381 F,0,124255,124478,0,1 F,0,124478,125822,1 F,0,125822,126046,1,0
Sprite,Foreground,Centre,"sbe\sparkle.png",320,240 M,0,122464,,536,305 F,0,122464,122687,0,1 R,0,122464,126046,3.42016,-9.564159 F,0,122687,124031,1 F,0,124031,124255,1,0 M,0,124255,,242,144 F,0,124255,124478,0,1 F,0,124478,125822,1 F,0,125822,126046,1,0
Sprite,Foreground,Centre,"sbe\bgw.png",320,240 F,0,128284,128620,1,0 F,0,128732,129068,1,0 F,0,129180,129628,1
Sprite,Foreground,Centre,"flash.jpg",320,240 F,0,129516,129628,0,1 S,0,129516,129628,1.3072,1 F,0,129628,129740,1 F,0,129740,130075,1,0
//Storyboard Sound Samples
//Background Colour Transformations
3,100,163,162,255

[TimingPoints]
663,447.761194029851,4,1,0,80,1,0
14879,-100,4,2,0,80,0,0
15215,-100,4,2,0,100,0,0
18349,-100,4,2,0,70,0,0
18797,-100,4,2,0,100,0,0
21707,-80,4,2,0,100,0,0
22043,-100,4,2,0,80,0,0
22379,-100,4,2,0,100,0,0
25625,-100,4,2,0,80,0,0
25961,-100,4,2,0,100,0,0
29207,-100,4,2,0,80,0,0
29431,-100,4,2,0,100,0,0
32789,-100,4,2,0,80,0,0
33013,-100,4,2,0,100,0,0
36371,-100,4,2,0,80,0,0
36595,-100,4,2,0,100,0,0
39954,-100,4,2,0,80,0,0
40177,-100,4,2,0,100,0,0
42976,-100,4,1,0,100,0,0
43536,-100,4,2,0,100,0,0
44095,-100,4,1,0,100,0,1
50588,-100,4,2,0,100,0,1
51036,-100,4,1,0,100,0,1
56185,-100,4,1,0,70,0,1
57080,-100,4,1,0,100,0,1
57976,-100,4,2,0,100,0,0
57976,-100,4,1,0,80,0,0
58088,-100,4,2,0,100,0,0
61446,-100,4,2,0,80,0,0
61670,-100,4,2,0,100,0,0
65028,-100,4,2,0,80,0,0
65252,-100,4,2,0,100,0,0
68610,-100,4,2,0,80,0,0
68834,-100,4,2,0,100,0,0
71633,-100,4,1,0,100,0,0
72080,-100,4,2,0,100,0,0
72752,-100,4,1,0,100,0,1
79357,-100,4,2,0,100,0,1
79580,-100,4,1,0,100,0,1
86633,-100,4,2,0,100,0,1
86745,-100,4,1,0,100,0,1
90215,-100,4,2,0,100,0,1
90271,-100,4,1,0,100,0,1
93685,-100,4,2,0,100,0,1
93909,-100,4,1,0,100,0,1
94245,-100,4,1,0,100,0,1
97379,-100,4,2,0,100,0,1
97435,-100,4,1,0,100,0,1
100961,-100,4,2,0,0,0,0
103648,-100,4,1,0,100,0,0
108573,-100,4,2,0,100,0,0
109021,-100,4,1,0,100,0,0
109468,-100,4,2,0,100,0,0
109916,-100,4,1,0,100,0,0
110140,-100,4,2,0,100,0,0
110812,-100,4,1,0,100,0,0
111260,-100,4,2,0,100,0,0
111707,-100,4,1,0,100,0,0
112155,-100,4,2,0,100,0,0
112603,-100,4,1,0,100,0,0
113051,-100,4,2,0,100,0,0
113498,-100,4,1,0,100,0,0
113946,-100,4,2,0,100,0,0
114394,-100,4,1,0,100,0,0
118424,-100,4,2,0,100,0,0
122454,-100,4,1,0,100,0,0
125588,-100,4,2,0,100,0,0
128051,-100,4,1,0,100,0,0
128274,-100,4,1,0,70,0,0
128722,-100,4,1,0,100,0,0
128946,-100,4,1,0,70,0,0
129170,-100,4,1,0,100,0,0
129394,-100,4,2,0,100,0,0
129618,-100,4,2,0,100,0,1
129730,-100,4,1,0,100,0,1
130065,-100,4,1,0,80,0,1
136670,-100,4,2,0,100,0,1
136894,-100,4,1,0,100,0,1
143946,-100,4,2,0,100,0,1
144058,-100,4,1,0,100,0,1
147528,-100,4,2,0,100,0,1
147584,-100,4,1,0,100,0,1
148871,-100,4,1,0,80,0,1
150215,-100,4,1,0,80,0,1
150998,-100,4,2,0,100,0,1
151222,-100,4,1,0,100,0,1
152901,-100,4,2,0,100,0,1
152957,-100,4,1,0,100,0,1
154580,-100,4,2,0,100,0,1
154804,-100,4,1,0,100,0,1
158274,-100,4,1,0,0,0,0
161409,-100,4,1,0,100,0,0

[Colours]
Combo1 : 128,128,192
Combo2 : 255,128,64
Combo3 : 255,128,255

[HitObjects]
192,192,663,2,0,B|144:144|160:80,2,120
320,192,2006,1,0
320,192,2230,2,0,B|368:144|352:80,2,120
256,360,3797,5,0
320,256,4245,2,0,B|384:264|432:192|392:128,2,180
192,256,6036,2,0,B|128:264|80:192|120:128,2,180
88,312,7827,6,0,B|144:352|200:336,1,120
310,335,8722,2,0,B|368:352|424:312,1,120
328,240,9618,6,0,B|144:240,2,180
424,168,11409,2,0,B|320:152|328:40,2,180
304,184,13200,6,0,B|184:184,1,120
104,88,14095,2,0,B|224:88,1,120
320,24,14991,5,4
320,24,15215,2,0,B|384:40|392:112,3,120
304,192,17006,2,0,B|240:176|232:104,1,120
64,48,18125,5,0
32,168,18573,5,4
32,168,18797,2,0,B|32:240|96:256,3,120
152,152,20588,1,0
152,152,20812,2,0,B|272:152,1,120
368,40,21707,5,0
488,48,22155,6,0,B|488:112|424:168|368:160,2,180,4|0|0
368,40,23946,2,0,B|248:40,2,120
288,128,25289,5,0
168,128,25737,6,0,B|168:208|240:256|304:248,2,180,4|0|0
72,56,27528,2,0,B|72:176,2,120
184,8,28871,5,0
304,16,29319,6,0,B|424:16,1,120,4|0
480,40,29991,2,0,B|512:104|480:160,1,120
368,192,30886,2,0,B|248:192,2,120
344,368,32454,5,0
224,352,32901,6,0,B|104:352,1,120,4|0
48,328,33573,2,0,B|8:272|48:216,1,120
152,160,34468,2,0,B|192:216|152:272,1,120
152,271,35140,1,0
272,296,35588,1,0
328,192,36036,5,0
248,104,36483,5,4
248,104,36707,2,0,B|224:40|160:32,3,120
40,56,38498,2,0,B|40:176,2,120
120,144,39842,5,0
120,144,40065,2,0,B|232:136|248:40,1,180,4|0
368,24,41185,2,0,B|440:24|448:96,1,120
368,184,42080,2,0,B|296:184|288:112,2,120
368,184,43200,1,0
368,304,43648,5,4
256,352,44095,6,0,B|136:352,1,120
56,264,44991,1,0
56,264,45215,2,0,B|16:208|56:152,2,120
176,264,46558,1,0
176,264,46782,1,0
176,144,47230,6,0,B|296:144,1,120
352,144,47901,2,0,B|424:136|424:64,2,120
416,312,49468,5,0
416,312,49916,1,0
416,312,50364,1,0
416,312,50812,1,4
304,352,51260,6,0,B|184:352,1,120
184,352,51931,1,0
104,264,52379,2,0,B|48:232|48:160,1,120
152,104,53274,2,0,B|208:136|208:208,1,120
207,203,53946,1,0
304,272,54394,6,0,B|376:264|384:184,1,120
384,136,55065,2,0,B|384:16,2,120
232,40,56633,5,0
120,80,57080,1,0
160,192,57528,1,0
272,152,57976,6,0,B|376:152|400:256,2,180,4|0|0
256,272,59767,2,0,B|232:336|160:328,1,120
256,272,60663,2,0,B|280:208|352:216,1,120
448,152,61558,6,0,B|368:168|320:80|360:32,2,180,4|0|0
336,192,63349,2,0,B|208:192,1,120
272,88,64245,2,0,B|152:88,1,120
32,88,65140,5,4
32,88,65364,2,0,B|-8:144|32:200,2,120
152,88,66707,2,0,B|192:144|152:200,2,120
256,32,68051,2,0,B|376:32,1,120
440,32,68722,6,0,B|480:112|440:208,1,180,4|0
320,208,69842,1,0
280,320,70289,2,0,B|216:296|200:224,1,120
192,352,71185,2,0,B|72:352,1,120
72,352,71857,5,0
24,216,72304,1,4
72,104,72752,6,0,B|32:56,2,60
168,176,73648,1,0
168,176,73871,2,0,B|288:176,2,120
64,232,75215,2,0,B|56:304|120:328,1,120
176,328,75886,6,0,B|296:328,2,120
256,240,77230,1,0
256,240,77454,2,0,B|328:240|352:176,2,120
192,136,78797,6,0,B|168:136|168:136|160:120|160:120|152:136|152:136|88:136,1,120
91,136,79468,5,4
32,240,79916,6,0,B|64:360,1,120
112,248,80812,1,0
112,248,81036,2,0,B|192:336,2,120
232,272,82379,2,0,B|304:272|328:208,1,120
326,211,83051,5,0
312,96,83498,1,0
312,96,83722,2,0,B|192:96,2,120
488,80,85289,6,0,B|416:176,1,120
416,56,86185,2,0,B|376:104,2,60,0|0|4
296,24,87080,6,0,B|176:24,1,120
176,24,87752,1,0
56,48,88200,2,0,B|24:112|56:168,3,120
53,163,89767,5,0
168,200,90215,2,0,B|248:272|328:200,1,180,4|0
304,80,91334,2,0,B|248:40|192:80,1,120
32,168,92454,5,0
96,272,92901,1,0
200,208,93349,1,0
136,104,93797,1,4
32,168,94245,5,0
96,272,94692,1,0
96,272,94916,2,0,B|216:272,1,120
336,272,95812,2,0,B|376:224|352:160,2,120
336,272,96931,5,0
440,336,97379,2,0,B|440:152,2,180,4|0|0
328,368,99170,6,0,B|208:368,1,120
120,280,100065,2,0,B|240:280,1,120
256,192,100961,12,0,103648
96,56,108125,6,0,B|200:56|200:136|320:136,1,240
416,328,109916,2,0,B|312:328|312:248|192:248,1,240
336,48,111707,6,0,B|400:64|432:136|400:208|336:224,1,240
176,48,113498,2,0,B|112:64|80:136|112:208|176:224,1,240
256,24,115289,5,0
88,288,118424,5,0
192,344,118871,2,0,B|376:344,2,180,2|0|0
160,272,120439,2,0,B|352:272,1,180,2|0
256,16,122454,5,0
424,96,125588,5,0
320,40,126035,2,0,B|136:40,2,180,2|0|0
320,40,127603,1,2
384,144,128051,5,0
384,144,128274,1,0
320,248,128722,1,0
192,248,129170,1,0
128,144,129618,5,4
24,208,130065,6,0,B|24:328,1,120
104,232,130961,1,0
104,232,131185,2,0,B|104:104,2,120
184,320,132528,2,0,B|256:312|288:368,1,120
344,368,133200,6,0,B|464:368,1,120
464,368,133871,1,0
488,248,134319,1,0
424,144,134767,2,0,B|240:144,1,180
80,80,136110,6,0,B|112:80|112:80|120:64|120:64|128:80|128:80|184:80,1,120
180,80,136782,5,4
288,32,137230,6,0,B|352:40|368:112,1,120
288,200,138125,1,0
288,200,138349,2,0,B|224:192|208:120,2,120
408,200,139692,1,0
352,304,140140,1,0
352,304,140364,6,0,B|232:304,1,120
136,232,141260,1,0
136,232,141483,2,0,B|256:232,2,120
224,152,142827,1,0
224,152,143051,2,0,B|104:152,2,120,0|0|4
296,56,144394,6,0,B|416:56,1,120
328,136,145289,1,0
328,136,145513,2,0,B|256:152|256:224,3,120
256,336,147304,5,0
256,336,147528,2,0,B|136:336|136:224,2,180,4|0|0
376,336,149319,2,0,B|496:336,1,120
408,248,150215,5,0
304,192,150663,1,0
408,136,151110,5,4
360,24,151558,1,0
240,24,152006,1,0
184,128,152454,1,0
304,104,152901,6,0,B|248:208,1,120,4|0
360,160,153797,2,0,B|296:280,1,120
416,232,154692,5,4
416,352,155140,1,0
296,352,155588,1,0
296,232,156036,1,0
296,232,156260,2,0,B|176:232,2,120
256,120,157603,1,0
256,120,157827,1,0
256,192,158274,12,0,161409
