osu file format v9

[General]
AudioFilename: Cash Cash- Dynamite.mp3
AudioLeadIn: 2000
PreviewTime: 72752
Countdown: 1
SampleSet: Normal
StackLeniency: 0.7
Mode: 0
LetterboxInBreaks: 0

[Editor]
Bookmarks: 650,14721,29329,44105,57986,72762,87314,94239,102538,107687,115523,129628,144404,151568,158732
DistanceSpacing: 1.2
BeatDivisor: 4
GridSize: 8

[Metadata]
Title:Dynamite
Artist:Cash Cash
Creator:dkun
Version:Explosion!
Source:
Tags:Larto Sakura_Hana Xgor Shinde iMuffin Charles445 Odaril Roddie Sushi Sander-Don Zelos arken

[Difficulty]
HPDrainRate:7
CircleSize:4
OverallDifficulty:7
ApproachRate:8
SliderMultiplier:2
SliderTickRate:1

[Events]
//Background and Video events
0,0,"bg.jpg"
//Break Periods
2,101384,107151
//Storyboard Layer 0 (Background)
Sprite,Background,Centre,"flash.jpg",320,240 F,0,72304,72528,1 F,0,72528,72752,1,0
Sprite,Background,Centre,"flash.jpg",320,240 F,0,43648,43927,1 F,0,43927,44095,1,0
Sprite,Background,Centre,"sbe\sadcreature.png",320,240 F,0,14991,15215,0,0.5 C,0,14991,43648,200,200,200 F,0,29263,29319,0.5,0 F,0,29319,29767,0,0.5 F,0,43210,43648,0,0.5 F,0,43648,44095,0.5,0 S,0,43648,44095,1,1.5
Sprite,Background,Centre,"sbe\sadcreature.png",320,240 C,0,14991,43648,225,225,225 F,0,57864,57976,0,1 F,0,71185,71577,0,1 F,0,71577,71633,1,0 F,0,71633,72024,0,1 F,0,72024,72080,1,0 F,0,72080,72248,0,1 F,0,72248,72752,1,0 S,0,72304,72752,1,2.024
Sprite,Background,Centre,"sbe\bgw.png",320,240 F,0,100961,102752,1 F,0,102752,106334,1 F,0,106334,108125,1,0 C,0,108124,,255,255,255 C,0,108125,,0,0,0 F,0,108125,109916,0,0.5 F,0,109916,129618,0.5 R,0,116264,,0
Sprite,Background,Centre,"sbe\sadcreature.png",320,240 L,108125,22 C,0,0,,225,225,225 F,0,0,895,0.5,0
//Storyboard Layer 1 (Fail)
//Storyboard Layer 2 (Pass)
//Storyboard Layer 3 (Foreground)
Sprite,Foreground,Centre,"sbe\sparkle.png",320,240 M,0,115299,,147,116 F,0,115299,115523,0,1 R,0,115299,118881,12.34944,3.604481 F,0,115523,116867,1 F,0,116867,117090,1,0 M,0,117090,,529,232 F,0,117090,117314,0,1 F,0,117314,118658,1 F,0,118658,118881,1,0
Sprite,Foreground,Centre,"sbe\sparkle.png",320,240 M,0,115299,,487,373 S,0,115299,,0.7952002 F,0,115299,115523,0.2012799,1 R,0,115299,117090,0,10.6496 F,0,115523,116867,1 F,0,116867,117090,1,0.2371201 M,0,117090,,238,100 F,0,117090,117314,0.2371201,1 R,0,117090,118881,10.6496,17.38752
Sprite,Foreground,Centre,"sbe\sparkle.png",320,240 M,0,115299,,415,183 S,0,115299,,0.70304 F,0,115299,115523,0,1 R,0,115299,118881,0,10.4448 F,0,115523,116867,1 F,0,116867,117090,1,0 M,0,117090,,203,322 F,0,117090,117314,0,1 F,0,117314,118658,1 F,0,118658,118881,1,0.09375992
Sprite,Foreground,Centre,"sbe\sparkle.png",320,240 M,0,122464,,119,307 F,0,122464,122687,0,1 R,0,122464,126046,8.744961,0 F,0,122687,124031,1 F,0,124031,124255,1,0 M,0,124255,,444,116 F,0,124255,124478,0,1 F,0,124478,125822,1 F,0,125822,126046,1,0
Sprite,Foreground,Centre,"sbe\sparkle.png",320,240 M,0,122464,,180,114 S,0,122464,,0.6620799 F,0,122464,122687,0,1 R,0,122464,126046,-18.28864,-6.8608 F,0,122687,124031,1 F,0,124031,124255,1,0 M,0,124255,,484,381 F,0,124255,124478,0,1 F,0,124478,125822,1 F,0,125822,126046,1,0
Sprite,Foreground,Centre,"sbe\sparkle.png",320,240 M,0,122464,,536,305 F,0,122464,122687,0,1 R,0,122464,126046,3.42016,-9.564159 F,0,122687,124031,1 F,0,124031,124255,1,0 M,0,124255,,242,144 F,0,124255,124478,0,1 F,0,124478,125822,1 F,0,125822,126046,1,0
Sprite,Foreground,Centre,"sbe\bgw.png",320,240 F,0,128284,128620,1,0 F,0,128732,129068,1,0 F,0,129180,129628,1
Sprite,Foreground,Centre,"flash.jpg",320,240 F,0,129516,129628,0,1 S,0,129516,129628,1.3072,1 F,0,129628,129740,1 F,0,129740,130075,1,0
Sprite,Foreground,BottomLeft,"sbe\roddie.png",0,480 F,0,673,873,0,1 MY,1,673,873,550,480 F,0,14553,14753,1,0 MY,2,14553,14753,480,550 F,0,57986,58186,0,1 MY,1,57986,58186,550,480 F,0,72314,72514,1,0 MY,2,72314,72514,480,550 F,0,86643,86843,0,1 MY,1,86643,86843,550,480 F,0,93807,94007,1,0 MY,2,93807,94007,480,550 F,0,107687,107887,0,1 MY,1,107687,107887,550,480 F,0,129170,129370,1,0 MY,2,129170,129370,480,550
Sprite,Foreground,BottomLeft,"sbe\dkun.png",0,480 F,0,15001,15201,0,1 MY,1,15001,15201,550,480 F,0,28881,29081,1,0 MY,2,28881,29081,480,550 F,0,44105,44305,0,1 MY,1,44105,44305,550,480 F,0,57538,57738,1,0 MY,2,57538,57738,480,550 F,0,94255,94455,0,1 MY,1,94255,94455,550,480 F,0,100971,101171,1,0 MY,2,100971,101171,480,550 F,0,144394,144594,0,1 MY,1,144394,144594,550,480 F,0,151110,151310,1,0 MY,2,151110,151310,480,550
Sprite,Foreground,BottomLeft,"sbe\Sushi.png",0,480 F,0,29329,29529,0,1 MY,1,29329,29529,550,480 F,0,43658,43858,1,0 MY,2,43658,43858,480,550 F,0,72762,72962,0,1 MY,1,72762,72962,550,480 F,0,86195,86395,1,0 MY,2,86195,86395,480,550 F,0,129618,129818,0,1 MY,1,129618,129818,550,480 F,0,143946,144146,1,0 MY,2,143946,144146,480,550 F,0,151558,151758,0,1 MY,1,151558,151758,550,480 F,0,158274,158474,1,0 MY,2,158274,158474,480,550
Sprite,Foreground,BottomLeft,"sbe\roddie.png",0,480 F,0,673,973,0,1 MY,1,673,973,550,480 F,0,14553,14853,1,0 MY,2,14553,14853,480,550 F,0,57986,58286,0,1 MY,1,57986,58286,550,480 F,0,72314,72614,1,0 MY,2,72314,72614,480,550 F,0,86643,86943,0,1 MY,1,86643,86943,550,480 F,0,93807,94107,1,0 MY,2,93807,94107,480,550 F,0,107687,107987,0,1 MY,1,107687,107987,550,480 F,0,129170,129470,1,0 MY,2,129170,129470,480,550
Sprite,Foreground,BottomLeft,"sbe\dkun.png",0,480 F,0,15001,15301,0,1 MY,1,15001,15301,550,480 F,0,28881,29181,1,0 MY,2,28881,29181,480,550 F,0,44105,44405,0,1 MY,1,44105,44405,550,480 F,0,57538,57838,1,0 MY,2,57538,57838,480,550 F,0,94255,94555,0,1 MY,1,94255,94555,550,480 F,0,100971,101271,1,0 MY,2,100971,101271,480,550 F,0,144394,144694,0,1 MY,1,144394,144694,550,480 F,0,151110,151410,1,0 MY,2,151110,151410,480,550
Sprite,Foreground,BottomLeft,"sbe\Sushi.png",0,480 F,0,29329,29629,0,1 MY,1,29329,29629,550,480 F,0,43658,43958,1,0 MY,2,43658,43958,480,550 F,0,72762,73062,0,1 MY,1,72762,73062,550,480 F,0,86195,86495,1,0 MY,2,86195,86495,480,550 F,0,129618,129918,0,1 MY,1,129618,129918,550,480 F,0,143946,144246,1,0 MY,2,143946,144246,480,550 F,0,151558,151858,0,1 MY,1,151558,151858,550,480 F,0,158274,158574,1,0 MY,2,158274,158574,480,550
//Storyboard Sound Samples
//Background Colour Transformations
3,100,163,162,255

[TimingPoints]
663,447.761194029851,4,1,0,100,1,0
44095,-100,4,1,0,100,0,1
57976,-100,4,1,0,100,0,0
58088,-100,4,2,0,100,0,0
70625,-100,4,1,0,100,0,0
71073,-100,4,2,0,100,0,0
71409,-100,4,1,0,100,0,0
71521,-100,4,2,0,100,0,0
71745,-100,4,1,0,100,0,0
72752,-100,4,1,0,100,0,1
100961,-100,4,1,0,100,0,0
107677,-100,4,2,0,100,0,0
109021,-100,4,1,0,100,0,0
109133,-100,4,2,0,100,0,0
110812,-100,4,1,0,100,0,0
110924,-100,4,2,0,100,0,0
112603,-100,4,1,0,100,0,0
112715,-100,4,2,0,100,0,0
114394,-100,4,1,0,100,0,0
114506,-100,4,2,0,100,0,0
116185,-100,4,1,0,100,0,0
116297,-100,4,2,0,100,0,0
117976,-100,4,1,0,100,0,0
118088,-100,4,2,0,100,0,0
119767,-100,4,1,0,100,0,0
119879,-100,4,2,0,100,0,0
121558,-100,4,1,0,100,0,0
121670,-100,4,2,0,100,0,0
123349,-100,4,1,0,100,0,0
123461,-100,4,2,0,100,0,0
125140,-100,4,1,0,100,0,0
125252,-100,4,2,0,100,0,0
126931,-100,4,1,0,100,0,0
127043,-100,4,2,0,100,0,0
127939,-100,4,1,0,100,0,0
129170,-200,4,1,0,100,0,0
129618,-100,4,1,0,100,0,1
158274,-100,4,1,0,100,0,0

[Colours]
Combo1 : 128,128,192
Combo2 : 255,128,64
Combo3 : 255,128,255

[HitObjects]
88,136,663,1,4
168,176,886,1,0
256,208,1110,1,8
344,176,1334,1,0
424,136,1558,1,0
256,104,1782,5,0
256,104,1894,1,0
256,104,2006,1,8
256,16,2230,5,4
40,192,2677,1,4
256,344,3125,1,4
472,192,3573,1,4
384,192,3797,5,8
296,192,4021,1,0
248,192,4133,1,0
200,192,4245,1,0
112,192,4468,1,0
64,112,4692,6,4,B|184:112,1,100,8|0
112,192,5140,2,0,B|112:296,1,100
112,292,5476,1,0
112,292,5588,1,8
112,384,5812,5,0
240,256,6260,1,0
304,320,6483,1,8
392,320,6707,1,0
448,248,6931,1,0
392,176,7155,1,0
304,176,7379,1,8
352,248,7603,1,8
352,248,7715,1,8
352,248,7827,1,4
304,176,8051,5,0
256,104,8274,1,8
168,120,8498,1,0
136,208,8722,1,0
256,344,8946,5,0
256,344,9058,1,0
256,344,9170,1,8
256,256,9394,5,4
56,48,9842,1,4
456,40,10289,1,4
256,136,10737,1,4
256,136,10961,1,8
256,224,11185,1,0
256,224,11297,1,0
256,224,11409,1,0
304,296,11633,6,0,B|384:208,1,100,0|8
432,152,12080,2,0,B|352:64,1,100
312,152,12528,2,0,B|352:216,2,50,0|0|8
256,80,12976,1,0
112,192,13424,6,0,B|192:272,1,100,0|8
261,201,13871,2,0,B|181:265,1,100
182,263,14319,1,0
182,263,14543,1,8
256,120,14991,5,8
160,64,15215,2,4,B|256:8|360:72,1,200
392,144,15886,1,8
392,144,16110,1,0
392,304,16558,1,8
256,48,17006,1,4
112,304,17454,1,8
256,336,17901,5,0
256,288,18013,1,8
256,240,18125,1,0
256,152,18349,1,4
256,64,18573,6,4,B|128:64|64:192,1,200
40,232,19245,1,8
168,336,19692,1,4
296,232,20140,1,8
168,144,20588,1,0
168,144,20700,1,8
168,144,20812,1,0
208,72,21036,1,8
280,32,21260,1,0
360,32,21483,1,8
432,72,21707,1,0
472,144,21931,1,8
472,144,22155,5,0
472,144,22379,1,4
336,56,22827,1,4
200,144,23274,1,4
200,144,23722,1,4
336,224,24170,1,8
336,224,24282,1,8
336,224,24394,1,4
264,264,24618,1,8
296,336,24842,1,0
376,336,25065,1,8
408,264,25289,1,0
336,120,25737,5,8
336,120,25961,1,4
416,256,26409,1,4
256,256,26857,1,4
336,120,27304,1,4
200,40,27752,1,8
200,40,27864,1,8
200,40,27976,1,4
200,200,28424,1,0
240,272,28648,1,8
160,272,28871,1,0
88,64,29319,5,8
160,120,29543,2,4,B|256:168|352:120,1,200
160,240,30439,2,4,B|256:288|352:240,1,200
256,40,31334,1,8
352,240,31782,2,4,B|256:288|160:240,1,200
159,239,32454,1,8
104,168,32677,1,8
88,128,32789,1,8
88,80,32901,5,4
176,64,33125,1,8
256,104,33349,1,0
336,64,33573,2,4,B|416:48|456:160|400:200,1,200
176,64,34468,2,4,B|96:48|56:160|112:200,1,200
184,256,35140,1,8
272,272,35364,2,4,B|344:296|417:250|416:176,1,200
256,104,36260,1,8
256,152,36371,1,8
256,200,36483,5,4
208,272,36707,2,4,B|136:344|24:344,1,200
304,272,37603,2,4,B|376:344|488:344,1,200
256,56,38498,2,4,B|240:112|272:200|256:256,1,200
376,120,39394,1,8
376,208,39618,1,0
304,264,39842,1,8
256,264,39954,1,8
208,264,40065,5,4
136,208,40289,2,4,B|52:209|51:80|136:80,1,200
339,144,41185,2,4,B|131:144,1,200
340,208,42080,2,4,B|424:209|425:80|340:80,1,200
256,40,42752,1,0
200,112,42976,1,8
256,184,43200,1,4
256,368,43648,1,4
128,128,44095,5,8
184,72,44319,1,0
256,40,44543,1,8
328,72,44767,1,0
384,128,44991,1,8
256,152,45215,1,8
256,192,45327,1,8
256,232,45439,1,4
192,280,45663,1,8
256,328,45886,1,0
320,280,46110,1,8
320,280,46334,1,0
384,328,46558,5,8
448,280,46782,2,4,B|520:184|432:88,1,200
440,97,47454,1,8
384,40,47677,1,0
328,96,47901,1,8
328,96,48125,1,0
272,40,48349,1,8
216,96,48573,1,0
160,40,48797,2,4,B|72:128|168:232,1,200
155,218,49468,1,8
208,280,49692,1,0
272,328,49916,1,8
272,328,50028,1,8
272,328,50140,1,4
336,280,50364,1,8
384,216,50588,1,4
240,24,51260,5,0
200,96,51483,1,8
280,96,51707,1,0
240,160,51931,2,4,B|240:288,1,100
208,336,52379,1,8
240,352,52491,1,8
280,336,52603,1,4
352,296,52827,1,8
408,232,53051,1,0
352,176,53274,1,8
408,120,53498,1,0
408,120,53722,1,8
352,64,53946,6,4,B|256:16|160:64,1,200
159,64,54618,1,8
88,96,54842,1,0
88,96,55065,1,8
48,168,55289,1,0
96,232,55513,1,8
96,232,55625,1,8
96,232,55737,1,4
168,272,55961,1,8
168,272,56185,1,4
256,136,56633,5,4
120,216,57080,1,8
184,264,57304,1,0
256,296,57528,1,8
328,264,57752,1,0
392,216,57976,1,8
256,96,58424,5,8
168,104,58648,2,0,B|120:128|80:192,1,100
80,256,59095,2,0,B|32:288,2,50,8|8|8
152,200,59543,1,2
152,200,59991,1,0
152,200,60439,1,0
256,344,60886,2,0,B|256:224,1,100,0|8
256,152,61334,5,8
256,152,61446,1,8
256,152,61558,1,8
256,152,61782,1,0
432,192,62230,1,0
256,240,62677,2,8,B|328:280,2,50
168,216,63125,1,2
256,56,63573,5,0
256,56,63797,2,0,B|96:96|40:272,1,300,8|2
46,252,64692,1,8
128,288,64916,2,8,B|88:344,2,50,8|8|2
216,256,65364,1,0
376,336,65812,5,0
360,160,66260,1,0
216,56,66707,1,2
224,232,67155,2,0,B|136:296|24:240,2,200
224,232,68274,1,8
256,56,68722,5,10
256,56,68946,1,0
464,192,69394,1,0
256,336,69842,1,0
48,192,70289,1,2
224,144,70737,5,8
224,144,70961,1,8
168,216,71185,2,0,B|120:256,2,50,2|0|8
248,264,71633,1,0
248,264,71857,1,8
320,216,72080,6,0,B|368:256,2,50,0|0|4
256,48,72752,5,8
368,88,72976,1,0
264,144,73200,1,8
376,184,73424,2,4,B|448:216|424:264|448:312|376:336,1,200
256,360,74095,1,8
135,335,74319,2,4,B|64:312|88:264|64:216|136:184,1,200
256,160,74991,1,8
256,40,75215,5,0
368,80,75439,1,8
472,40,75663,1,0
448,144,75886,2,4,B|408:248|328:304,1,200
331,302,76558,1,8
96,144,77006,1,4
360,48,77454,2,4,B|416:56|448:176|400:216,1,200
401,215,78125,1,8
168,192,78573,1,8
168,192,78685,1,8
168,192,78797,1,4
288,192,79021,1,8
272,312,79245,1,8
224,352,79357,1,8
168,352,79468,1,4
192,48,79916,5,8
304,96,80140,1,0
424,64,80364,1,8
352,160,80588,2,4,B|296:208|216:176|160:224,1,200
256,304,81260,1,8
351,223,81483,2,4,B|296:176|216:208|164:163,1,200
80,80,82155,1,8
40,192,82379,5,0
120,280,82603,1,8
96,176,82827,1,0
64,296,83051,2,4,B|72:360|184:377|201:288|191:248|156:229,1,200
180,257,83722,1,8
376,56,84170,1,8
448,152,84394,1,0
440,272,84618,2,4,B|416:336|320:360|272:320,1,200
271,319,85289,1,8
152,112,85737,5,8
256,176,85961,1,0
360,112,86185,1,8
256,176,86409,1,8
256,224,86521,1,8
256,272,86633,1,4
424,104,87080,5,8
352,56,87304,1,0
256,48,87528,2,0,B|176:120,1,100
112,176,87976,1,8
56,248,88200,2,0,B|136:336|256:336,1,200,4|0
320,328,88871,1,8
392,272,89095,2,0,B|432:160|320:88,1,200
256,120,89767,1,8
200,192,89991,1,0
88,88,90215,5,4
144,256,90663,1,8
144,256,90886,1,0
256,120,91334,1,0
256,120,91558,1,8
256,208,91782,1,4
464,40,92454,5,8
408,208,92901,1,0
408,208,93013,1,0
408,208,93125,1,0
352,280,93349,1,8
296,208,93573,1,8
296,208,93685,1,8
296,208,93797,1,4
184,64,94245,5,8
112,120,94468,1,0
184,176,94692,1,8
256,232,94916,1,8
256,232,95028,1,8
256,232,95140,1,4
168,288,95364,2,4,B|256:360|352:288,1,200
424,232,96036,1,4
488,168,96260,5,8
488,168,96371,1,8
488,168,96483,1,4
424,104,96707,1,8
352,56,96931,1,0
272,104,97155,1,8
192,56,97379,2,4,B|96:144|200:232,1,200
264,168,98051,2,4,B|360:256|256:344,1,200
200,272,98722,2,4,B|104:344|16:272,1,200
17,272,99394,1,8
17,272,99618,1,0
72,200,99842,1,8
128,128,100065,1,8
128,128,100177,1,8
128,128,100289,1,4
192,64,100513,2,4,B|304:24,1,100
344,96,100961,2,8,B|216:144,1,100
256,72,107901,6,0,B|296:40,2,50,0|0|2
120,192,108573,1,0
120,192,108797,1,0
208,160,109021,1,0
256,336,109468,5,0
256,336,109692,1,2
336,288,109916,1,0
376,208,110140,1,0
376,208,110252,1,0
288,104,110588,2,0,B|328:64,2,50,0|0|0
128,184,111260,5,0
128,272,111483,1,0
192,336,111707,1,2
256,168,112155,1,0
256,256,112379,1,0
256,168,112603,1,0
80,192,113051,5,0
80,192,113274,1,2
80,192,113498,2,0,B|160:144|224:216|280:168,1,200
273,173,114170,1,0
273,173,114394,1,0
416,88,114842,1,0
416,88,115065,1,0
384,168,115289,5,2
256,40,115737,1,0
128,168,116185,1,0
256,120,116857,5,2
256,208,117304,1,0
256,208,117528,1,0
256,296,117976,1,0
256,296,118200,2,8,B|160:256,1,100,0|0
40,128,118871,2,0,B|120:64|240:64,1,200,2|0
312,40,119543,1,0
408,64,119767,1,0
256,160,120215,6,0,B|208:192|208:256,1,100,0|2
368,160,120886,2,0,B|416:192|416:256,1,100
312,96,121558,1,0
312,280,122006,1,0
128,288,122454,6,0,B|96:192,1,100,2|0
96,193,122901,2,0,B|152:96,1,100,2|0
146,106,123349,1,0
256,248,123797,1,0
256,160,124021,1,4
416,80,124468,5,0
328,80,124692,1,0
256,248,125140,1,0
256,64,125588,2,0,B|144:80|88:176,1,200,0|2
256,248,126483,5,0
256,248,126707,1,0
256,248,126931,1,8
424,192,127379,2,0,B|376:160|328:192,1,100,0|2
168,264,128051,5,0
168,264,128274,1,8
144,176,128498,1,0
160,136,128610,1,0
192,104,128722,1,8
256,40,128946,1,0
256,40,129058,1,0
256,40,129170,2,0,B|256:144,1,100,0|4
192,328,130065,5,8
320,328,130289,1,0
256,216,130513,1,8
200,96,130737,2,4,B|184:48|256:-16|328:48|312:96,2,200
256,352,132080,1,4
48,192,132528,5,8
168,248,132752,1,0
72,288,132976,1,8
136,160,133200,6,4,B|168:104|272:104|292:185,1,200
376,224,133871,2,4,B|344:280|240:280|220:199,1,200
352,32,134767,2,0,B|256:80|160:32,1,200
159,31,135439,1,0
240,352,135886,5,8
240,203,136110,1,0
328,323,136334,1,8
186,277,136558,1,0
328,231,136782,1,8
112,96,137230,5,8
40,208,137454,1,0
128,304,137677,1,8
184,192,137901,2,4,B|208:112|304:112|328:192,2,200
256,344,139245,1,4
224,40,139692,5,8
256,168,139916,1,0
288,40,140140,1,8
320,168,140364,2,4,B|312:240|256:240|200:240|192:168,1,200
80,104,141036,6,4,B|88:32|144:32|200:32|208:104,1,200,0|0
256,224,141707,1,8
432,104,141931,2,4,B|424:32|368:32|312:32|304:104,1,200,0|0
256,224,142603,1,8
256,344,143051,5,8
256,344,143274,1,0
256,344,143498,1,8
256,224,143722,1,8
256,176,143834,1,8
256,128,143946,1,4
384,336,144394,5,8
456,240,144618,1,0
456,120,144842,1,8
376,32,145065,1,0
280,104,145289,2,4,B|368:192|272:288,1,200
160,280,145961,2,4,B|72:192|168:96,1,200
264,40,146633,1,8
360,112,146857,1,0
264,184,147080,1,8
360,256,147304,1,0
448,168,147528,6,4,B|520:256|448:360,1,200
336,352,148200,2,4,B|264:264|336:160,1,200
392,64,148871,2,4,B|288:8|168:80,1,200
96,128,149543,1,8
200,184,149767,1,0
96,240,149991,1,8
200,304,150215,5,8
200,304,150327,1,8
200,304,150439,1,4
304,240,150663,1,8
200,184,150886,1,0
200,64,151110,1,8
200,64,151334,1,0
320,72,151558,6,4,B|400:136,1,100
440,256,152006,2,4,B|360:192,1,100
256,112,152454,1,0
150,193,152677,2,4,B|72:256,1,100
113,134,153125,2,4,B|192:72,1,100
256,184,153573,2,4,B|280:240|232:320|256:384,1,200
320,264,154245,1,8
192,264,154468,1,0
112,168,154692,5,8
160,48,154916,1,0
256,136,155140,1,8
352,48,155364,2,4,B|416:56|456:144|408:208,1,200
256,192,156036,1,8
160,48,156260,2,4,B|96:56|56:144|104:208,1,200
216,256,156931,6,4,B|320:280,1,100
440,296,157379,1,8
448,176,157603,1,8
448,160,157715,1,0
444,145,157827,1,8
434,133,157939,1,0
425,120,158051,1,8
410,114,158163,1,0
395,118,158274,1,4
