osu file format v12

[General]
AudioFilename: Get Out by Casey Abrams (Keeno Remix.mp3
AudioLeadIn: 1000
PreviewTime: 65521
Countdown: 0
SampleSet: Soft
StackLeniency: 0.7
Mode: 0
LetterboxInBreaks: 0
EpilepsyWarning: 1
WidescreenStoryboard: 1

[Editor]
DistanceSpacing: 1.2
BeatDivisor: 4
GridSize: 8

[Metadata]
Title:Get Out (Keeno Remix)
TitleUnicode:Get Out (Keeno Remix)
Artist:Casey Abrams
ArtistUnicode:Casey Abrams
Creator:jericho2442
Version:Beginner
Source:
Tags:BounceBabe drum and bass dnb
BeatmapID:302549
BeatmapSetID:111840

[Difficulty]
HPDrainRate:2
CircleSize:3
OverallDifficulty:2
ApproachRate:3
SliderMultiplier:0.799999999999999
SliderTickRate:2

[Events]
//Background and Video events
0,0,"BG.jpg",0,0
//Break Periods
2,44161,53493
2,142904,152236
//Storyboard Layer 0 (Background)
//Storyboard Layer 1 (Fail)
//Storyboard Layer 2 (Pass)
//Storyboard Layer 3 (Foreground)
//Storyboard Sound Samples
//Background Colour Transformations
3,100,0,0,0

[TimingPoints]
76,342.857142857143,4,2,1,70,1,0
22018,-100,4,2,2,100,0,0
43961,-100,4,2,1,70,0,0
64533,-100,4,1,1,100,0,0
65904,-100,4,2,2,100,0,0
87847,-100,4,2,2,100,0,1
109790,-100,4,2,2,100,0,0
131733,-100,4,2,1,70,0,0
134133,-100,4,2,2,70,0,0
134476,-100,4,2,1,70,0,0
136876,-100,4,2,2,70,0,0
137047,-100,4,2,1,70,0,0
139618,-100,4,2,2,70,0,0
139790,-100,4,2,1,70,0,0
153676,-100,4,2,2,70,0,1
175618,-100,4,1,0,70,0,0

[Colours]
Combo1 : 195,195,195
Combo2 : 17,255,77
Combo3 : 0,181,249
Combo4 : 255,60,60
Combo5 : 255,210,74

[HitObjects]
144,296,76,2,0,P|56:336|80:240,1,240,8|0,0:0|0:0,0:0:0:0:
168,208,1447,2,0,P|189:113|100:152,1,240,0|2,0:0|0:0,0:0:0:0:
77,240,2818,6,0,P|176:304|264:240,1,240,8|0,0:0|0:0,0:0:0:0:
296,152,4190,2,0,P|395:88|483:152,1,240,8|2,0:0|0:0,0:0:0:0:
496,248,5561,5,8,0:0:0:0:
328,344,6247,1,0,0:0:0:0:
160,248,6933,2,0,P|48:224|24:104,1,240,8|2,0:0|0:0,0:0:0:0:
72,32,8304,5,8,0:0:0:0:
216,160,8990,1,0,0:0:0:0:
352,296,9676,2,0,P|384:336|456:352,2,120,8|0|2,0:0|0:0|0:0,0:0:0:0:
280,232,11047,6,0,P|184:184|104:272,1,240,8|2,0:0|0:0,0:0:0:0:
197,277,12418,2,0,P|264:328|312:320,2,120,8|8|2,0:0|0:0|0:0,0:0:0:0:
176,184,13790,6,0,P|152:72|32:56,1,240,8|2,0:0|0:0,0:0:0:0:
32,144,15161,2,0,B|48:200|48:200|32:264,2,120,8|8|2,0:0|0:0|0:0,0:0:0:0:
120,104,16533,6,0,B|192:200|192:200|320:200,1,240,8|2,0:0|0:0,0:0:0:0:
312,296,17904,2,0,B|248:296|248:296|200:344,2,120,8|8|2,0:0|0:0|0:0,0:0:0:0:
408,296,19276,6,0,B|472:296|472:296|520:248,2,120,8|8|2,0:0|0:0|0:0,0:0:0:0:
360,216,20647,2,0,B|360:152|360:152|312:104,2,120,8|8|2,0:0|0:0|0:0,0:0:0:0:
304,296,22018,6,0,P|264:336|232:328,1,79.9999999999999,4|8,0:0|0:0,0:0:0:0:
88,232,23047,1,8,0:0:0:0:
184,232,23390,2,0,P|232:208|240:184,1,79.9999999999999,4|8,0:0|0:0,0:0:0:0:
376,48,24418,1,8,0:0:0:0:
280,48,24761,6,0,P|232:72|224:96,1,79.9999999999999,4|8,0:0|0:0,0:0:0:0:
56,192,25790,1,8,0:0:0:0:
152,192,26133,2,0,B|192:184|192:184|240:192,1,79.9999999999999,4|8,0:0|0:0,0:0:0:0:
352,336,27161,6,0,B|312:344|312:344|264:336,2,79.9999999999999,8|4|8,0:0|0:0|0:0,0:0:0:0:
480,192,28533,1,8,0:0:0:0:
360,40,29218,1,8,0:0:0:0:
240,192,29904,1,8,0:0:0:0:
176,120,30247,6,0,P|144:192|176:264,1,160,4|0,0:0|0:0,0:0:0:0:
368,264,31618,2,0,P|400:192|368:120,1,160,4|0,0:0|0:0,0:0:0:0:
304,192,32647,1,8,0:0:0:0:
224,240,32990,6,0,P|160:240|112:200,2,120,0|0|8,0:0|0:0|0:0,0:0:0:0:
200,144,34361,2,0,P|256:144|312:192,2,120,0|0|8,0:0|0:0|0:0,0:0:0:0:
120,200,35733,6,0,P|64:224|8:192,2,120,0|0|8,0:0|0:0|0:0,0:0:0:0:
208,240,37104,2,0,B|230:296|270:279|298:330,2,120,0|0|8,0:0|0:0|0:0,0:0:0:0:
296,200,38476,6,0,P|360:184|408:136,2,120,4|4|8,0:0|0:0|0:0,0:0:0:0:
200,200,39847,2,0,P|136:216|88:264,2,120,4|4|8,0:0|0:0|0:0,0:0:0:0:
272,136,41218,6,0,P|336:88|384:80,2,120,4|4|8,0:0|0:0|0:0,0:0:0:0:
360,176,42590,2,0,P|424:224|472:232,2,120,4|4|8,0:0|0:0|0:0,0:0:0:0:
448,136,43961,1,4,0:0:0:0:
312,336,54933,6,0,P|256:312|200:344,1,120,0|8,0:0|0:0,0:0:0:0:
114,225,55961,2,0,P|258:169|407:226,1,320,2|2,0:0|0:0,0:0:0:0:
480,168,57676,6,0,P|424:120|376:96,1,120,8|8,0:0|0:0,0:0:0:0:
248,56,58704,2,0,P|104:112|104:272,1,320,2|2,0:0|0:0,0:0:0:0:
176,320,60418,6,0,P|200:280|240:320,1,120,8|8,0:0|0:0,0:0:0:0:
368,256,61447,1,2,0:0:0:0:
416,168,61790,2,0,P|424:112|376:80,2,120,0|0|2,0:0|0:0|0:0,0:0:0:0:
256,192,63161,12,4,64533,0:0:0:0:
40,40,65904,6,0,P|128:48|176:112,1,160,4|0,0:0|0:0,0:0:0:0:
240,168,66933,1,8,0:0:0:0:
312,344,67618,1,8,0:0:0:0:
432,192,68304,1,8,0:0:0:0:
376,113,68647,6,0,P|341:219|371:267,1,160,4|0,0:0|0:0,0:0:0:0:
312,344,69676,1,8,0:0:0:0:
128,296,70361,1,8,0:0:0:0:
48,120,71047,1,8,0:0:0:0:
144,128,71390,6,0,B|184:112|184:112|216:128|216:128|256:112|256:112|296:128,1,160,4|0,0:0|0:0,0:0:0:0:
384,152,72418,1,8,0:0:0:0:
240,280,73104,1,8,0:0:0:0:
416,360,73790,1,8,0:0:0:0:
456,272,74133,6,0,P|488:224|488:200,1,79.9999999999999,4|8,0:0|0:0,0:0:0:0:
392,208,74818,2,0,P|377:152|359:136,1,79.9999999999999,4|8,0:0|0:0,0:0:0:0:
304,208,75504,2,0,P|224:200|176:136,1,160,4|4,0:0|0:0,0:0:0:0:
128,328,76876,6,0,P|144:264|64:256,1,160,4|0,0:0|0:0,0:0:0:0:
56,160,77904,2,0,P|168:168|240:280,1,240,8|4,0:0|0:0,0:0:0:0:
312,328,79276,1,8,0:0:0:0:
400,288,79618,6,0,P|464:248|440:176,1,160,4|0,0:0|0:0,0:0:0:0:
360,136,80647,1,8,0:0:0:0:
272,176,80990,2,0,P|208:160|232:88,2,160,4|4|4,0:0|0:0|0:0,0:0:0:0:
256,272,82704,5,8,0:0:0:0:
80,352,83390,1,8,0:0:0:0:
112,160,84076,1,8,0:0:0:0:
296,112,84761,1,8,0:0:0:0:
384,152,85104,6,0,P|416:192|416:232,1,79.9999999999999,4|8,0:0|0:0,0:0:0:0:
256,328,86133,1,8,0:0:0:0:
160,328,86476,2,0,P|128:288|128:248,1,79.9999999999999,4|8,0:0|0:0,0:0:0:0:
176,176,87161,2,0,P|208:136|208:96,1,79.9999999999999,4|8,0:0|0:0,0:0:0:0:
256,24,87847,6,0,P|336:32|376:96,2,160,4|0|4,0:0|0:0|0:0,0:0:0:0:
184,88,89561,1,8,0:0:0:0:
104,144,89904,2,0,P|64:176|24:176,1,79.9999999999999,4|8,0:0|0:0,0:0:0:0:
48,272,90590,6,0,P|128:280|168:344,2,160,4|0|4,0:0|0:0|0:0,0:0:0:0:
40,176,92304,1,8,0:0:0:0:
128,144,92647,2,0,P|168:128|192:96,1,79.9999999999999,4|8,0:0|0:0,0:0:0:0:
272,56,93333,6,0,P|336:120|320:128,2,160,4|0|4,0:0|0:0|0:0,0:0:0:0:
240,144,95047,2,0,P|229:213|299:211,1,160,8|8,0:0|0:0,0:0:0:0:
392,192,96076,6,0,P|456:256|440:264,2,160,4|0|4,0:0|0:0|0:0,0:0:0:0:
360,280,97790,2,0,P|296:320|224:272,1,160,8|8,0:0|0:0,0:0:0:0:
136,272,98818,6,0,L|56:312,1,79.9999999999999,4|8,0:0|0:0,0:0:0:0:
136,128,99847,2,0,L|56:88,2,79.9999999999999,8|4|8,0:0|0:0|0:0,0:0:0:0:
224,168,100876,1,0,0:0:0:0:
320,192,101218,6,0,B|360:184|360:200|400:192,2,79.9999999999999,8|4|8,0:0|0:0|0:0,0:0:0:0:
128,192,102590,2,0,B|88:184|88:200|48:192,2,79.9999999999999,8|4|8,0:0|0:0|0:0,0:0:0:0:
152,96,103618,1,0,0:0:0:0:
224,32,103961,5,8,0:0:0:0:
272,112,104304,2,0,B|315:128|284:153|321:175,1,79.9999999999999,4|8,0:0|0:0,0:0:0:0:
504,240,105333,1,8,0:0:0:0:
464,152,105676,2,0,B|420:135|451:110|414:88,1,79.9999999999999,4|8,0:0|0:0,0:0:0:0:
354,18,106361,1,0,0:0:0:0:
256,16,106704,1,8,0:0:0:0:
208,96,107047,6,0,P|304:192|300:92,1,320,4|4,0:0|0:0,0:0:0:0:
256,328,109104,1,0,0:0:0:0:
448,336,109790,6,0,P|470:253|432:193,1,160,4|4,0:0|0:0,0:0:0:0:
377,272,110818,2,0,P|345:192|370:127,2,160,8|8|8,0:0|0:0|0:0,0:0:0:0:
296,328,112533,6,0,P|215:296|160:336,1,160,4|4,0:0|0:0,0:0:0:0:
96,264,113561,2,0,P|128:183|88:128,2,160,8|8|8,0:0|0:0|0:0,0:0:0:0:
24,200,115276,5,4,0:0:0:0:
0,104,115618,1,8,0:0:0:0:
192,40,116304,1,8,0:0:0:0:
288,56,116647,1,4,0:0:0:0:
376,104,116990,1,8,0:0:0:0:
208,200,117676,1,8,0:0:0:0:
208,296,118018,6,0,P|256:304|280:328,1,79.9999999999999,4|8,0:0|0:0,0:0:0:0:
448,232,119047,1,8,0:0:0:0:
352,208,119390,2,0,P|312:176|304:144,1,79.9999999999999,4|8,0:0|0:0,0:0:0:0:
232,80,120076,2,0,P|217:43|184:21,1,79.9999999999999,4|8,0:0|0:0,0:0:0:0:
88,40,120761,6,0,P|25:97|23:168,2,160,4|0|4,0:0|0:0|0:0,0:0:0:0:
120,136,122476,2,0,P|160:160|176:192,2,79.9999999999999,8|0|8,0:0|0:0|0:0,0:0:0:0:
80,224,123504,6,0,P|120:288|200:280,1,160,4|0,0:0|0:0,0:0:0:0:
256,208,124533,1,8,0:0:0:0:
315,282,124876,2,0,P|391:288|432:224,1,160,4|0,0:0|0:0,0:0:0:0:
302,81,126247,6,0,P|214:105|214:73,2,160,4|0|4,0:0|0:0|0:0,0:0:0:0:
398,80,127961,2,0,P|393:134|380:158,2,79.9999999999999,8|0|8,0:0|0:0|0:0,0:0:0:0:
256,192,128990,12,0,131047,0:0:0:0:
48,40,131733,6,4,B|112:56|112:56|112:112|168:136,1,160,8|2,0:0|0:0,0:0:0:0:
352,136,133104,2,0,B|399:117|399:61|399:61|463:45,1,160,8|2,0:0|0:0,0:0:0:0:
491,137,134133,1,8,0:0:0:0:
472,232,134476,6,0,P|424:296|336:312,1,160,12|2,0:0|0:0,0:0:0:0:
160,312,135847,2,0,P|84:293|38:230,1,160,8|2,0:0|0:0,0:0:0:0:
112,168,136876,1,8,0:0:0:0:
32,112,137218,6,0,B|56:72|56:72|80:72|80:72|104:32|168:48,1,160,12|2,0:0|0:0,0:0:0:0:
352,48,138590,2,0,B|408:35|432:75|432:75|456:75|456:75|480:115,1,160,8|2,0:0|0:0,0:0:0:0:
488,208,139618,1,8,0:0:0:0:
456,296,139961,6,0,B|432:328|432:328|392:336,1,79.9999999999999,8|8,0:0|0:0,0:0:0:0:
384,240,140647,2,0,B|344:245|344:245|310:223,1,79.9999999999999,8|8,0:0|0:0,0:0:0:0:
256,192,141333,12,4,142704,0:0:0:0:
256,344,153676,5,4,0:0:0:0:
256,248,154018,1,8,0:0:0:0:
392,112,154704,1,8,0:0:0:0:
312,160,155047,1,4,0:0:0:0:
312,64,155390,1,8,0:0:0:0:
128,112,156076,5,8,0:0:0:0:
208,160,156419,1,4,0:0:0:0:
208,64,156762,1,8,0:0:0:0:
256,248,157447,1,8,0:0:0:0:
312,328,157790,2,0,P|352:344|392:328,1,79.9999999999999,4|8,0:0|0:0,0:0:0:0:
360,240,158476,2,0,P|392:208|424:208,1,79.9999999999999,4|8,0:0|0:0,0:0:0:0:
432,112,159161,6,0,L|344:80,1,79.9999999999999,4|8,0:0|0:0,0:0:0:0:
168,112,160190,2,0,L|256:80,2,79.9999999999999,8|4|8,0:0|0:0|0:0,0:0:0:0:
112,192,161218,1,4,0:0:0:0:
48,264,161561,1,8,0:0:0:0:
80,352,161904,6,0,B|120:336|120:336|160:352|200:328,1,120
336,328,162933,2,0,B|370:348|410:332|410:332|450:348,1,120,0|0,0:0|0:0,0:0:0:0:
472,208,163961,1,8,0:0:0:0:
384,160,164304,1,4,0:0:0:0:
296,200,164647,6,0,P|214:204|160:152,1,160,4|0,0:0|0:0,0:0:0:0:
80,104,165676,1,8,0:0:0:0:
160,48,166018,2,0,B|208:48|208:48|264:104|264:104|384:112,1,240,4|8,0:0|0:0,0:0:0:0:
440,184,167390,6,0,P|448:264|392:328,1,160,4|0,0:0|0:0,0:0:0:0:
312,280,168418,1,8,0:0:0:0:
128,320,169104,1,8,0:0:0:0:
192,136,169790,1,8,0:0:0:0:
224,48,170133,6,0,P|277:99|267:191,1,160,4|0,0:0|0:0,0:0:0:0:
304,272,171161,1,8,0:0:0:0:
400,248,171504,2,0,P|360:360|240:352,1,240,4|8,0:0|0:0,0:0:0:0:
160,344,172876,5,4,0:0:0:0:
80,296,173218,1,8,0:0:0:0:
72,200,173561,2,0,P|72:160|96:112,1,79.9999999999999,4|8,0:0|0:0,0:0:0:0:
280,152,174590,2,0,P|280:192|256:240,2,79.9999999999999,8|4|8,0:0|0:0|0:0,0:0:0:0:
352,88,175618,1,4,0:0:0:0:
