osu file format v12

[General]
AudioFilename: Get Out by Casey Abrams (Keeno Remix.mp3
AudioLeadIn: 1000
PreviewTime: 65521
Countdown: 0
SampleSet: Normal
StackLeniency: 0.7
Mode: 0
LetterboxInBreaks: 0
EpilepsyWarning: 1
WidescreenStoryboard: 1

[Editor]
DistanceSpacing: 1.2
BeatDivisor: 4
GridSize: 4

[Metadata]
Title:Get Out (Keeno Remix)
TitleUnicode:Get Out (Keeno Remix)
Artist:Casey Abrams
ArtistUnicode:Casey Abrams
Creator:jericho2442
Version:Advanced
Source:
Tags:BounceBabe drum and bass dnb
BeatmapID:290756
BeatmapSetID:111840

[Difficulty]
HPDrainRate:7
CircleSize:4
OverallDifficulty:8
ApproachRate:8
SliderMultiplier:1.8
SliderTickRate:2

[Events]
//Background and Video events
0,0,"BG.jpg",0,0
//Break Periods
2,142904,152926
//Storyboard Layer 0 (Background)
//Storyboard Layer 1 (Fail)
//Storyboard Layer 2 (Pass)
//Storyboard Layer 3 (Foreground)
//Storyboard Sound Samples
//Background Colour Transformations
3,100,0,0,0

[TimingPoints]
76,342.857142857143,4,2,1,70,1,0
22018,-100,4,2,2,100,0,0
43961,-133.333333333333,4,2,1,70,0,0
63161,-100,4,2,1,70,0,0
64533,-100,4,1,1,100,0,0
65904,-100,4,2,2,100,0,0
87847,-100,4,2,2,100,0,1
109790,-100,4,2,2,100,0,0
131733,-100,4,2,1,70,0,0
134133,-100,4,2,2,70,0,0
134476,-100,4,2,1,70,0,0
136876,-100,4,2,2,70,0,0
137047,-100,4,2,1,70,0,0
139618,-100,4,2,2,70,0,0
139790,-100,4,2,1,70,0,0
153676,-100,4,2,2,70,0,1
175618,-100,4,1,0,70,0,0

[Colours]
Combo1 : 195,195,195
Combo2 : 17,255,77
Combo3 : 0,181,249
Combo4 : 255,60,60
Combo5 : 255,210,74

[HitObjects]
256,32,76,2,0,P|280:128|360:152,1,180,8|2,0:0|0:0,0:0:0:0:
440,208,590,1,0,0:0:0:0:
400,304,761,2,0,P|376:344|320:360,1,90,0|2,0:0|0:0,0:0:0:0:
232,360,1104,1,0,0:0:0:0:
48,248,1447,2,0,P|48:152|128:120,1,180,8|2,0:0|0:0,0:0:0:0:
208,176,1961,1,0,0:0:0:0:
312,144,2133,2,0,P|344:112|416:112,1,90,0|2,0:0|0:0,0:0:0:0:
472,176,2476,1,0,0:0:0:0:
424,272,2647,1,2,0:0:0:0:
352,352,2818,6,0,P|280:296|248:352,1,180,8|2,0:0|0:0,0:0:0:0:
136,352,3333,1,0,0:0:0:0:
56,280,3504,2,0,P|24:232|24:184,1,90,0|2,0:0|0:0,0:0:0:0:
32,96,3847,1,0,0:0:0:0:
240,32,4190,2,0,B|280:56|280:56|328:32|328:32|368:56|376:104,1,180,8|2,0:0|0:0,0:0:0:0:
352,200,4704,1,0,0:0:0:0:
280,280,4876,2,0,P|232:320|192:320,1,90,0|2,0:0|0:0,0:0:0:0:
104,296,5218,1,0,0:0:0:0:
24,216,5390,1,2,0:0:0:0:
32,112,5561,6,0,B|96:112|128:192|128:192|192:168,1,180,8|2,0:0|0:0,0:0:0:0:
256,104,6076,1,0,0:0:0:0:
352,160,6247,2,0,P|400:200|416:240,1,90,0|2,0:0|0:0,0:0:0:0:
392,328,6590,1,0,0:0:0:0:
176,336,6933,2,0,P|80:304|64:216,1,180,8|2,0:0|0:0,0:0:0:0:
168,224,7447,2,0,P|147:155|51:123,1,180,0|2,0:0|0:0,0:0:0:0:
112,32,7961,1,0,0:0:0:0:
216,72,8133,1,2,0:0:0:0:
280,160,8304,6,0,P|352:216|448:208,1,180,8|2,0:0|0:0,0:0:0:0:
472,112,8818,2,0,P|400:56|304:64,1,180,0|2,0:0|0:0,0:0:0:0:
216,96,9333,1,0,0:0:0:0:
160,184,9504,1,0,0:0:0:0:
200,280,9676,1,0,0:0:0:0:
408,344,10018,1,2,0:0:0:0:
352,136,10361,2,0,L|272:80,1,90,8|0,0:0|0:0,0:0:0:0:
128,32,10704,2,0,L|208:88,1,90,8|0,0:0|0:0,0:0:0:0:
312,200,11047,6,0,L|400:256,1,90,8|0,0:0|0:0,0:0:0:0:
272,280,11390,2,0,L|360:336,1,90,2|0,0:0|0:0,0:0:0:0:
224,360,11733,2,0,B|168:336|176:272|176:272|80:240,2,180,8|2|8,0:0|0:0|0:0,0:0:0:0:
328,328,12590,1,2,0:0:0:0:
400,248,12761,2,0,P|424:192|416:152,1,90
312,184,13104,2,0,P|275:135|236:122,1,90,10|0,0:0|0:0,0:0:0:0:
144,136,13447,1,0,0:0:0:0:
56,80,13618,1,2,0:0:0:0:
56,184,13790,6,0,P|88:280|168:320,2,180,8|2|8,0:0|0:0|0:0,0:0:0:0:
112,88,14647,1,0,0:0:0:0:
224,48,14818,1,2,0:0:0:0:
424,128,15161,2,0,P|368:160|376:80,2,180,8|2|8,0:0|0:0|0:0,0:0:0:0:
464,232,16018,2,0,P|432:256|352:256,1,90,2|0,0:0|0:0,0:0:0:0:
288,312,16361,1,2,0:0:0:0:
184,280,16533,6,0,P|128:280|96:304,1,90,8|0,0:0|0:0,0:0:0:0:
88,192,16876,2,0,P|32:224|8:264,1,90,2|0,0:0|0:0,0:0:0:0:
0,352,17218,1,8,0:0:0:0:
256,144,17561,1,2,0:0:0:0:
504,352,17904,1,8,0:0:0:0:
256,304,18247,1,2,0:0:0:0:
144,192,18590,1,8,0:0:0:0:
256,80,18933,1,2,0:0:0:0:
368,192,19276,6,0,P|448:120|424:56,1,180,8|2,0:0|0:0,0:0:0:0:
368,112,19790,2,0,P|288:184|312:248,1,180,8|2,0:0|0:0,0:0:0:0:
307,242,20304,1,0,0:0:0:0:
144,192,20647,2,0,P|64:120|96:56,1,180,8|2,0:0|0:0,0:0:0:0:
144,112,21161,2,0,P|224:184|192:248,1,180,8|2,0:0|0:0,0:0:0:0:
203,238,21676,1,0,0:0:0:0:
256,328,21847,1,2,0:0:0:0:
312,240,22018,6,0,L|376:168,1,90,4|0,0:0|0:0,0:0:0:0:
440,88,22361,1,8,0:0:0:0:
128,272,22704,2,4,L|192:200,1,90,0|0,0:0|0:0,0:0:0:0:
256,120,23047,1,8,0:0:0:0:
320,208,23218,1,0,0:0:0:0:
424,240,23390,2,0,P|408:288|344:304,1,90,4|0,0:0|0:0,0:0:0:0:
272,344,23733,1,8,0:0:0:0:
424,48,24076,2,0,P|376:64|360:128,1,90
320,200,24418,1,8,0:0:0:0:
224,256,24590,1,0,0:0:0:0:
120,256,24761,6,0,P|152:184|264:160,1,180,4|8,0:0|0:0,0:0:0:0:
152,88,25276,2,0,P|240:72|338:110,1,180,0|4,0:0|0:0,0:0:0:0:
392,192,25790,1,8,0:0:0:0:
368,296,25961,1,0,0:0:0:0:
272,344,26133,2,0,P|200:312|176:200,1,180,4|8,0:0|0:0,0:0:0:0:
96,296,26647,2,0,P|88:208|128:120,1,180,0|4,0:0|0:0,0:0:0:0:
224,88,27161,1,8,0:0:0:0:
224,88,27247,1,8,0:0:0:0:
376,40,27504,6,0,B|376:88|376:88|408:120,1,90,4|0,0:0|0:0,0:0:0:0:
496,184,27847,1,8,0:0:0:0:
224,40,28190,2,0,B|224:88|224:88|256:120,1,90,0|4,0:0|0:0,0:0:0:0:
344,184,28533,1,8,0:0:0:0:
304,280,28704,1,0,0:0:0:0:
208,336,28876,2,0,B|168:320|168:320|112:336,1,90,4|0,0:0|0:0,0:0:0:0:
16,328,29218,1,8,0:0:0:0:
336,224,29561,2,0,B|296:240|296:240|240:224,1,90,0|4,0:0|0:0,0:0:0:0:
144,232,29904,1,8,0:0:0:0:
64,160,30076,1,0,0:0:0:0:
144,88,30247,6,0,P|216:40|288:96,1,180,4|8,0:0|0:0,0:0:0:0:
216,168,30761,2,0,P|288:216|360:160,1,180,0|4,0:0|0:0,0:0:0:0:
432,88,31276,1,8,0:0:0:0:
464,304,31618,2,0,B|408:304|408:304|360:368|272:344,1,180,4|8,0:0|0:0,0:0:0:0:
304,240,32133,2,0,B|243:229|195:285|195:285|139:285,1,180,0|4,0:0|0:0,0:0:0:0:
40,232,32647,1,8,0:0:0:0:
40,232,32733,1,8,0:0:0:0:
32,72,32990,6,0,P|112:104|200:72,1,180,4|8,0:0|0:0,0:0:0:0:
296,24,33504,1,0,0:0:0:0:
160,192,33847,1,4,0:0:0:0:
264,176,34018,1,8,0:0:0:0:
320,80,34190,1,0,0:0:0:0:
424,48,34361,2,0,P|472:136|464:232,1,180,4|8,0:0|0:0,0:0:0:0:
424,312,34876,1,0,0:0:0:0:
88,344,35218,1,4,0:0:0:0:
160,264,35390,1,8,0:0:0:0:
264,240,35561,1,0,0:0:0:0:
368,264,35733,6,0,P|341:168|273:133,1,180,4|8,0:0|0:0,0:0:0:0:
168,144,36247,1,0,0:0:0:0:
416,128,36590,1,4,0:0:0:0:
336,56,36761,1,8,0:0:0:0:
200,224,37104,1,0,0:0:0:0:
96,256,37276,1,4,0:0:0:0:
176,328,37447,1,8,0:0:0:0:
440,352,37790,1,0,0:0:0:0:
416,256,37961,1,4,0:0:0:0:
336,328,38133,1,8,0:0:0:0:
336,328,38218,1,8,0:0:0:0:
256,184,38476,6,0,P|168:200|144:288,1,180,4|8,0:0|0:0,0:0:0:0:
200,368,38990,1,0,0:0:0:0:
120,128,39333,1,4,0:0:0:0:
56,216,39504,1,8,0:0:0:0:
96,320,39676,1,0,0:0:0:0:
192,272,39847,2,0,B|264:272|296:344|296:344|352:344,2,180,4|8|4,0:0|0:0|0:0,0:0:0:0:
112,200,40704,1,4,0:0:0:0:
168,112,40876,1,8,0:0:0:0:
384,104,41218,5,4,0:0:0:0:
464,32,41390,1,4,0:0:0:0:
128,104,41733,1,0,0:0:0:0:
48,32,41904,1,4,0:0:0:0:
128,280,42247,1,8,0:0:0:0:
48,352,42418,1,0,0:0:0:0:
384,280,42761,1,4,0:0:0:0:
464,352,42933,1,8,0:0:0:0:
40,192,43276,5,0,0:0:0:0:
256,160,43618,1,8,0:0:0:0:
472,192,43961,6,0,P|440:264|384:296,1,135.000005149842,4|2,0:0|0:0,0:0:0:0:
320,264,44476,1,0,0:0:0:0:
248,296,44647,1,0,0:0:0:0:
88,264,44990,1,2,0:0:0:0:
88,264,45333,1,0,0:0:0:0:
280,112,45847,2,0,P|272:152|240:184,1,67.5000025749208
160,304,46361,1,2,0:0:0:0:
320,352,46704,6,0,P|400:296|424:248,1,135.000005149842,0|2,0:0|0:0,0:0:0:0:
440,184,47218,2,0,P|448:144|440:104,1,67.5000025749208
444,117,47733,1,2,0:0:0:0:
296,40,48076,2,0,L|328:120,1,67.5000025749208
168,40,48590,2,0,L|200:120,1,67.5000025749208,2|0,0:0|0:0,0:0:0:0:
256,248,49104,1,2,0:0:0:0:
136,352,49447,6,0,P|72:328|32:272,1,135.000005149842,0|2,0:0|0:0,0:0:0:0:
32,192,49961,1,0,0:0:0:0:
104,224,50133,1,0,0:0:0:0:
128,64,50476,1,2,0:0:0:0:
288,64,50818,2,0,P|352:88|392:144,1,135.000005149842
392,224,51333,1,2,0:0:0:0:
320,192,51504,1,0,0:0:0:0:
296,352,51847,1,2,0:0:0:0:
136,352,52190,5,0,0:0:0:0:
136,352,52361,1,0,0:0:0:0:
32,192,52704,1,2,0:0:0:0:
32,192,52876,1,0,0:0:0:0:
136,32,53218,1,0,0:0:0:0:
136,32,53390,1,0,0:0:0:0:
240,192,53733,1,2,0:0:0:0:
240,192,53904,1,8,0:0:0:0:
376,280,54247,5,8,0:0:0:0:
384,120,54590,1,10,0:0:0:0:
256,24,54933,6,0,P|184:40|144:88,1,135.000005149842,8|0,0:0|0:0,0:0:0:0:
224,104,55447,2,8,P|184:168|184:240,1,135.000005149842,8|0,0:0|0:0,0:0:0:0:
208,304,55961,1,8,2:1:0:0:
304,168,56304,2,0,P|384:80|464:184,1,270.000010299683,8|0,0:0|0:0,0:0:0:0:
384,312,57333,5,8,2:1:0:0:
224,312,57676,2,0,P|152:296|112:248,1,135.000005149842,8|0,0:0|0:0,0:0:0:0:
192,232,58190,2,0,P|152:168|152:96,1,135.000005149842,8|0,0:0|0:0,0:0:0:0:
208,56,58704,1,8,2:1:0:0:
368,56,59047,2,0,P|304:168|368:280,1,270.000010299683,8|0,0:0|0:0,0:0:0:0:
224,352,60076,5,8,2:1:0:0:
64,352,60418,2,0,B|104:288|104:288|176:256,1,135.000005149842,8|0,0:0|0:0,0:0:0:0:
104,200,60933,2,0,B|168:176|168:176|208:120,1,135.000005149842,8|0,0:0|0:0,0:0:0:0:
256,56,61447,1,8,2:1:0:0:
376,168,61790,2,0,P|352:232|400:288,1,135.000005149842,8|0,0:0|0:0,0:0:0:0:
320,336,62304,2,0,P|269:300|205:324,1,135.000005149842,8|0,0:0|0:0,0:0:0:0:
128,352,62818,5,8,2:1:0:0:
288,24,63161,2,8,B|316:52|316:52|326:100,1,90
230,92,63504,2,8,B|201:120|201:120|191:168,1,90
288,178,63847,2,8,B|316:206|316:206|326:254,1,90
230,245,64190,2,8,B|201:273|201:273|191:321,1,90
280,360,64533,1,4,0:0:0:0:
32,336,65904,5,4,0:0:0:0:
72,232,66076,2,0,P|112:192|160:192,1,90,0|8,0:0|0:0,0:0:0:0:
224,120,66418,1,0,0:0:0:0:
288,208,66590,1,0,0:0:0:0:
392,216,66761,2,0,B|432:192|432:192|440:144,1,90,4|8,0:0|0:0,0:0:0:0:
120,32,67276,1,4,0:0:0:0:
136,136,67447,2,0,P|144:184|200:224,1,90,0|8,0:0|0:0,0:0:0:0:
216,312,67790,1,0,0:0:0:0:
320,320,67961,1,0,0:0:0:0:
416,272,68133,2,0,B|448:240|448:240|456:192,1,90,4|8,0:0|0:0,0:0:0:0:
344,192,68476,1,0,0:0:0:0:
280,104,68647,6,0,P|216:80|208:168,1,180,4|8,0:0|0:0,0:0:0:0:
280,248,69161,2,0,P|344:272|352:184,1,180,0|4,0:0|0:0,0:0:0:0:
448,136,69676,2,0,P|480:176|488:232,1,90,8|0,0:0|0:0,0:0:0:0:
384,32,70190,1,4,0:0:0:0:
288,80,70361,2,0,B|248:88|248:88|192:80,1,90,8|0,0:0|0:0,0:0:0:0:
96,120,70704,1,0,0:0:0:0:
40,216,70876,1,4,0:0:0:0:
96,312,71047,1,8,0:0:0:0:
96,312,71133,1,8,0:0:0:0:
256,312,71390,6,0,P|336:272|384:344,1,180,4|8,0:0|0:0,0:0:0:0:
472,272,71904,1,0,0:0:0:0:
440,168,72076,2,0,P|376:144|368:120,1,90,0|4,0:0|0:0,0:0:0:0:
288,56,72418,1,8,0:0:0:0:
120,192,72761,1,4,0:0:0:0:
288,328,73104,6,0,L|384:360,1,90,8|0,0:0|0:0,0:0:0:0:
120,192,73618,2,0,L|40:144,1,90,4|8,0:0|0:0,0:0:0:0:
336,232,74133,1,4,0:0:0:0:
440,264,74304,1,4,0:0:0:0:
168,96,74647,1,0,0:0:0:0:
80,40,74818,1,4,0:0:0:0:
328,64,75161,1,8,0:0:0:0:
264,152,75333,1,0,0:0:0:0:
264,256,75504,5,0,0:0:0:0:
344,328,75676,2,0,L|448:328,1,90,4|8,0:0|0:0,0:0:0:0:
72,256,76190,1,0,0:0:0:0:
152,328,76361,1,4,0:0:0:0:
264,328,76533,1,8,0:0:0:0:
264,328,76618,1,8,0:0:0:0:
368,224,76876,6,0,P|432:160|432:64,1,180,4|8,0:0|0:0,0:0:0:0:
336,120,77390,1,0,0:0:0:0:
232,96,77561,2,0,L|152:48,1,90,0|4,0:0|0:0,0:0:0:0:
64,104,77904,1,8,0:0:0:0:
56,208,78076,2,0,L|133:161,1,90,0|4,0:0|0:0,0:0:0:0:
256,344,78590,1,8,0:0:0:0:
424,208,78933,2,0,B|456:168|456:168|456:120,1,90,0|4,0:0|0:0,0:0:0:0:
456,24,79276,1,8,0:0:0:0:
368,80,79447,1,0,0:0:0:0:
264,80,79618,6,0,B|208:80|208:80|168:136|64:120,1,180,4|8,0:0|0:0,0:0:0:0:
424,248,80304,1,0,0:0:0:0:
456,352,80476,1,4,0:0:0:0:
352,320,80647,1,8,0:0:0:0:
280,240,80818,1,0,0:0:0:0:
176,216,80990,2,0,P|112:224|88:256,2,90,0|4|8,0:0|0:0|0:0,0:0:0:0:
248,136,81504,1,0,0:0:0:0:
336,168,81676,2,0,P|400:160|424:128,1,90,0|4,0:0|0:0,0:0:0:0:
440,40,82018,1,8,0:0:0:0:
440,40,82104,1,8,0:0:0:0:
280,40,82361,6,0,P|184:40|144:104,1,180,4|8,0:0|0:0,0:0:0:0:
176,208,82876,1,0,0:0:0:0:
96,280,83047,1,0,0:0:0:0:
200,304,83218,2,0,L|272:368,1,90,4|8,0:0|0:0,0:0:0:0:
368,336,83561,1,0,0:0:0:0:
456,272,83733,2,0,P|416:184|336:152,1,180,4|8,0:0|0:0,0:0:0:0:
336,48,84247,6,0,P|224:48|160:112,1,180,0|4,0:0|0:0,0:0:0:0:
280,120,84761,2,0,P|216:176|208:280,1,180,8|4,0:0|0:0,0:0:0:0:
304,224,85276,2,0,P|344:280|368:208,1,180,4|0,0:0|0:0,0:0:0:0:
392,104,85790,2,0,P|416:32|456:88,1,180,4|8,0:0|0:0,0:0:0:0:
480,192,86304,1,0,0:0:0:0:
472,296,86476,5,0,0:0:0:0:
376,352,86647,1,4,0:0:0:0:
280,296,86818,1,8,0:0:0:0:
40,192,87161,1,0,0:0:0:0:
136,136,87333,1,4,0:0:0:0:
232,192,87504,1,8,0:0:0:0:
232,192,87590,1,8,0:0:0:0:
344,72,87847,6,8,P|392:48|384:136,2,180,4|8|0,0:0|0:0|0:0,0:0:0:0:
256,136,88704,1,4,0:0:0:0:
168,72,88876,1,8,0:0:0:0:
96,152,89047,2,0,P|80:248|104:328,2,180,0|4|0,0:0|0:0|0:0,0:0:0:0:
192,208,89904,1,0,0:0:0:0:
264,288,90076,1,4,0:0:0:0:
328,200,90247,1,8,0:0:0:0:
400,280,90418,1,0,0:0:0:0:
464,192,90590,6,0,P|440:96|376:56,1,180,4|8,0:0|0:0,0:0:0:0:
264,56,91104,1,0,0:0:0:0:
272,168,91276,2,0,P|184:128|152:48,1,180,4|8,0:0|0:0,0:0:0:0:
48,80,91790,2,0,B|56:168|56:168|48:272,2,180,0|4|0,0:0|0:0|0:0,0:0:0:0:
152,104,92647,1,0,0:0:0:0:
232,176,92818,1,4,0:0:0:0:
144,240,92990,1,8,0:0:0:0:
192,336,93161,1,0,0:0:0:0:
280,272,93333,6,0,P|368:240|384:160,1,180,4|8,0:0|0:0,0:0:0:0:
280,168,93847,1,0,0:0:0:0:
280,64,94018,2,0,P|192:96|176:176,1,180,0|8,0:0|0:0,0:0:0:0:
80,224,94533,1,0,0:0:0:0:
256,344,94876,1,0,0:0:0:0:
440,224,95218,1,0,0:0:0:0:
367,143,95390,2,0,P|327:111|311:71,1,90,0|4,0:0|0:0,0:0:0:0:
200,76,95733,2,0,P|180:116|145:143,1,90,8|4,0:0|0:0,0:0:0:0:
256,152,96076,5,4,0:0:0:0:
256,360,96418,1,8,0:0:0:0:
64,256,96761,2,0,L|160:256,2,90,0|4|8,0:0|0:0|0:0,0:0:0:0:
448,256,97447,2,4,L|352:256,2,90,0|4|8,0:0|0:0|0:0,0:0:0:0:
392,160,97961,1,0,0:0:0:0:
304,88,98133,2,0,L|264:176,2,90,0|4|8,0:0|0:0|0:0,0:0:0:0:
216,72,98647,6,0,B|176:160|176:160|160:200|168:240|208:256,1,180,0|4,0:0|0:0,0:0:0:0:
272,280,99161,2,0,L|192:344,1,90,8|0,0:0|0:0,0:0:0:0:
376,208,99504,2,0,L|352:304,1,90,0|4,0:0|0:0,0:0:0:0:
320,80,99847,1,8,0:0:0:0:
216,88,100018,1,0,0:0:0:0:
160,176,100190,1,4,0:0:0:0:
192,280,100361,1,0,0:0:0:0:
288,328,100533,1,8,0:0:0:0:
392,296,100704,2,0,P|432:216|416:128,1,180
124,232,101390,6,0,P|157:146|134:63,1,180,0|4,0:0|0:0,0:0:0:0:
40,32,101904,1,8,0:0:0:0:
64,128,102076,1,0,0:0:0:0:
156,164,102247,1,0,0:0:0:0:
256,128,102418,1,4,0:0:0:0:
280,32,102590,1,8,0:0:0:0:
188,69,102761,1,0,0:0:0:0:
156,164,102933,1,0,0:0:0:0:
152,264,103104,1,4,0:0:0:0:
216,339,103276,1,8,0:0:0:0:
314,351,103447,2,0,P|410:351|450:287,1,180,0|4,0:0|0:0,0:0:0:0:
480,48,104133,6,0,P|400:88|376:176,1,180,0|4,0:0|0:0,0:0:0:0:
320,264,104647,2,0,P|272:288|224:288,1,90,8|0,0:0|0:0,0:0:0:0:
256,184,104990,2,0,P|192:176|176:160,1,90,0|4,0:0|0:0,0:0:0:0:
248,80,105333,1,8,0:0:0:0:
352,104,105504,1,0,0:0:0:0:
416,192,105676,1,4,0:0:0:0:
424,296,105847,2,0,P|400:352|360:368,1,90,0|8,0:0|0:0,0:0:0:0:
288,304,106190,2,0,P|200:312|128:224,1,180,0|4,0:0|0:0,0:0:0:0:
48,192,106704,5,8,0:0:0:0:
136,136,106876,1,0,0:0:0:0:
224,192,107047,1,4,0:0:0:0:
440,192,107390,1,8,0:0:0:0:
224,304,107733,2,0,L|328:304,1,90,0|4,0:0|0:0,0:0:0:0:
424,304,108076,1,8,0:0:0:0:
256,192,108161,12,4,109790,0:0:0:0:
256,32,110133,5,8,0:0:0:0:
304,344,110476,1,0,0:0:0:0:
368,256,110647,1,4,0:0:0:0:
472,248,110818,1,8,0:0:0:0:
208,40,111161,1,4,0:0:0:0:
144,128,111333,1,0,0:0:0:0:
40,136,111504,1,8,0:0:0:0:
96,232,111676,2,0,P|128:328|208:344,1,180,0|4,0:0|0:0,0:0:0:0:
304,344,112190,1,8,0:0:0:0:
456,192,112533,6,0,B|432:152|432:152|448:120|448:120|416:72|360:80,2,180,4|8|0,0:0|0:0|0:0,0:0:0:0:
416,288,113390,1,4,0:0:0:0:
312,296,113561,1,8,0:0:0:0:
32,192,113904,2,0,B|72:216|72:216|112:192,1,90,0|4,0:0|0:0,0:0:0:0:
216,192,114247,1,8,0:0:0:0:
480,72,114590,2,0,B|440:48|440:48|400:72,1,90,0|4,0:0|0:0,0:0:0:0:
296,72,114933,1,8,0:0:0:0:
296,72,115018,1,8,0:0:0:0:
152,144,115276,6,0,P|112:176|96:216,1,90,4|0,0:0|0:0,0:0:0:0:
208,216,115618,2,0,P|184:280|192:296,1,90,8|0,0:0|0:0,0:0:0:0:
280,352,115961,1,4,0:0:0:0:
448,216,116304,1,8,0:0:0:0:
280,80,116647,2,0,B|232:80|232:80|192:56,1,90,4|0,0:0|0:0,0:0:0:0:
128,136,116990,2,0,B|149:172|149:172|149:220,1,90,8|0,0:0|0:0,0:0:0:0:
256,192,117333,1,0,0:0:0:0:
336,264,117504,1,4,0:0:0:0:
256,336,117676,1,8,0:0:0:0:
64,264,118018,6,0,L|256:264,1,180,4|8,0:0|0:0,0:0:0:0:
448,200,118704,1,0,0:0:0:0:
512,112,118876,1,4,0:0:0:0:
408,96,119047,1,8,0:0:0:0:
200,160,119390,1,0,0:0:0:0:
128,80,119561,1,4,0:0:0:0:
232,64,119733,1,8,0:0:0:0:
336,352,120076,1,0,0:0:0:0:
296,248,120247,1,4,0:0:0:0:
328,144,120418,1,8,0:0:0:0:
328,144,120504,1,8,0:0:0:0:
216,32,120761,6,0,P|72:168|152:240,1,360,4|0,0:0|0:0,0:0:0:0:
232,312,121618,1,4,0:0:0:0:
320,248,121790,1,8,0:0:0:0:
480,104,122133,2,0,B|400:104|400:104|392:48|312:40,2,180,4|8|0,0:0|0:0|0:0,0:0:0:0:
480,216,122990,1,4,0:0:0:0:
408,296,123161,1,8,0:0:0:0:
32,192,123504,6,0,P|120:160|120:192,2,180,4|8|4,0:0|0:0|0:0,0:0:0:0:
216,80,124533,2,0,P|304:112|304:80,2,180,8|4|8,0:0|0:0|0:0,0:0:0:0:
480,192,125561,2,0,P|392:160|392:192,2,180,4|8|4,0:0|0:0|0:0,0:0:0:0:
432,288,126418,5,0,0:0:0:0:
328,328,126590,1,8,0:0:0:0:
112,336,126933,2,0,L|192:288,1,90,2|4,0:0|0:0,0:0:0:0:
280,232,127276,1,8,0:0:0:0:
64,208,127618,1,4,0:0:0:0:
256,104,127961,1,8,0:0:0:0:
448,208,128304,2,0,L|360:160,1,90,2|4,0:0|0:0,0:0:0:0:
352,56,128647,1,8,0:0:0:0:
256,304,128990,6,0,P|208:304|184:336,2,90,4|0|8,0:0|0:0|0:0,0:0:0:0:
400,144,129676,1,2,0:0:0:0:
392,40,129847,1,4,0:0:0:0:
296,88,130018,1,8,0:0:0:0:
88,312,130361,1,4,0:0:0:0:
88,312,130533,1,4,0:0:0:0:
256,40,131047,1,8,0:0:0:0:
256,144,131218,2,0,B|240:200|288:208|256:280,1,135,4|4,0:0|0:0,0:0:0:0:
400,352,131733,6,0,B|448:352|480:312|480:256|480:256|480:120,1,270,12|8,0:0|0:0,0:0:0:0:
376,120,132418,2,0,B|376:200|376:200|376:264|344:272|320:272,1,180,2|0,0:0|0:0,0:0:0:0:
112,352,133104,2,0,B|64:352|32:312|32:256|32:256|32:120,1,270,8|8,0:0|0:0,0:0:0:0:
136,120,133790,2,0,B|136:200|136:200|136:264|168:272|192:272,1,180,2|8,0:0|0:0,0:0:0:0:
288,40,134476,6,0,P|259:137|233:37,1,270,12|8,0:0|0:0,0:0:0:0:
121,29,135161,2,0,P|113:125|169:197,1,180,2|0,0:0|0:0,0:0:0:0:
230,346,135847,2,0,P|259:249|285:349,1,270,8|8,0:0|0:0,0:0:0:0:
397,357,136533,2,0,P|405:261|349:189,1,180,2|8,0:0|0:0,0:0:0:0:
32,128,137218,6,0,B|104:192|104:192|80:224|80:320|160:360,1,270,12|8,0:0|0:0,0:0:0:0:
176,248,137904,2,0,P|216:296|304:248,1,180,2|0,0:0|0:0,0:0:0:0:
480,256,138590,2,0,B|408:192|408:192|432:160|432:64|352:24,1,270,8|8,0:0|0:0,0:0:0:0:
336,136,139276,2,0,P|296:88|208:136,1,180,2|8,0:0|0:0,0:0:0:0:
80,312,139961,5,2,0:0:0:0:
80,312,140133,1,0,0:0:0:0:
256,40,140476,1,2,0:0:0:0:
256,40,140647,1,0,0:0:0:0:
424,320,140990,1,2,0:0:0:0:
424,320,141161,1,0,0:0:0:0:
256,184,141504,1,2,0:0:0:0:
256,184,141676,1,0,0:0:0:0:
112,104,142018,5,0,0:0:0:0:
400,104,142361,1,2,0:0:0:0:
256,328,142704,1,4,1:1:0:0:
472,40,153676,6,0,P|408:64|400:104,1,90,4|0,0:0|0:0,0:0:0:0:
336,168,154018,2,0,P|329:183|265:207,1,90,8|0,0:0|0:0,0:0:0:0:
160,176,154361,1,0,0:0:0:0:
72,232,154533,1,4,0:0:0:0:
96,336,154704,2,0,P|200:368|280:344,1,180,8|4,0:0|0:0,0:0:0:0:
344,280,155218,1,0,0:0:0:0:
424,352,155390,1,8,0:0:0:0:
424,136,155733,1,0,0:0:0:0:
344,208,155904,1,4,0:0:0:0:
264,136,156076,2,0,L|168:136,1,90,8|0,0:0|0:0,0:0:0:0:
64,136,156418,6,0,B|64:192|104:224|104:224|104:304,2,180,4|8|0,0:0|0:0|0:0,0:0:0:0:
136,56,157276,1,4,0:0:0:0:
240,72,157447,1,8,0:0:0:0:
416,192,157790,1,0,0:0:0:0:
312,224,157961,2,0,P|272:272|264:304,1,90,4|8,0:0|0:0,0:0:0:0:
216,200,158304,2,0,P|256:160|296:144,1,90
184,104,158647,1,4,0:0:0:0:
112,184,158818,1,8,0:0:0:0:
112,184,158904,1,8,0:0:0:0:
232,296,159161,6,0,B|264:296|304:344|304:344|344:296|384:296,2,180,4|8|0,0:0|0:0|0:0,0:0:0:0:
128,272,160018,1,4,0:0:0:0:
64,184,160190,1,8,0:0:0:0:
112,88,160361,2,0,P|152:40|192:40,1,90,0|4,0:0|0:0,0:0:0:0:
336,184,160876,1,8,0:0:0:0:
232,184,161047,1,0,0:0:0:0:
288,88,161218,1,0,0:0:0:0:
400,88,161390,1,4,0:0:0:0:
448,184,161561,1,8,0:0:0:0:
392,280,161733,1,0,0:0:0:0:
288,280,161904,6,0,L|232:360,1,90,4|4,0:0|0:0,0:0:0:0:
112,136,162418,2,0,L|56:56,1,90,0|4,0:0|0:0,0:0:0:0:
400,136,162933,2,0,L|456:56,1,90,8|0,0:0|0:0,0:0:0:0:
224,280,163447,2,0,L|280:360,1,90,4|8,0:0|0:0,0:0:0:0:
352,272,163790,1,0,0:0:0:0:
288,184,163961,2,0,P|168:168|128:208,2,180,4|8|4,0:0|0:0|0:0,0:0:0:0:
464,56,164990,5,8,0:0:0:0:
400,144,165161,2,0,B|344:120|328:56|328:56|256:56,1,180,0|4,0:0|0:0,0:0:0:0:
160,56,165676,2,0,P|112:64|96:112,1,90,8|0,0:0|0:0,0:0:0:0:
136,200,166018,2,0,P|208:256|208:344,1,180,4|8,0:0|0:0,0:0:0:0:
320,360,166533,2,0,P|372:295|463:296,1,180,0|4,0:0|0:0,0:0:0:0:
416,200,167047,1,8,0:0:0:0:
312,216,167218,1,0,0:0:0:0:
256,128,167390,5,4,0:0:0:0:
56,56,167733,1,8,0:0:0:0:
160,48,167904,2,0,P|136:136|56:160,1,180,0|4,0:0|0:0,0:0:0:0:
56,272,168418,1,8,0:0:0:0:
144,344,168590,1,0,0:0:0:0:
224,272,168761,1,0,0:0:0:0:
304,344,168933,2,0,L|400:344,1,90,4|8,0:0|0:0,0:0:0:0:
472,144,169447,1,0,0:0:0:0:
368,128,169618,1,4,0:0:0:0:
280,64,169790,1,8,0:0:0:0:
280,64,169876,1,8,0:0:0:0:
120,64,170133,6,0,P|128:160|208:200,1,180,4|8,0:0|0:0,0:0:0:0:
112,264,170647,2,0,P|208:288|288:248,1,180,0|4,0:0|0:0,0:0:0:0:
384,256,171161,1,8,0:0:0:0:
472,192,171333,1,0,0:0:0:0:
384,128,171504,2,0,P|328:104|312:80,1,90,4|0,0:0|0:0,0:0:0:0:
240,160,171847,2,0,P|208:120|200:64,1,90,8|0,0:0|0:0,0:0:0:0:
104,128,172190,2,0,P|96:80|112:24,1,90,0|4,0:0|0:0,0:0:0:0:
0,72,172533,6,0,P|8:176|80:256,1,180,8|4,0:0|0:0,0:0:0:0:
152,280,173047,1,0,0:0:0:0:
256,288,173218,2,0,P|312:312|328:344,1,90,8|0,0:0|0:0,0:0:0:0:
408,264,173561,2,0,P|441:315|436:350,2,90,0|4|8,0:0|0:0|0:0,0:0:0:0:
336,184,174076,1,0,0:0:0:0:
240,136,174247,1,0,0:0:0:0:
136,128,174418,2,0,P|80:104|64:80,2,90,4|8|0,0:0|0:0|0:0,0:0:0:0:
232,184,174933,2,0,P|280:224|288:256,1,90,0|4,0:0|0:0,0:0:0:0:
232,344,175276,1,8,0:0:0:0:
232,344,175361,1,8,0:0:0:0:
96,256,175618,1,4,1:1:0:0:
