osu file format v12

[General]
AudioFilename: Casey Abrams - Get Out (Keeno Remix).mp3
AudioLeadIn: 2000
PreviewTime: 150857
Countdown: 0
SampleSet: Soft
StackLeniency: 0.7
Mode: 0
LetterboxInBreaks: 1
WidescreenStoryboard: 1

[Editor]
Bookmarks: 21942,43885,54857,87771,109714,131657,142628,164571,197485,219428,241371
DistanceSpacing: 1.8
BeatDivisor: 4
GridSize: 4
TimelineZoom: 1

[Metadata]
Title:Get Out (Keeno Remix)
TitleUnicode:Get Out (Keeno Remix)
Artist:Casey Abrams
ArtistUnicode:Casey Abrams
Creator:Moway
Version:Insane
Source:
Tags:drum and bass dnb kyshiro vipto katty pie
BeatmapID:285653
BeatmapSetID:109453

[Difficulty]
HPDrainRate:6
CircleSize:4
OverallDifficulty:8
ApproachRate:9
SliderMultiplier:1.8
SliderTickRate:2

[Events]
//Background and Video events
0,0,"bg.jpg",0,0
//Break Periods
2,44085,54257
2,131857,142028
//Storyboard Layer 0 (Background)
//Storyboard Layer 1 (Fail)
//Storyboard Layer 2 (Pass)
//Storyboard Layer 3 (Foreground)
Sprite,Foreground,Centre,"kyshiro.png",540,450 S,0,-342,,0.5 F,0,-342,0,0,1 F,0,21257,21600,1,0 F,0,87428,87771,0,1 F,0,109028,109371,1,0 F,0,164228,164571,0,1 F,0,196800,197142,1,0
Sprite,Foreground,Centre,"vipto.png",540,450 S,0,21600,,0.5 F,0,21600,21942,0,1 F,0,43542,43885,1,0 F,0,109371,109714,0,1 F,0,131314,131657,1,0 F,0,197142,197485,0,1 F,0,218742,219085,1,0
Sprite,Foreground,Centre,"moway.png",540,450 S,0,54514,,0.5 F,0,54514,54857,0,1 F,0,87085,87428,1,0 F,0,142285,142628,0,1 F,0,163885,164228,1,0 F,0,219085,219428,0,1 F,0,241028,241371,1,0
//Storyboard Sound Samples
//Background Colour Transformations
3,100,163,162,255

[TimingPoints]
0,342.857142857143,4,2,1,80,1,0
0,-117.647058823529,4,2,1,80,0,0
21942,-100,4,2,1,85,0,0
54857,-117.647058823529,4,2,1,70,0,0
63085,-117.647058823529,4,2,1,60,0,0
63771,-117.647058823529,4,2,1,80,0,0
64800,-117.647058823529,4,2,1,50,0,0
65485,-117.647058823529,4,2,1,80,0,0
65742,-117.647058823529,4,2,1,40,0,0
65828,-90.9090909090909,4,2,1,90,0,1
87771,-100,4,2,1,80,0,0
142628,-117.647058823529,4,2,1,70,0,0
150857,-117.647058823529,4,2,1,60,0,0
151542,-117.647058823529,4,2,1,80,0,0
152228,-90.9090909090909,4,2,1,80,0,0
152914,-66.6666666666667,4,2,1,80,0,0
153600,-90.9090909090909,4,2,1,90,0,1
197485,-100,4,2,1,80,0,0
219428,-117.647058823529,4,2,1,80,0,0
227657,-117.647058823529,4,2,1,50,0,0
229542,-117.647058823529,4,2,1,80,0,0
238628,-100,4,2,1,80,0,0
240000,-90.9090909090909,4,2,1,100,0,0
241371,-117.647058823529,4,2,1,50,0,0

[Colours]
Combo1 : 0,255,64
Combo2 : 4,130,255
Combo3 : 255,255,0
Combo4 : 255,128,192

[HitObjects]
56,188,0,6,0,P|120:228|200:200,1,153.000002918243,4|0,0:0|3:0,0:0:0:0:
134,135,514,1,0,0:0:0:0:
200,291,685,2,0,L|233:370,1,76.5000014591217,0|0,0:0|3:0,0:0:0:0:
310,317,1028,2,0,P|351:333|384:328,1,76.5000014591217
486,201,1371,6,0,P|408:202|357:258,1,153.000002918243,0|0,0:0|3:0,0:0:0:0:
270,227,1885,2,0,P|220:278|142:279,1,153.000002918243,0|0,0:0|3:0,0:0:0:0:
114,153,2400,2,0,P|158:168|183:195,1,76.5000014591217,0|0,0:0|0:0,0:0:0:0:
48,217,2742,6,0,L|15:143,2,76.5000014591217,0|0|0,0:0|0:0|3:0,0:0:0:0:
114,153,3257,1,0,0:0:0:0:
194,196,3428,1,0,0:0:0:0:
267,140,3600,1,0,3:0:0:0:
342,191,3771,2,0,P|364:231|357:266,1,76.5000014591217
194,196,4114,6,0,P|145:120|167:52,1,153.000002918243,0|0,0:0|3:0,0:0:0:0:
235,115,4628,1,0,0:0:0:0:
97,199,4800,2,0,L|22:215,1,76.5000014591217,0|0,0:0|3:0,0:0:0:0:
179,276,5142,2,0,L|254:260,1,76.5000014591217
443,327,5485,5,0,0:0:0:0:
418,222,5657,1,0,0:0:0:0:
340,295,5828,1,0,3:0:0:0:
214,159,6000,1,0,0:0:0:0:
239,264,6171,1,0,0:0:0:0:
317,191,6342,1,0,3:0:0:0:
294,86,6514,1,0,0:0:0:0:
294,86,6685,2,0,L|222:60,1,76.5000014591217
132,118,7028,5,0,0:0:0:0:
132,118,7200,1,0,3:0:0:0:
132,118,7371,2,0,L|60:92,1,76.5000014591217
294,86,7714,2,0,L|222:60,2,76.5000014591217,0|0|0,3:0|0:0|0:0,0:0:0:0:
399,67,8228,6,0,P|390:134|321:188,1,153.000002918243,0|0,0:0|3:0,0:0:0:0:
221,206,8742,2,0,P|269:274|347:286,1,153.000002918243,0|0,0:0|3:0,0:0:0:0:
250,136,9257,2,0,P|194:134|161:159,1,76.5000014591217
310,76,9600,6,0,L|395:92,2,76.5000014591217,0|0|0,0:0|0:0|3:0,0:0:0:0:
178,144,10114,2,0,L|93:128,2,76.5000014591217,0|0|0,0:0|0:0|3:0,0:0:0:0:
310,76,10628,2,0,L|395:92,1,76.5000014591217
178,144,10971,6,0,P|123:117|108:21,1,153.000002918243,4|0,0:0|3:0,0:0:0:0:
193,54,11485,1,0,0:0:0:0:
265,110,11657,2,0,L|264:195,1,76.5000014591217,0|0,0:0|3:0,0:0:0:0:
180,320,12000,2,0,L|181:235,1,76.5000014591217
322,308,12342,6,0,P|388:332|458:287,1,153.000002918243,0|0,0:0|3:0,0:0:0:0:
439,164,12857,2,0,P|373:140|303:185,1,153.000002918243,0|0,0:0|3:0,0:0:0:0:
381,236,13371,1,0,0:0:0:0:
293,80,13542,1,0,0:0:0:0:
201,233,13714,6,0,L|234:317,2,76.5000014591217,0|0|0,0:0|0:0|3:0,0:0:0:0:
108,236,14228,2,0,L|42:68,1,153.000002918243,0|0,0:0|3:0,0:0:0:0:
37,275,14742,2,0,P|71:308|100:314,1,76.5000014591217
201,233,15085,6,0,L|297:249,1,76.5000014591217
417,181,15428,1,0,3:0:0:0:
417,181,15600,2,0,L|321:165,1,76.5000014591217
224,69,15942,2,0,L|320:85,1,76.5000014591217,0|0,3:0|0:0,0:0:0:0:
155,141,16285,1,0,0:0:0:0:
155,141,16457,6,0,P|124:103|119:69,2,76.5000014591217,0|0|0,0:0|0:0|3:0,0:0:0:0:
169,19,16971,2,0,P|108:1|43:66,1,153.000002918243,0|0,0:0|3:0,0:0:0:0:
9,139,17485,2,0,L|48:218,1,76.5000014591217
155,141,17828,6,0,P|211:171|307:143,1,153.000002918243,0|0,0:0|3:0,0:0:0:0:
339,233,18342,2,0,P|423:214|479:244,1,153.000002918243,0|0,0:0|3:0,0:0:0:0:
403,315,18857,1,0,0:0:0:0:
312,331,19028,1,0,0:0:0:0:
241,271,19200,6,0,P|230:222|239:191,2,76.5000014591217,0|0|0,0:0|0:0|3:0,0:0:0:0:
168,324,19714,2,0,B|110:318|102:286|93:253|36:247,1,153.000002918243,0|0,0:0|3:0,0:0:0:0:
52,340,20228,2,0,B|101:322|102:288|102:254|157:235,1,153.000002918243,0|8,0:0|3:0,0:0:0:0:
241,271,20742,5,0,0:0:0:0:
312,212,20914,1,8,3:0:0:0:
512,216,21085,1,8,3:0:0:0:
441,275,21257,1,8,3:0:0:0:
241,271,21428,1,4,3:0:0:0:
241,271,21514,1,4,3:0:0:0:
241,271,21600,2,0,P|220:228|224:188,1,76.5000014591217,4|0,3:0|0:0,0:0:0:0:
284,112,21942,6,0,B|316:88|316:88|380:88,1,90,4|0,0:0|0:0,0:0:0:0:
436,172,22285,2,0,B|404:196|404:196|340:196,1,90,8|0,0:0|0:0,0:0:0:0:
204,84,22628,2,0,B|80:84|80:84|20:136,1,180,0|8,0:0|0:0,0:0:0:0:
118,193,23142,1,0,0:0:0:0:
38,266,23314,6,0,P|76:296|125:302,1,90
211,251,23657,2,0,P|261:233|323:238,1,90,8|0,0:0|0:0,0:0:0:0:
436,272,24000,1,0,0:0:0:0:
302,325,24171,1,0,0:0:0:0:
381,205,24342,2,0,P|404:151|399:100,1,90,8|0,0:0|0:0,0:0:0:0:
296,132,24685,6,0,P|258:89|133:101,1,180,0|8,0:0|0:0,0:0:0:0:
95,190,25200,1,0,0:0:0:0:
170,266,25371,2,0,P|190:241|203:185,1,90
68,294,25714,2,0,P|48:319|35:375,1,90,8|0,0:0|0:0,0:0:0:0:
225,333,26057,6,0,P|251:234|203:185,1,180,0|8,0:0|0:0,0:0:0:0:
99,151,26571,1,0,0:0:0:0:
170,266,26742,2,0,L|357:236,1,180,0|8,0:0|0:0,0:0:0:0:
414,150,27257,1,0,0:0:0:0:
365,311,27428,6,0,L|277:326,1,90,0|0,0:0|0:0,0:0:0:0:
170,345,27771,1,8,0:0:0:0:
80,284,27942,2,0,P|116:251|163:237,1,90
170,345,28285,1,0,0:0:0:0:
12,327,28457,2,0,P|0:276|25:223,1,90,8|0,0:0|0:0,0:0:0:0:
92,170,28800,6,0,P|113:123|110:72,1,90
6,101,29142,1,8,0:0:0:0:
219,71,29314,2,0,L|330:71,1,90
400,129,29657,1,0,0:0:0:0:
424,233,29828,2,0,P|473:209|497:170,1,90,8|0,0:0|0:0,0:0:0:0:
321,202,30171,6,0,P|272:226|248:265,1,90
344,310,30514,1,8,0:0:0:0:
184,200,30685,2,0,P|172:148|192:99,1,90
256,36,31028,1,0,0:0:0:0:
329,113,31200,2,0,P|340:148|328:200,1,90,8|0,0:0|0:0,0:0:0:0:
256,280,31542,6,0,B|220:300|220:300|168:300,1,90
120,203,31885,1,0,0:0:0:0:
256,280,32057,2,0,B|292:300|292:300|344:300,1,90
392,203,32400,1,0,0:0:0:0:
361,99,32571,1,8,0:0:0:0:
361,99,32657,1,8,0:0:0:0:
361,99,32742,1,0,0:0:0:0:
227,203,32914,6,0,P|111:206|74:164,1,180,4|8,0:0|0:0,0:0:0:0:
76,54,33428,1,0,0:0:0:0:
180,24,33600,2,0,P|185:62|169:111,1,90
74,164,33942,1,8,0:0:0:0:
266,147,34114,1,0,0:0:0:0:
294,250,34285,6,0,P|350:215|362:195,1,90
424,31,34628,2,0,P|369:67|357:87,1,90,8|0,0:0|0:0,0:0:0:0:
311,337,34971,2,0,P|374:286|362:195,1,180,0|8,0:0|0:0,0:0:0:0:
266,147,35485,1,0,0:0:0:0:
294,250,35657,6,0,P|351:281|448:189,1,180
423,119,36171,1,0,0:0:0:0:
319,88,36342,2,0,P|343:44|380:19,1,90
423,119,36685,2,0,P|388:174|347:192,1,90
272,236,37028,6,0,B|168:236|168:236|126:233|100:203,1,180,0|8,0:0|0:0,0:0:0:0:
176,126,37542,1,0,0:0:0:0:
251,47,37714,2,0,B|226:18|184:15|184:15|80:15,1,180,0|8,0:0|0:0,0:0:0:0:
3,92,38228,1,0,0:0:0:0:
24,198,38400,6,0,P|42:241|77:272,1,90
236,154,38742,2,0,P|218:111|183:80,1,90,8|0,0:0|0:0,0:0:0:0:
131,179,39085,1,0,0:0:0:0:
131,179,39257,1,0,0:0:0:0:
73,269,39428,2,0,P|42:241|24:198,1,90,8|0,0:0|0:0,0:0:0:0:
157,70,39771,6,0,P|236:145|229:229,1,180,0|8,0:0|0:0,0:0:0:0:
131,179,40285,1,0,0:0:0:0:
275,56,40457,2,0,P|333:56|391:78,1,90
376,172,40800,2,0,P|426:156|457:124,1,90,8|0,0:0|0:0,0:0:0:0:
363,64,41142,5,0,0:0:0:0:
288,187,41314,1,0,0:0:0:0:
288,187,41485,2,0,L|199:187,1,90,8|0,0:0|0:0,0:0:0:0:
126,61,41828,1,0,0:0:0:0:
53,185,42000,1,0,0:0:0:0:
123,310,42171,2,0,L|212:310,1,90,8|0,0:0|0:0,0:0:0:0:
312,268,42514,6,0,P|335:227|328:166,1,90
246,122,42857,2,0,P|223:163|230:224,1,90,8|0,0:0|0:0,0:0:0:0:
312,268,43200,1,0,0:0:0:0:
246,122,43371,1,0,0:0:0:0:
213,310,43542,1,8,0:0:0:0:
213,310,43628,1,8,0:0:0:0:
213,310,43714,1,0,0:0:0:0:
109,119,43885,5,4,0:0:0:0:
492,164,54857,6,0,P|428:204|357:184,1,153.000002918243,4|0,0:0|0:0,0:0:0:0:
416,112,55371,2,0,L|440:272,1,153.000002918243,2|0,0:0|0:0,0:0:0:0:
340,336,55885,2,0,P|304:352|260:348,1,76.5000014591217,2|0,0:0|0:0,0:0:0:0:
168,280,56228,6,0,P|104:240|33:259,1,153.000002918243,2|0,0:0|0:0,0:0:0:0:
92,332,56742,1,2,0:0:0:0:
244,232,56914,2,0,L|305:186,1,76.5000014591217
336,20,57257,2,0,L|274:65,1,76.5000014591217,2|0,0:0|0:0,0:0:0:0:
244,232,57600,6,0,B|288:280|288:280|324:256|372:264,1,153.000002918243,4|0,0:0|0:0,0:0:0:0:
448,316,58114,2,0,P|392:264|392:192,1,153.000002918243,2|0,0:0|0:0,0:0:0:0:
506,149,58628,2,0,L|488:224,1,76.5000014591217,2|0,0:0|0:0,0:0:0:0:
320,324,58971,6,0,L|239:344,1,76.5000014591217,2|0,0:0|0:0,0:0:0:0:
160,372,59314,1,0,0:0:0:0:
68,372,59485,2,0,P|50:290|92:236,1,153.000002918243,2|0,0:0|0:0,0:0:0:0:
240,244,60000,2,0,P|211:272|177:283,1,76.5000014591217,2|0,0:0|0:0,0:0:0:0:
156,96,60342,6,0,B|206:67|257:90|257:90|303:112,1,153.000002918243,4|2,0:0|0:0,0:0:0:0:
440,180,60857,1,0,0:0:0:0:
356,288,61028,2,0,B|305:316|254:293|254:293|208:271,1,153.000002918243,2|2,0:0|0:0,0:0:0:0:
72,204,61542,1,0,0:0:0:0:
56,100,61714,5,2,0:0:0:0:
143,38,61885,1,0,0:0:0:0:
152,145,62057,1,2,0:0:0:0:
56,100,62228,1,0,0:0:0:0:
249,23,62400,2,0,P|288:40|309:72,1,76.5000014591217,2|0,0:0|0:0,0:0:0:0:
428,50,62742,2,0,P|432:92|415:126,1,76.5000014591217,2|0,0:0|0:0,0:0:0:0:
336,191,63085,5,4,3:0:0:0:
221,293,63257,1,4,3:0:0:0:
190,143,63428,1,4,3:0:0:0:
336,191,63600,5,4,3:0:0:0:
185,218,63771,1,4,3:0:0:0:
322,85,63942,1,4,3:0:0:0:
295,273,64114,1,4,3:0:0:0:
203,106,64285,1,4,3:0:0:0:
378,186,64457,1,4,3:0:0:0:
68,340,64800,6,0,P|32:320|16:280,1,76.5000014591217,0|0,0:0|0:0,0:0:0:0:
100,252,65142,2,0,P|99:210|125:176,1,76.5000014591217,0|0,0:0|0:0,0:0:0:0:
190,239,65485,2,0,P|255:261|311:253,1,114.750002188683,8|0,0:0|0:0,0:0:0:0:
347,242,65828,6,0,P|363:194|347:145,1,99.0000030212403,4|0,0:0|0:0,0:0:0:0:
252,24,66171,1,8,0:0:0:0:
136,132,66342,2,0,P|177:172|221:182,1,99.0000030212403
332,152,66685,1,0,0:0:0:0:
432,84,66857,1,8,0:0:0:0:
504,176,67028,5,0,0:0:0:0:
504,176,67114,1,0,0:0:0:0:
504,176,67200,2,0,P|512:223|507:274,1,99.0000030212403
416,348,67542,1,8,0:0:0:0:
324,272,67714,2,0,P|240:240|156:296,1,198.000006042481
48,348,68228,2,0,P|24:296|36:256,1,99.0000030212403,8|0,0:0|0:0,0:0:0:0:
236,112,68571,6,0,P|260:164|248:204,1,99.0000030212403
172,292,68914,1,8,0:0:0:0:
100,200,69085,2,0,P|52:188|4:200,1,99.0000030212403
52,308,69428,1,0,0:0:0:0:
152,92,69600,1,8,0:0:0:0:
44,44,69771,5,0,0:0:0:0:
44,44,69857,1,0,0:0:0:0:
44,44,69942,2,0,P|32:100|44:140,1,99.0000030212403
124,252,70285,2,0,P|176:260|224:252,1,99.0000030212403,8|0,0:0|0:0,0:0:0:0:
304,168,70628,1,0,0:0:0:0:
194,26,70800,1,0,0:0:0:0:
104,180,70971,1,8,0:0:0:0:
104,180,71057,1,8,0:0:0:0:
104,180,71142,1,0,0:0:0:0:
176,320,71314,6,0,P|224:340|272:340,1,99.0000030212403,0|0,0:0|0:0,0:0:0:0:
456,220,71657,2,0,P|408:200|360:200,1,99.0000030212403,8|0,0:0|0:0,0:0:0:0:
244,212,72000,1,0,0:0:0:0:
384,328,72171,1,0,0:0:0:0:
420,128,72342,2,0,P|428:80|416:28,1,99.0000030212403,8|0,0:0|0:0,0:0:0:0:
241,116,72685,6,0,P|233:164|245:216,1,99.0000030212403
148,284,73028,2,0,P|185:314|236:330,1,99.0000030212403,8|0,0:0|0:0,0:0:0:0:
352,304,73371,1,0,0:0:0:0:
480,212,73542,1,0,0:0:0:0:
320,216,73714,1,8,0:0:0:0:
452,304,73885,1,0,0:0:0:0:
396,156,74057,6,0,P|373:116|328:88,1,99.0000030212403
284,200,74400,1,0,0:0:0:0:
444,272,74571,2,0,P|483:249|511:204,1,99.0000030212403
500,64,74914,1,0,0:0:0:0:
364,36,75085,2,0,P|325:59|297:104,1,99.0000030212403
452,200,75428,6,0,P|451:154|427:108,1,99.0000030212403
272,208,75771,2,0,P|317:207|364:182,1,99.0000030212403,8|0,0:0|0:0,0:0:0:0:
440,28,76114,1,0,0:0:0:0:
284,12,76285,1,0,0:0:0:0:
184,136,76457,1,8,0:0:0:0:
184,136,76542,1,8,0:0:0:0:
184,136,76628,1,0,0:0:0:0:
200,252,76800,6,0,P|248:240|280:204,1,99.0000030212403,4|0,2:0|0:0,0:0:0:0:
336,56,77142,1,8,0:0:0:0:
216,44,77314,2,0,P|188:92|184:140,1,99.0000030212403
200,252,77657,1,0,0:0:0:0:
336,336,77828,1,8,0:0:0:0:
444,216,78000,5,0,0:0:0:0:
444,216,78085,1,0,0:0:0:0:
444,216,78171,2,0,P|416:172|368:152,1,99.0000030212403
264,268,78514,2,0,P|316:265|357:234,1,99.0000030212403,8|0,0:0|0:0,0:0:0:0:
348,80,78857,1,0,0:0:0:0:
236,40,79028,1,0,0:0:0:0:
144,116,79200,2,0,P|132:168|148:220,1,99.0000030212403,8|0,0:0|0:0,0:0:0:0:
264,364,79542,6,0,P|276:312|260:260,1,99.0000030212403
144,116,79885,2,0,P|92:108|40:116,1,99.0000030212403,8|0,0:0|0:0,0:0:0:0:
32,280,80228,1,0,0:0:0:0:
132,340,80400,1,0,0:0:0:0:
236,288,80571,2,0,P|287:280|339:288,1,99.0000030212403,8|0,0:0|0:0,0:0:0:0:
444,328,80914,6,0,P|464:284|456:236,1,99.0000030212403
404,84,81257,1,8,0:0:0:0:
256,24,81428,1,0,0:0:0:0:
108,84,81600,2,0,P|88:128|96:176,1,99.0000030212403
256,296,81942,1,8,0:0:0:0:
256,296,82028,1,8,0:0:0:0:
256,296,82114,1,0,0:0:0:0:
388,252,82285,6,0,P|440:232|484:228,1,99.0000030212403
312,168,82628,2,0,P|260:188|216:192,1,99.0000030212403,8|0,0:0|0:0,0:0:0:0:
100,176,82971,1,0,0:0:0:0:
24,84,83142,1,0,0:0:0:0:
164,36,83314,2,0,P|180:88|164:140,1,99.0000030212403,8|0,0:0|0:0,0:0:0:0:
68,280,83657,6,0,P|108:308|168:312,1,99.0000030212403
304,260,84000,2,0,P|264:232|204:228,1,99.0000030212403,8|0,0:0|0:0,0:0:0:0:
280,368,84342,1,0,0:0:0:0:
420,288,84514,1,0,0:0:0:0:
484,144,84685,2,0,P|492:100|480:48,1,99.0000030212403,8|0,0:0|0:0,0:0:0:0:
320,40,85028,6,0,L|216:52,1,99.0000030212403
104,60,85371,1,8,0:0:0:0:
232,260,85542,2,0,P|260:220|260:164,1,99.0000030212403
144,168,85885,1,0,0:0:0:0:
60,264,86057,2,0,P|72:316|108:348,1,99.0000030212403,8|0,0:0|0:0,0:0:0:0:
260,324,86400,6,0,P|312:312|360:312,1,99.0000030212403
492,276,86742,2,0,P|496:172|440:100,1,198.000006042481,8|0,0:0|0:0,0:0:0:0:
220,48,87257,1,0,0:0:0:0:
316,220,87428,1,8,0:0:0:0:
316,220,87514,1,8,0:0:0:0:
316,220,87600,1,0,0:0:0:0:
225,160,87771,6,0,L|136:154,1,90,4|0,0:0|0:0,0:0:0:0:
46,91,88114,1,8,0:0:0:0:
10,192,88285,2,0,P|53:257|150:284,1,180
234,349,88800,1,8,0:0:0:0:
308,270,88971,1,0,0:0:0:0:
222,204,89142,5,0,0:0:0:0:
147,284,89314,2,0,P|127:338|133:375,2,90,0|8|0,0:0|0:0|0:0,0:0:0:0:
277,140,89828,2,0,P|223:119|186:125,1,90
377,326,90171,2,0,P|397:272|391:235,1,90,8|0,0:0|0:0,0:0:0:0:
192,123,90514,6,0,P|254:151|363:95,1,180,0|8,0:0|0:0,0:0:0:0:
266,39,91028,1,0,0:0:0:0:
199,210,91200,2,0,L|163:303,1,90
405,278,91542,2,0,L|355:193,1,90,8|0,0:0|0:0,0:0:0:0:
275,268,91885,5,0,0:0:0:0:
438,189,92057,1,0,0:0:0:0:
286,90,92228,2,0,P|290:140|325:170,1,90,8|0,0:0|0:0,0:0:0:0:
360,49,92571,2,0,P|301:10|209:58,1,180,0|8,0:0|0:0,0:0:0:0:
163,81,93000,2,0,P|172:129|141:182,1,90,8|0,0:0|0:0,0:0:0:0:
191,208,93257,6,0,P|181:256|213:309,2,90,0|0|8,0:0|0:0|0:0,0:0:0:0:
287,321,93771,2,0,L|108:339,1,180
311,242,94285,2,0,L|400:233,1,90,8|0,0:0|0:0,0:0:0:0:
370,317,94628,5,0,0:0:0:0:
266,180,94800,1,0,0:0:0:0:
435,163,94971,2,0,P|473:200|479:246,1,90,8|0,0:0|0:0,0:0:0:0:
303,97,95314,2,0,P|316:45|342:22,1,90
311,241,95657,2,0,P|259:255|226:244,1,90,8|0,0:0|0:0,0:0:0:0:
158,160,96000,5,0,0:0:0:0:
89,243,96171,1,0,0:0:0:0:
156,327,96342,1,8,0:0:0:0:
158,160,96514,2,0,P|74:137|-4:188,1,180
226,244,97028,2,0,P|260:200|265:163,1,90,8|0,0:0|0:0,0:0:0:0:
158,160,97371,5,0,0:0:0:0:
301,290,97542,1,0,0:0:0:0:
343,100,97714,2,0,L|299:12,1,90,8|0,0:0|0:0,0:0:0:0:
356,188,98057,2,0,L|454:193,1,90
266,161,98400,2,0,L|238:202,1,45,8|8,0:0|0:0,0:0:0:0:
80,67,98742,6,0,P|79:134|182:199,1,180,4|8,0:0|0:0,0:0:0:0:
171,101,99257,1,0,0:0:0:0:
85,262,99428,2,0,L|120:348,1,90
218,303,99771,2,0,P|267:343|310:346,1,90,8|0,0:0|0:0,0:0:0:0:
307,240,100114,5,0,0:0:0:0:
201,217,100285,1,0,0:0:0:0:
307,240,100457,2,0,P|362:238|390:216,1,90,8|0,0:0|0:0,0:0:0:0:
201,217,100800,2,0,P|146:219|118:241,1,90
188,321,101142,1,8,0:0:0:0:
265,175,101314,6,0,P|264:121|165:42,1,180
162,150,101828,1,8,0:0:0:0:
256,270,102000,1,0,0:0:0:0:
362,160,102171,2,0,L|382:67,1,90
178,230,102514,2,0,L|158:323,1,90,8|0,0:0|0:0,0:0:0:0:
61,269,102857,6,0,P|42:318|7:346,2,90,0|0|8,0:0|0:0|0:0,0:0:0:0:
178,231,103371,2,0,P|232:259|342:204,1,180
249,148,103885,1,8,0:0:0:0:
249,148,103971,1,8,0:0:0:0:
249,148,104228,6,0,P|168:124|87:171,1,180,0|8,0:0|0:0,0:0:0:0:
26,257,104742,1,0,0:0:0:0:
0,101,104914,2,0,L|102:65,1,90
175,199,105257,2,0,L|73:163,1,90,8|0,0:0|0:0,0:0:0:0:
174,101,105600,5,0,0:0:0:0:
273,228,105771,1,0,0:0:0:0:
113,252,105942,1,8,0:0:0:0:
245,148,106114,2,0,P|291:144|335:171,1,90
143,321,106457,2,0,P|97:325|53:298,1,90,0|8,0:0|0:0,0:0:0:0:
191,233,106800,1,0,0:0:0:0:
315,346,106971,6,0,L|504:311,1,180,0|8,0:0|0:0,0:0:0:0:
326,246,107485,1,0,0:0:0:0:
305,274,107657,2,0,L|210:291,1,90
263,157,108000,2,0,P|352:137|426:205,1,180,8|8,0:0|3:0,0:0:0:0:
130,31,108685,5,8,3:0:0:0:
153,173,108857,1,8,3:0:0:0:
266,84,109028,1,8,3:0:0:0:
89,124,109200,1,4,3:0:0:0:
89,124,109285,1,4,3:0:0:0:
89,124,109371,2,0,P|74:172|86:218,1,90,4|0,3:0|0:0,0:0:0:0:
184,308,109714,6,0,P|260:328|352:265,1,180,4|8,0:0|0:0,0:0:0:0:
250,223,110228,1,0,0:0:0:0:
276,118,110400,2,0,P|314:135|345:172,1,90
412,332,110742,2,0,P|375:316|344:279,1,90,8|0,0:0|0:0,0:0:0:0:
291,32,111085,6,0,P|364:119|345:172,1,180,0|8,0:0|0:0,0:0:0:0:
250,223,111600,1,0,0:0:0:0:
144,202,111771,2,0,P|93:197|35:200,1,90
250,223,112114,2,0,P|301:228|359:225,1,90,8|0,0:0|0:0,0:0:0:0:
450,98,112457,6,0,P|425:158|465:266,1,180,0|8,0:0|0:0,0:0:0:0:
378,332,112971,1,0,0:0:0:0:
270,323,113142,2,0,B|225:310|225:310|187:266,1,90
149,123,113485,2,0,B|194:136|194:136|232:180,1,90,8|0,0:0|0:0,0:0:0:0:
270,323,113828,6,0,P|304:268|418:250,1,180,0|8,0:0|0:0,0:0:0:0:
373,348,114342,1,0,0:0:0:0:
228,236,114514,2,0,P|172:233|131:245,1,90
14,349,114857,2,0,P|70:352|111:340,1,90,8|0,0:0|0:0,0:0:0:0:
139,241,115200,5,0,0:0:0:0:
89,146,115371,1,0,0:0:0:0:
177,32,115542,1,8,0:0:0:0:
231,165,115714,1,0,0:0:0:0:
89,146,115885,1,0,0:0:0:0:
177,32,116057,1,0,0:0:0:0:
231,165,116228,2,0,P|288:159|327:140,1,90,8|0,0:0|0:0,0:0:0:0:
375,54,116571,6,0,P|430:58|470:75,1,90
501,171,116914,2,0,P|499:238|470:289,1,90,8|0,0:0|0:0,0:0:0:0:
402,320,117257,1,0,0:0:0:0:
209,297,117428,2,0,P|247:288|298:290,1,90,0|8,0:0|0:0,0:0:0:0:
402,320,117771,1,0,0:0:0:0:
263,195,117942,6,0,P|251:143|264:90,1,90
358,143,118285,1,8,0:0:0:0:
452,90,118457,2,0,P|464:142|451:195,1,90
358,143,118800,1,0,0:0:0:0:
256,107,118971,1,8,0:0:0:0:
159,153,119142,1,0,0:0:0:0:
67,94,119314,6,0,P|47:156|131:255,1,180,0|8,0:0|0:0,0:0:0:0:
159,153,119828,1,0,0:0:0:0:
211,58,120000,2,0,P|269:148|249:210,1,180,0|8,0:0|0:0,0:0:0:0:
218,255,120428,2,0,P|207:305|231:348,1,90,8|0,0:0|0:0,0:0:0:0:
273,355,120685,6,0,P|325:359|374:354,1,90,4|0,0:0|0:0,0:0:0:0:
449,290,121028,1,8,0:0:0:0:
404,191,121200,1,0,0:0:0:0:
466,103,121371,2,0,P|414:80|360:88,1,90
303,155,121714,2,0,P|249:176|217:174,1,90,8|0,0:0|0:0,0:0:0:0:
65,144,122057,6,0,B|111:138|151:147|151:147|161:124|184:111,1,135
217,174,122400,2,0,P|249:176|303:155,1,90,8|0,0:0|0:0,0:0:0:0:
364,66,122742,2,0,P|405:119|370:242,1,180,0|8,0:0|0:0,0:0:0:0:
285,264,123257,1,0,0:0:0:0:
35,233,123428,6,0,P|135:184|193:206,1,180,0|8,0:0|0:0,0:0:0:0:
126,293,123942,1,0,0:0:0:0:
35,233,124114,2,0,P|30:180|53:130,1,90
126,293,124457,2,0,P|131:346|108:396,1,90,8|0,0:0|0:0,0:0:0:0:
35,233,124800,6,0,P|135:184|193:206,1,180,0|8,0:0|0:0,0:0:0:0:
232,307,125314,1,0,0:0:0:0:
331,349,125485,2,0,P|384:356|448:343,1,90
482,221,125828,2,0,P|429:214|365:227,1,90,8|0,0:0|0:0,0:0:0:0:
251,249,126171,6,0,P|194:258|132:206,1,135
208,178,126514,2,0,P|176:140|186:60,1,135,8|0,0:0|0:0,0:0:0:0:
250,109,126857,2,0,P|280:73|376:76,1,135
324,139,127200,2,0,P|385:146|440:87,1,135,8|0,0:0|0:0,0:0:0:0:
363,68,127542,6,0,P|280:73|250:109,1,135
186,60,127885,2,0,P|176:140|208:178,1,135,8|0,0:0|0:0,0:0:0:0:
135,213,128228,2,0,P|197:255|284:207,1,180,0|8,0:0|0:0,0:0:0:0:
305,104,128742,1,0,0:0:0:0:
216,41,128914,6,0,L|116:34,1,90
31,86,129257,2,0,P|14:136|34:192,1,90,8|0,0:0|0:0,0:0:0:0:
109,234,129600,2,0,L|209:241,1,90
305,252,129942,2,0,P|299:283|262:329,1,90,8|0,0:0|0:0,0:0:0:0:
262,142,130285,5,0,0:0:0:0:
262,142,130457,1,0,0:0:0:0:
359,95,130800,1,0,0:0:0:0:
359,95,130971,2,0,L|470:119,1,90,8|0,0:0|0:0,0:0:0:0:
262,142,131314,2,0,L|151:118,1,90,8|0,0:0|0:0,0:0:0:0:
97,46,131657,5,4,0:0:0:0:
256,48,142628,5,4,0:0:0:0:
256,72,143142,1,4,0:0:0:0:
256,272,144000,5,2,0:0:0:0:
256,272,144171,2,0,P|192:316|112:316,1,153.000002918243,2|0,0:0|0:0,0:0:0:0:
32,232,144685,2,0,P|24:188|28:156,1,76.5000014591217,2|0,0:0|0:0,0:0:0:0:
140,52,145028,2,0,P|148:96|144:128,1,76.5000014591217,2|0,0:0|0:0,0:0:0:0:
104,276,145371,5,4,0:0:0:0:
84,292,145885,1,4,0:0:0:0:
256,360,146742,5,2,0:0:0:0:
256,360,146914,2,0,P|332:368|392:320,1,153.000002918243,2|0,0:0|0:0,0:0:0:0:
320,224,147428,2,0,P|325:192|312:150,1,76.5000014591217,2|0,0:0|0:0,0:0:0:0:
156,168,147771,2,0,P|180:188|223:197,1,76.5000014591217,2|0,0:0|0:0,0:0:0:0:
408,108,148114,5,4,0:0:0:0:
428,92,148628,1,4,0:0:0:0:
240,60,149485,5,2,0:0:0:0:
240,60,149657,2,0,B|156:84|176:180,1,153.000002918243,2|0,0:0|0:0,0:0:0:0:
252,276,150171,2,0,L|340:256,1,76.5000014591217,2|0,0:0|0:0,0:0:0:0:
448,120,150514,2,0,L|373:136,1,76.5000014591217,2|0,0:0|0:0,0:0:0:0:
256,156,150857,5,4,3:0:0:0:
104,184,151028,1,4,3:0:0:0:
244,248,151200,1,4,3:0:0:0:
172,116,151371,1,4,3:0:0:0:
148,268,151542,5,4,3:0:0:0:
300,292,151714,1,4,3:0:0:0:
324,140,151885,1,4,3:0:0:0:
172,116,152057,1,4,3:0:0:0:
300,292,152228,6,0,P|326:320|380:344,1,99.0000030212403,2|0,0:0|0:0,0:0:0:0:
504,184,152571,2,0,P|504:132|476:92,1,99.0000030212403,2|0,0:0|0:0,0:0:0:0:
236,214,152914,6,2,P|184:301|301:290,1,270.000010299683
416,48,153428,1,8,0:0:0:0:
180,24,153600,6,0,P|150:49|146:109,1,99.0000030212403,4|0,0:0|0:0,0:0:0:0:
236,214,153942,1,8,0:0:0:0:
345,139,154114,2,0,L|252:108,1,99.0000030212403
224,296,154457,2,0,P|280:284|308:252,2,99.0000030212403,0|8|0,0:0|0:0|0:0,0:0:0:0:
108,264,154971,6,0,P|56:240|4:248,1,99.0000030212403
40,360,155314,1,8,0:0:0:0:
208,216,155485,2,0,P|240:132|204:32,1,198.000006042481
88,44,156000,2,0,L|-12:64,1,99.0000030212403,8|0,0:0|0:0,0:0:0:0:
116,232,156342,6,0,P|144:288|184:304,1,99.0000030212403
228,196,156685,1,8,0:0:0:0:
280,88,156857,2,0,P|310:102|338:158,1,99.0000030212403
116,232,157200,2,0,L|76:140,1,99.0000030212403,0|8,0:0|0:0,0:0:0:0:
157,29,157542,5,0,0:0:0:0:
157,29,157628,1,0,0:0:0:0:
157,29,157714,2,0,P|208:36|246:72,1,99.0000030212403
243,185,158057,2,0,P|294:178|328:147,1,99.0000030212403,8|0,0:0|0:0,0:0:0:0:
162,123,158400,2,0,P|142:170|151:215,1,99.0000030212403
256,332,158742,1,8,0:0:0:0:
256,332,158828,1,8,0:0:0:0:
256,332,158914,1,0,0:0:0:0:
364,280,159085,6,0,P|412:256|460:256,1,99.0000030212403
440,372,159428,1,8,0:0:0:0:
256,332,159600,2,0,P|220:240|256:152,1,198.000006042481
340,68,160114,1,8,0:0:0:0:
452,104,160285,1,0,0:0:0:0:
492,216,160457,6,0,P|436:224|384:200,1,99.0000030212403
284,168,160800,2,0,P|245:153|189:161,1,99.0000030212403,8|0,0:0|0:0,0:0:0:0:
220,276,161142,1,0,0:0:0:0:
340,68,161314,1,0,0:0:0:0:
127,111,161485,2,0,P|109:158|125:207,1,99.0000030212403,8|0,0:0|0:0,0:0:0:0:
220,276,161828,6,0,L|323:286,1,99.0000030212403
436,292,162171,1,8,0:0:0:0:
344,116,162342,2,0,P|298:144|273:186,1,99.0000030212403
386,226,162685,1,0,0:0:0:0:
492,80,162857,2,0,P|468:28|428:4,1,99.0000030212403,8|0,0:0|0:0,0:0:0:0:
316,20,163200,5,0,0:0:0:0:
208,68,163371,2,0,P|148:88|104:88,1,99.0000030212403,0|8,0:0|0:0,0:0:0:0:
8,32,163714,1,0,0:0:0:0:
88,200,163885,2,0,L|136:288,1,99.0000030212403
304,348,164228,1,8,0:0:0:0:
304,348,164314,1,8,0:0:0:0:
304,348,164400,1,0,0:0:0:0:
393,269,164571,6,0,P|308:227|199:286,1,198.000006042481,4|8,0:0|0:0,0:0:0:0:
304,348,165085,1,0,0:0:0:0:
367,166,165257,2,0,L|399:70,1,99.0000030212403
211,69,165600,2,0,L|247:175,1,99.0000030212403,8|0,0:0|0:0,0:0:0:0:
312,86,165942,5,0,0:0:0:0:
145,143,166114,1,0,0:0:0:0:
275,263,166285,1,8,0:0:0:0:
211,69,166457,2,0,P|123:46|48:120,1,198.000006042481
191,230,166971,2,0,P|233:188|242:142,1,99.0000030212403,8|0,0:0|0:0,0:0:0:0:
103,251,167314,6,0,P|148:310|196:318,1,99.0000030212403
275,263,167657,1,8,0:0:0:0:
269,381,167828,1,0,0:0:0:0:
269,381,167914,1,0,0:0:0:0:
269,381,168000,1,0,0:0:0:0:
168,317,168171,1,0,0:0:0:0:
174,198,168342,2,0,P|235:151|351:177,1,198.000006042481,8|0,0:0|0:0,0:0:0:0:
275,263,168857,5,0,0:0:0:0:
141,265,169028,2,0,P|102:228|100:180,1,99.0000030212403,8|0,0:0|0:0,0:0:0:0:
371,119,169371,2,0,P|410:156|412:204,1,99.0000030212403
272,120,169714,1,8,0:0:0:0:
272,120,169800,1,8,0:0:0:0:
489,184,169971,5,0,0:0:0:0:
489,184,170057,2,0,L|508:295,1,99.0000030212403
413,356,170400,1,8,0:0:0:0:
322,280,170571,2,0,P|269:254|151:315,1,198.000006042481
351,366,171085,2,0,L|415:283,1,99.0000030212403,8|0,0:0|0:0,0:0:0:0:
346,187,171428,5,0,0:0:0:0:
249,347,171600,1,0,0:0:0:0:
160,183,171771,1,8,0:0:0:0:
166,187,171942,5,0,0:0:0:0:
263,347,172114,1,0,0:0:0:0:
352,183,172285,1,0,0:0:0:0:
179,280,172457,2,0,P|132:277|90:246,1,99.0000030212403,8|0,0:0|0:0,0:0:0:0:
183,91,172800,6,0,P|249:139|234:256,1,198.000006042481,0|8,0:0|0:0,0:0:0:0:
107,135,173314,1,0,0:0:0:0:
303,75,173485,2,0,L|407:100,1,99.0000030212403
273,193,173828,2,0,L|169:168,1,99.0000030212403,8|0,0:0|0:0,0:0:0:0:
42,306,174171,5,0,0:0:0:0:
150,258,174342,1,0,0:0:0:0:
250,319,174514,2,0,P|310:324|350:296,1,99.0000030212403,8|0,0:0|0:0,0:0:0:0:
462,205,174857,2,0,P|402:200|362:228,1,99.0000030212403
255,168,175200,1,8,0:0:0:0:
255,168,175285,2,0,P|223:186|163:181,1,99.0000030212403,8|0,0:0|0:0,0:0:0:0:
117,200,175542,2,0,P|57:193|16:215,1,99.0000030212403,4|0,0:0|0:0,0:0:0:0:
80,297,175885,5,0,0:0:0:0:
182,358,176057,1,0,0:0:0:0:
262,271,176228,2,0,P|254:214|218:175,1,99.0000030212403,0|0,0:0|0:0,0:0:0:0:
279,22,176571,2,0,P|287:79|323:118,1,99.0000030212403,8|0,0:0|0:0,0:0:0:0:
196,83,176914,6,0,L|90:68,2,99.0000030212403,0|0|8,0:0|0:0|0:0,0:0:0:0:
368,43,177428,2,0,L|474:58,1,99.0000030212403
356,170,177771,1,0,0:0:0:0:
244,62,177942,2,0,L|138:47,1,99.0000030212403,0|0,0:0|0:0,0:0:0:0:
2,153,178285,6,0,P|24:212|148:231,1,198.000006042481,0|8,0:0|0:0,0:0:0:0:
98,149,178800,1,0,0:0:0:0:
65,317,178971,1,0,0:0:0:0:
164,380,179142,1,0,0:0:0:0:
245,293,179314,1,8,0:0:0:0:
65,317,179485,1,0,0:0:0:0:
245,293,179657,6,0,P|274:231|219:123,1,198.000006042481,0|8,0:0|0:0,0:0:0:0:
164,219,180171,1,0,0:0:0:0:
317,120,180342,2,0,L|405:63,1,99.0000030212403
392,283,180685,2,0,L|325:263,1,49.5000015106202,8|8,0:0|0:0,0:0:0:0:
182,336,180942,5,0,0:0:0:0:
182,336,181028,2,0,P|120:352|80:337,1,99.0000030212403
130,230,181371,1,8,0:0:0:0:
248,235,181542,1,0,0:0:0:0:
248,235,181628,1,0,0:0:0:0:
248,235,181714,2,0,P|287:274|300:331,1,99.0000030212403
130,230,182057,2,0,P|147:171|177:143,1,99.0000030212403,8|0,0:0|0:0,0:0:0:0:
290,165,182400,6,0,B|337:206|397:175|397:175|482:174,1,198.000006042481,0|8,0:0|0:0,0:0:0:0:
408,39,182914,2,0,B|359:-1|301:29|301:29|216:30,1,198.000006042481
349,102,183428,2,0,P|402:125|455:111,1,99.0000030212403,8|0,0:0|0:0,0:0:0:0:
500,272,183771,5,0,0:0:0:0:
390,227,183942,1,0,0:0:0:0:
285,283,184114,1,8,0:0:0:0:
178,230,184285,1,0,0:0:0:0:
178,230,184371,1,0,0:0:0:0:
178,230,184457,2,0,P|167:179|188:131,1,99.0000030212403
285,283,184800,2,0,P|237:334|115:332,1,198.000006042481,8|0,0:0|0:0,0:0:0:0:
178,230,185314,5,0,0:0:0:0:
275,162,185485,2,0,L|385:185,1,99.0000030212403,8|0,0:0|0:0,0:0:0:0:
178,230,185828,2,0,L|68:207,1,99.0000030212403
170,102,186171,1,8,0:0:0:0:
170,102,186257,2,0,P|226:101|270:77,1,99.0000030212403,8|0,0:0|0:0,0:0:0:0:
313,100,186514,6,0,P|350:81|406:80,1,99.0000030212403,4|0,0:0|0:0,0:0:0:0:
383,197,186857,1,8,0:0:0:0:
264,206,187028,2,0,P|212:158|217:38,1,198.000006042481
383,197,187542,2,0,P|372:260|341:294,1,99.0000030212403
236,320,187885,5,0,0:0:0:0:
130,264,188057,1,0,0:0:0:0:
46,348,188228,1,8,0:0:0:0:
130,264,188400,1,0,0:0:0:0:
130,264,188485,1,0,0:0:0:0:
130,264,188571,2,0,P|138:213|122:166,1,99.0000030212403
25,101,188914,2,0,P|99:142|201:96,1,198.000006042481,8|0,0:0|0:0,0:0:0:0:
112,28,189428,5,0,0:0:0:0:
246,164,189600,1,8,0:0:0:0:
341,94,189771,1,0,0:0:0:0:
423,179,189942,2,0,P|428:235|398:282,1,99.0000030212403
341,94,190285,2,0,P|336:38|366:-9,1,99.0000030212403,8|0,0:0|0:0,0:0:0:0:
335,186,190628,5,0,0:0:0:0:
231,245,190800,1,0,0:0:0:0:
152,155,190971,2,0,P|137:102|159:50,1,99.0000030212403,8|0,0:0|0:0,0:0:0:0:
231,245,191314,2,0,P|246:298|224:350,1,99.0000030212403
153,233,191657,1,8,0:0:0:0:
153,233,191742,2,0,L|235:161,1,99.0000030212403,8|0,0:0|0:0,0:0:0:0:
280,180,192000,6,0,P|335:187|373:164,1,99.0000030212403
308,65,192342,1,8,0:0:0:0:
194,102,192514,2,0,P|165:169|223:281,1,198.000006042481
327,315,193028,2,0,L|429:294,1,99.0000030212403,8|0,0:0|0:0,0:0:0:0:
215,276,193371,6,0,L|113:297,1,99.0000030212403
250,357,193714,1,8,0:0:0:0:
294,234,193885,1,0,0:0:0:0:
294,234,193971,1,0,0:0:0:0:
294,234,194057,2,0,P|294:176|272:138,1,99.0000030212403
184,99,194400,1,8,0:0:0:0:
368,152,194571,1,0,0:0:0:0:
454,104,194742,6,0,P|463:48|440:5,1,99.0000030212403
368,152,195085,1,8,0:0:0:0:
302,77,195257,2,0,P|244:46|115:86,1,198.000006042481
162,242,195771,2,0,P|207:189|212:158,1,99.0000030212403,8|0,0:0|0:0,0:0:0:0:
73,219,196114,6,0,L|106:319,1,99.0000030212403,4|0,3:0|0:0,0:0:0:0:
304,343,196457,1,8,3:0:0:0:
304,198,196628,1,8,3:0:0:0:
219,315,196800,1,8,3:0:0:0:
356,270,196971,1,4,3:0:0:0:
356,270,197057,1,4,3:0:0:0:
356,270,197142,1,4,3:0:0:0:
219,226,197314,5,4,3:0:0:0:
219,226,197400,1,4,3:0:0:0:
219,226,197485,2,0,P|223:161|337:116,1,180,4|8,0:0|0:0,0:0:0:0:
408,168,198000,1,0,0:0:0:0:
304,198,198171,2,0,P|327:242|386:268,1,90
510,134,198514,2,0,P|487:90|428:64,1,90,8|0,0:0|0:0,0:0:0:0:
218,215,198857,6,0,P|297:284|360:263,1,180,0|8,0:0|0:0,0:0:0:0:
408,168,199371,1,0,0:0:0:0:
304,198,199542,2,0,L|238:378,1,180,0|8,0:0|0:0,0:0:0:0:
168,286,200057,1,0,0:0:0:0:
360,344,200228,6,0,B|416:344|416:344|456:324,1,90
472,148,200571,2,0,B|416:148|416:148|376:168,1,90,8|0,0:0|0:0,0:0:0:0:
340,264,200914,2,0,B|396:264|396:264|436:244,1,90
452,68,201257,2,0,B|396:68|396:68|356:88,1,90,8|0,0:0|0:0,0:0:0:0:
312,180,201600,6,8,B|284:220|228:220|228:220|116:220,1,180
60,152,202114,1,0,0:0:0:0:
104,52,202285,2,0,B|132:12|188:12|188:12|300:12,1,180,0|8,0:0|0:0,0:0:0:0:
319,37,202714,2,0,P|340:81|335:130,1,90,8|0,0:0|0:0,0:0:0:0:
311,168,202971,6,0,P|302:218|313:257,1,90
411,212,203314,1,8,0:0:0:0:
398,319,203485,1,0,0:0:0:0:
312,255,203657,1,0,0:0:0:0:
299,362,203828,1,0,0:0:0:0:
211,297,204000,2,0,P|193:248|205:194,1,90,8|0,0:0|0:0,0:0:0:0:
257,121,204342,6,0,P|274:65|266:26,1,90
165,64,204685,1,8,0:0:0:0:
257,121,204857,1,0,0:0:0:0:
362,101,205028,2,0,P|426:99|467:125,1,90
504,202,205371,1,8,0:0:0:0:
484,307,205542,1,0,0:0:0:0:
389,360,205714,6,0,P|339:365|300:345,1,90
256,248,206057,1,8,0:0:0:0:
209,151,206228,2,0,P|174:134|124:139,1,90
25,183,206571,1,0,0:0:0:0:
256,248,206742,2,0,P|294:219|310:171,1,90,8|0,0:0|0:0,0:0:0:0:
209,151,207085,5,0,0:0:0:0:
396,209,207257,2,0,P|399:167|373:115,1,90,0|8,0:0|0:0,0:0:0:0:
209,151,207600,1,0,0:0:0:0:
465,91,207771,2,0,P|435:52|312:62,1,180,0|8,0:0|0:0,0:0:0:0:
262,71,208200,2,0,P|217:70|179:44,1,90,8|0,0:0|0:0,0:0:0:0:
128,32,208457,6,0,P|67:41|33:77,1,90,4|0,0:0|0:0,0:0:0:0:
21,163,208800,1,8,0:0:0:0:
81,252,208971,1,0,0:0:0:0:
183,221,209142,2,0,P|170:188|129:155,1,90
158,327,209485,1,8,0:0:0:0:
272,161,209657,6,0,P|353:137|440:223,1,180
435,295,210171,1,8,0:0:0:0:
338,248,210342,2,0,L|367:67,1,180
272,124,210857,2,0,P|214:126|162:109,1,90
74,23,211200,6,0,P|93:85|36:202,1,180,0|8,0:0|0:0,0:0:0:0:
128,265,211714,1,0,0:0:0:0:
235,266,211885,2,0,P|224:214|187:177,1,90
128,265,212228,1,8,0:0:0:0:
160,97,212400,6,0,B|209:79|252:103|252:103|293:121|345:98,1,180
420,36,212914,1,8,0:0:0:0:
489,118,213085,2,0,P|500:174|485:226,1,90
358,354,213428,2,0,P|347:298|362:246,1,90,0|8,0:0|0:0,0:0:0:0:
373,216,213685,2,0,P|383:166|371:117,1,90,8|0,0:0|0:0,0:0:0:0:
327,104,213942,6,0,P|272:98|226:99,1,90
103,152,214285,1,8,0:0:0:0:
241,192,214457,1,0,0:0:0:0:
173,65,214628,2,0,P|91:40|3:111,1,180,0|8,0:0|0:0,0:0:0:0:
3,194,215142,1,0,0:0:0:0:
101,239,215314,6,0,P|111:205|103:152,1,90
13,301,215657,2,0,P|51:336|104:346,1,90,8|0,0:0|0:0,0:0:0:0:
175,283,216000,2,0,P|163:179|103:152,1,180,0|8,0:0|0:0,0:0:0:0:
3,194,216514,1,0,0:0:0:0:
175,283,216685,6,0,L|274:288,1,90
337,206,217028,1,0,0:0:0:0:
441,235,217200,2,0,P|470:190|468:140,1,90
337,206,217542,1,0,0:0:0:0:
233,175,217714,2,0,P|204:220|206:270,1,90,8|0,0:0|0:0,0:0:0:0:
337,206,218057,5,0,0:0:0:0:
405,343,218228,2,0,P|375:342|324:312,1,90,0|8,0:0|0:0,0:0:0:0:
337,206,218571,1,0,0:0:0:0:
309,74,218742,2,0,P|345:76|390:105,1,90
405,343,219085,2,0,P|375:342|324:312,1,90,8|0,0:0|0:0,0:0:0:0:
208,192,219428,6,0,P|201:152|208:112,1,76.5000014591217,4|0,0:0|0:0,0:0:0:0:
310,76,219771,2,0,P|316:115|310:156,1,76.5000014591217,2|0,0:0|0:0,0:0:0:0:
160,260,220114,2,0,P|80:284|32:348,1,153.000002918243,2|0,0:0|0:0,0:0:0:0:
156,364,220628,6,0,P|236:340|278:288,1,153.000002918243,2|0,0:0|0:0,0:0:0:0:
292,164,221142,2,0,L|212:144,1,76.5000014591217,2|0,0:0|0:0,0:0:0:0:
108,88,221485,1,2,0:0:0:0:
128,240,221657,1,0,0:0:0:0:
292,164,221828,2,0,L|364:124,1,76.5000014591217,8|0,0:0|0:0,0:0:0:0:
228,80,222171,6,0,P|188:160|208:228,1,153.000002918243,4|0,0:0|0:0,0:0:0:0:
264,288,222685,1,0,0:0:0:0:
356,292,222857,2,0,P|388:312|404:352,2,76.5000014591217,0|0|2,0:0|0:0|0:0,0:0:0:0:
264,288,223371,6,0,B|228:332|172:332|172:332|116:332,1,153.000002918243,0|0,0:0|0:0,0:0:0:0:
48,236,223885,2,0,L|128:236,1,76.5000014591217,2|0,0:0|0:0,0:0:0:0:
228,172,224228,1,0,0:0:0:0:
156,36,224400,1,0,0:0:0:0:
12,92,224571,2,0,P|4:132|12:168,1,76.5000014591217,8|0,0:0|0:0,0:0:0:0:
100,314,224914,6,0,P|144:242|124:174,1,153.000002918243,4|0,0:0|0:0,0:0:0:0:
48,236,225428,2,0,P|140:264|224:272,1,153.000002918243,2|0,0:0|0:0,0:0:0:0:
288,260,225942,2,0,P|312:224|316:184,1,76.5000014591217,2|0,0:0|0:0,0:0:0:0:
256,48,226285,5,12,0:0:0:0:
148,336,226628,1,0,0:0:0:0:
148,336,226800,2,0,B|228:308|212:208,1,153.000002918243,2|0,0:0|0:0,0:0:0:0:
104,184,227314,2,0,P|112:236|128:248,1,76.5000014591217,8|0,0:0|0:0,0:0:0:0:
300,304,227657,6,0,L|384:296,1,76.5000014591217,4|0,3:0|0:0,0:0:0:0:
468,288,228000,1,4,3:0:0:0:
364,200,228171,2,0,L|280:192,1,76.5000014591217,0|4,0:0|3:0,0:0:0:0:
196,184,228514,1,0,0:0:0:0:
64,216,228685,2,0,P|52:260|60:296,1,76.5000014591217,4|0,3:0|0:0,0:0:0:0:
196,184,229028,6,0,P|208:140|200:104,1,76.5000014591217,4|0,3:0|0:0,0:0:0:0:
64,216,229371,2,0,L|128:264,1,76.5000014591217,4|0,3:0|0:0,0:0:0:0:
236,312,229714,2,0,P|312:320|364:264,1,153.000002918243,0|8,0:0|0:0,0:0:0:0:
376,180,230228,1,8,0:0:0:0:
304,100,230400,6,0,P|264:176|282:236,1,153.000002918243,4|0,0:0|0:0,0:0:0:0:
456,263,230914,2,0,P|496:187|477:126,1,153.000002918243,4|0,0:0|0:0,0:0:0:0:
400,52,231428,1,0,0:0:0:0:
304,100,231600,6,0,P|224:128|148:112,1,153.000002918243,2|0,0:0|0:0,0:0:0:0:
64,68,232114,2,0,P|16:88|4:116,1,76.5000014591217,2|0,0:0|0:0,0:0:0:0:
92,172,232457,2,0,P|60:213|64:243,1,76.5000014591217,2|0,0:0|0:0,0:0:0:0:
168,240,232800,2,0,P|161:291|179:315,1,76.5000014591217,8|0,0:0|0:0,0:0:0:0:
272,272,233142,6,0,P|356:268|404:216,1,153.000002918243,4|0,0:0|0:0,0:0:0:0:
340,64,233657,2,0,P|256:68|210:114,1,153.000002918243,4|0,0:0|0:0,0:0:0:0:
304,164,234171,1,0,0:0:0:0:
404,108,234342,6,0,P|421:170|383:245,1,153.000002918243,2|0,0:0|0:0,0:0:0:0:
304,320,234857,2,0,P|256:320|220:304,1,76.5000014591217,2|0,0:0|0:0,0:0:0:0:
232,204,235200,2,0,P|184:204|148:220,1,76.5000014591217,2|0,0:0|0:0,0:0:0:0:
80,288,235542,2,0,P|24:232|28:184,1,114.750002188683,8|0,0:0|0:0,0:0:0:0:
28,164,235885,6,0,P|61:92|131:62,1,153.000002918243,4|0,0:0|0:0,0:0:0:0:
253,176,236400,2,0,P|219:247|149:277,1,153.000002918243,4|0,0:0|0:0,0:0:0:0:
208,100,236914,1,0,0:0:0:0:
320,52,237085,6,0,P|396:64|448:120,1,153.000002918243,2|0,0:0|0:0,0:0:0:0:
404,216,237600,2,0,P|320:244|260:284,1,153.000002918243,2|0,0:0|0:0,0:0:0:0:
196,336,238114,1,0,0:0:0:0:
108,316,238285,2,0,P|72:288|60:256,1,76.5000014591217,2|0,0:0|0:0,0:0:0:0:
60,152,238628,6,0,L|149:106,1,90,0|4,3:0|3:0,0:0:0:0:
256,248,238971,2,0,L|176:206,1,90,4|4,3:0|3:0,0:0:0:0:
312,88,239314,1,4,3:0:0:0:
492,72,239485,1,4,3:0:0:0:
352,188,239657,1,4,3:0:0:0:
392,12,239828,1,4,3:0:0:0:
464,176,240000,6,0,B|484:224|484:224|464:268,1,99.0000030212403,8|4,0:0|3:0,0:0:0:0:
280,340,240342,2,0,B|232:360|232:360|188:340,1,99.0000030212403,8|4,0:0|3:0,0:0:0:0:
60,244,240685,1,8,0:0:0:0:
160,72,240857,1,4,3:0:0:0:
260,244,241028,1,8,0:0:0:0:
88,148,241200,1,4,3:0:0:0:
256,44,241371,5,4,0:0:0:0:
