osu file format v9

[General]
AudioFilename: Cascada - What Hurts The Most (Topmodelz ReMix) Zcore ver.mp3
AudioLeadIn: 0
PreviewTime: 88165
Countdown: 0
SampleSet: Normal
StackLeniency: 0.3
Mode: 0
LetterboxInBreaks: 1

[Editor]
Bookmarks: 54190,65456,110521,133054,158401,158753
DistanceSpacing: 1.4
BeatDivisor: 4
GridSize: 8

[Metadata]
Title:What Hurts The Most (Nightcore Remix)
Artist:Cascada
Creator:Lunah
Version:cesc x Armin
Source:
Tags:topmodelz trance Rokodo deadbeat cesc armin jericho2442

[Difficulty]
HPDrainRate:5
CircleSize:5
OverallDifficulty:6
ApproachRate:6
SliderMultiplier:1.5
SliderTickRate:2

[Events]
//Background and Video events
0,0,"background.jpg"
//Break Periods
2,54390,64406
2,113538,132004
//Storyboard Layer 0 (Background)
//Storyboard Layer 1 (Fail)
//Storyboard Layer 2 (Pass)
//Storyboard Layer 3 (Foreground)
Sprite,Foreground,Centre,"sbwarn-slow.png",320,240 S,0,0,,0.7 F,0,154002,154178,0,1 F,0,154178,154354,1,0.2 F,0,154354,154530,0.2,1 F,0,154530,154706,1,0.2 F,0,154706,154882,0.2,1 F,0,154882,155058,1,0.2 F,0,155058,155234,0.2,1 F,0,155234,155404,1,0.2 F,0,155404,155585,0.2,1 M,0,155585,158401,110,320,75,245 F,0,158401,158577,1,0
//Storyboard Sound Samples
//Background Colour Transformations
3,100,163,162,255

[TimingPoints]
9125,352.071353127567,4,2,0,70,1,0
9829,-100,4,2,1,70,0,0
10445,-100,4,1,1,50,0,0
10621,-100,4,2,1,70,0,0
11853,-100,4,1,1,50,0,0
12029,-100,4,2,1,70,0,0
14670,-100,4,1,1,50,0,0
14846,-100,4,2,1,0,0,0
15022,-100,4,2,1,70,0,0
16078,-100,4,1,1,50,0,0
16254,-100,4,2,1,70,0,0
17486,-100,4,1,1,50,0,0
17662,-100,4,2,1,70,0,0
18894,-100,4,1,1,50,0,0
19071,-100,4,2,1,100,0,0
31657,-100,4,1,0,100,0,1
31745,-200,4,1,0,100,0,0
42307,-200,4,1,0,0,0,0
42659,-200,4,1,0,100,0,0
42923,-100,4,1,0,100,0,0
65368,-100,4,1,2,60,0,0
68184,-100,4,1,2,71,0,0
71001,-100,4,1,2,81,0,0
73818,-100,4,1,2,92,0,0
76722,-100,4,1,0,100,0,1
76810,-100,4,1,2,100,0,0
87636,-200,4,1,2,100,0,0
87988,-200,4,1,2,100,0,1
88253,-100,4,1,0,100,0,0
88341,-100,4,1,2,100,0,0
99255,-100,4,1,2,100,0,1
99343,-100,4,1,2,100,0,0
107704,-100,4,1,0,100,0,0
108057,-200,4,1,0,79,0,0
108409,-200,4,1,0,59,0,0
108761,-200,4,1,0,42,0,0
109113,-200,4,1,0,23,0,0
109465,-200,4,1,0,41,0,0
109817,-200,4,1,0,0,0,0
110169,-200,4,1,0,82,0,0
110433,-200,4,1,0,100,0,1
110697,-200,4,1,0,100,0,0
111049,-200,4,1,0,0,0,0
132790,-100,4,1,0,68,0,0
132966,-100,4,1,0,0,0,0
133142,-100,4,1,0,68,0,0
144232,-100,4,2,1,60,0,0
158403,-100,4,1,0,100,0,1
166058,-100,4,1,0,0,0,1
166410,-100,4,1,0,100,0,1
175300,-100,4,1,0,100,0,0
175564,-100,4,1,0,81,0,0
175916,-100,4,1,0,64,0,0
180933,-100,4,1,0,100,0,1
201265,-100,4,1,0,40,0,1
203290,-100,4,1,0,100,0,0
203466,-100,4,1,0,100,0,1
203554,-100,4,1,0,100,0,0

[HitObjects]
256,192,6308,8,2,9125
408,88,9829,6,0,B|432:136|397:175|397:175,1,75
344,224,10181,2,0,B|320:272|355:311|355:311,1,75
256,280,10533,2,0,B|208:202|122:242|122:242,1,150,4|0
40,264,11061,1,0
40,264,11237,5,0
32,176,11413,1,0
32,176,11589,2,0,B|24:88|24:88,1,75
112,96,11941,2,0,B|160:72|240:104|256:176|200:232|107:167|130:101|208:56|256:88|256:88,1,300,4|2
416,208,13349,38,0,B|414:213|480:130|356:154|416:72,2,150,2|0|2
400,296,14230,1,2
328,240,14406,2,0,B|242:194|184:252|184:252,1,150,2|4
120,304,14934,5,0
112,216,15110,2,0,B|120:168|88:144|88:144,1,75,2|0
160,88,15462,2,0,B|171:41|216:32|216:32,1,75,2|0
256,112,15814,2,0,B|295:215|377:141|377:141,2,150,0|4|0
288,32,16694,1,0
288,32,16870,38,0,B|336:48|376:16|376:16,1,75
448,16,17222,2,0,B|448:96|448:96,1,75
376,144,17574,2,0,B|376:248|376:248,1,75,4|0
304,168,17926,2,0,B|272:240|272:240,1,75
232,152,18278,2,0,B|160:176|160:176,1,75
200,88,18630,2,0,B|128:64|128:64,1,75
40,32,18982,1,4
40,32,19687,2,2,B|99:113|-24:89|41:172|39:167,1,150
16,344,20391,5,2
104,360,20567,1,0
152,288,20743,2,0,B|232:336|296:280|296:280,1,150,10|2
376,240,21271,1,0
328,160,21447,2,0,B|240:112|304:32|304:32,1,150,10|0
376,80,21975,1,0
376,80,22151,2,0,B|208:128|208:128,1,150,10|2
144,88,22679,37,0
160,176,22855,2,0,B|229:245|168:312|168:312,1,150,10|2
104,248,23383,1,0
104,248,23559,2,0,B|280:240|280:240,1,150,10|10
344,232,24088,1,2
432,208,24264,1,10
448,120,24440,1,0
376,64,24616,5,4
136,64,24968,1,4
136,320,25320,1,4
376,320,25672,1,4
256,192,26024,38,0,B|216:112|256:48|256:48,1,150,4|2
320,112,26552,1,0
408,104,26728,1,2
408,104,26816,1,0
408,104,26904,5,2
472,168,27080,2,0,B|432:248|343:209|343:209,1,150,2|2
256,192,27608,1,2
168,174,27784,2,0,B|169:175|80:136|40:216,1,150,2|2
24,304,28312,2,0,B|96:344|112:256|168:304|168:304,1,150,2|2
256,320,28840,2,0,B|293:319|293:319|334:288|334:288,2,75,0|2|0
256,192,29545,8,0,31657
256,64,32713,37,0
360,56,33065,2,2,B|320:136|368:176|368:176,1,112.5
400,192,33769,2,2,B|328:272|328:144|264:200|264:200,1,150
168,240,34826,1,8
168,240,35178,5,8
176,184,35354,1,0
144,136,35530,1,0
88,120,35706,1,0
56,88,35882,2,2,B|88:48|128:120|176:88|176:88,1,112.5
144,48,36586,2,2,B|216:24|256:112|190:147|190:147,1,150
112,200,37642,1,8
112,200,37994,37,10
144,248,38170,1,0
136,304,38346,2,0,B|208:328|208:328,1,75
256,352,38875,1,0
256,296,39051,1,0
80,184,39403,5,2
256,168,39755,1,2
432,184,40107,2,2,B|384:192|376:256|424:280|424:280,1,112.5
440,240,40811,1,0
392,224,40987,1,0
376,176,41163,1,0
376,120,41339,1,0
352,72,41515,37,0
304,40,41691,1,0
248,48,41867,1,0
208,80,42043,2,0,B|160:112|192:160|192:160,1,75
185,145,42571,2,0,B|200:184|176:224,1,75
288,120,43275,5,0
376,96,43451,2,0,B|428:93|434:43|434:43,1,75
480,128,43804,2,0,B|480:208|480:208,1,75
424,272,44156,1,0
344,240,44332,2,2,B|254:366|152:271|152:271,1,225
240,240,45036,2,0,B|304:204|304:149|304:149,2,112.5,2|2|2
216,152,45740,38,0,B|56:152|56:152,2,150,2|0|0
304,160,46620,1,0
368,96,46796,2,0,B|520:96|520:96,2,150,0|2|0
288,48,47676,1,2
224,112,47852,2,0,B|160:72|160:72|160:24|160:24,2,112.5,2|2|2
144,152,48556,2,0,B|208:192|208:192|208:240|208:240,2,112.5,2|2|2
120,240,49261,1,6
120,240,49613,5,0
280,328,49965,1,0
448,264,50317,1,0
448,264,50493,1,0
416,184,50669,1,0
416,184,50845,1,0
328,176,51021,2,0,B|331:177|283:145|205:190|182:256|275:321|331:265|315:193|235:161|187:185,2,300
256,192,52781,8,4,54190
80,144,65456,5,4
160,336,65808,1,8
352,336,66160,1,0
432,144,66512,1,8
256,32,66864,1,0
184,80,67040,1,0
216,160,67216,1,8
296,160,67392,1,0
328,80,67568,1,0
320,249,67920,6,0,B|304:280|256:296|208:280|192:247,1,150,8|0
344,352,68625,1,8
168,352,68977,1,0
256,208,69329,1,8
120,112,69681,1,0
176,48,69857,1,0
256,24,70033,1,8
336,48,70209,1,0
392,112,70385,1,0
195,171,70737,38,0,B|209:136|261:114|304:136|320:180,2,150,0|4|0
316,279,71793,2,0,B|302:314|250:336|207:314|191:270,2,150,8|0|8
368,344,72673,1,0
296,384,72849,1,0
216,384,73025,1,0
144,344,73201,1,8
208,188,73554,6,0,B|203:167|199:145|177:148|155:153|155:153|151:130|147:109|124:113|102:117,1,150,0|4
303,188,74258,2,0,B|308:167|312:145|334:148|356:153|356:153|360:130|364:109|387:113|409:117,1,150,8|0
336,48,74786,1,0
256,96,74962,1,8
256,8,75138,1,0
176,48,75314,1,0
208,164,75578,2,4,B|232:192|256:192|280:192|306:161,1,112.5,0|0
379,194,76018,2,0,B|353:240|313:274|256:285|192:272|144:232|133:186,1,300,0|0
72,344,77074,37,8
256,40,77426,1,0
440,344,77778,1,8
256,256,78130,1,0
184,208,78307,1,0
216,128,78483,1,8
296,128,78659,1,0
328,208,78835,1,0
440,40,79187,5,8
256,344,79539,1,0
72,40,79891,1,8
317,194,80243,2,0,B|303:229|251:251|208:229|192:185,2,150,0|8|0
256,160,81123,1,0
216,88,81299,1,8
296,88,81475,1,0
256,160,81651,2,0,B|256:288,2,112.5
336,176,82355,38,0,B|392:176|384:240|384:288|448:264|448:264,1,150,0|8
256,352,83059,1,0
73,266,83412,2,0,B|118:279|138:222|118:172|186:176,1,150,8|0
216,104,83940,2,0,B|208:24,1,75,0|8
303,29,84292,2,0,B|296:104,1,75
296,272,84820,5,8
216,272,84996,1,0
185,343,85172,2,0,B|224:361|256:336|256:336|294:364|336:336,1,150,0|8
256,192,85876,1,0
174,175,86052,2,0,B|176:151|198:122|222:116,1,75,0|8
294,118,86404,2,0,B|313:122|335:151|337:175,1,75
312,40,86844,2,0,B|200:40|200:40,1,112.5
143,100,87284,2,0,B|155:148|197:189|260:204|328:189|360:140|373:85,1,300,0|4
456,240,88341,37,8
338,349,88693,2,0,B|336:325|314:296|290:290,1,75,0|0
218,292,89045,2,0,B|199:296|177:325|175:349,1,75,8|0
256,368,89397,1,0
56,240,89925,1,0
104,176,90101,2,0,B|111:132|152:112|192:120|192:120|208:88,1,150
256,24,90629,1,0
305,90,90805,2,0,B|320:120|320:120|360:112|401:132|408:176,1,150
344,344,91509,5,0
296,280,91685,1,0
216,280,91861,1,0
168,344,92037,1,0
136,264,92213,2,0,B|104:200|128:128|168:96|216:80|216:80,1,225
296,82,92917,2,0,B|344:96|378:132|410:199|374:268,1,225
317,322,93622,2,0,B|303:287|251:265|208:287|192:331,1,150
149,253,94150,37,0
216,206,94326,1,0
296,206,94502,1,0
363,253,94678,1,0
256,136,95030,1,0
189,86,95206,1,0
216,8,95382,1,0
296,8,95558,1,0
323,86,95734,1,0
222,205,96086,6,0,B|262:233|305:196,1,75
326,279,96438,2,0,B|254:332|167:267,1,150
112,312,96966,1,0
176,368,97142,1,0
256,384,97318,1,0
336,368,97494,1,0
400,312,97670,1,0
336,256,97846,1,0
256,232,98023,1,0
176,256,98199,1,0
341,79,98727,38,0,B|312:32|240:48|255:21|255:21|272:48|199:27|167:84,1,225
256,232,99607,1,0
256,232,99959,5,0
216,304,100135,2,0,B|206:381,1,75
305,378,100487,2,0,B|296:304,1,75
256,232,100839,1,0
216,160,101015,1,0
296,160,101191,1,0
256,88,101367,2,0,B|242:53|190:31|147:53|131:97,1,150
256,88,102071,2,0,B|270:53|322:31|365:53|381:97,1,150
256,200,102775,37,0
200,264,102952,1,0
256,328,103128,1,0
312,264,103304,1,0
376,216,103480,2,0,B|408:152|384:80|344:48|296:32|296:32,1,225
216,34,104184,2,0,B|168:48|134:84|102:151|138:220,1,225
56,232,104888,5,0
176,352,105240,1,0
336,352,105592,1,0
456,232,105944,1,0
320,136,106296,2,0,B|306:101|254:79|211:101|195:145,1,150
144,72,106824,1,0
216,24,107000,1,0
296,24,107176,1,0
368,72,107352,1,0
120,216,108057,6,0,B|120:312|224:312,1,150
256,272,108937,1,0
304,312,109113,2,0,B|392:312|392:208,2,150
256,272,110697,1,0
256,272,110873,1,0
256,192,110961,8,0,113338
256,192,133054,37,0
360,48,133406,1,2
272,64,133582,37,0
192,24,133758,2,2,B|88:32|96:128|96:128,1,150,2|0
96,208,134286,2,0,B|88:256|96:288|96:288,1,75,0|8
176,328,134638,2,0,B|184:280|176:248|176:248,1,75,0|8
168,160,134990,1,0
256,192,135166,2,2,B|343:239|388:167|388:167,1,150,2|0
424,80,135694,5,0
424,80,135782,1,0
424,80,135870,1,8
336,104,136046,1,0
256,56,136222,2,2,B|200:128|112:88|112:88,1,150,2|0
32,64,136750,38,0,B|32:144|32:144,1,75,0|8
24,232,137102,1,0
112,248,137278,1,8
184,192,137455,1,0
184,192,137543,1,0
184,192,137631,2,2,B|271:237|325:190|325:190,1,150,2|0
400,248,138159,1,0
488,232,138335,1,2
256,128,138687,5,4
168,104,138863,2,0,B|136:96|96:80|96:80,1,75,0|8
160,16,139215,2,0,B|192:24|232:40|232:40,1,75,0|8
320,64,139567,1,0
408,40,139743,2,0,B|424:144|325:157|325:157,1,150,8|8
168,232,140447,2,2,B|96:272|24:232|24:232,1,150,2|0
96,176,140975,1,0
168,120,141151,38,2,B|96:80|24:120|24:120,2,150,2|8|0
240,176,142031,2,0,B|272:248|272:248,1,75,0|8
344,192,142384,2,0,B|416:224|416:224,1,75,0|8
416,136,142736,2,0,B|496:112|496:112,1,75,0|10
240,176,143264,2,2,B|240:24,2,150,2|0|0
168,344,144320,5,8
256,368,144496,1,0
328,312,144672,1,2
464,192,145024,37,8
376,184,145200,1,0
312,120,145376,1,2
248,288,145728,5,8
288,208,145904,1,0
224,152,146080,1,2
56,208,146432,37,8
128,264,146608,1,0
208,224,146784,1,2
160,48,147136,5,8
96,112,147313,1,0
136,192,147489,1,2
136,192,147841,1,2
136,192,148193,37,10
200,128,148369,1,8
288,120,148545,1,10
288,120,148897,1,2
288,120,149249,5,10
376,144,149425,1,8
456,104,149601,2,0,B|488:208|400:224|400:224,1,150,10|8
312,208,150129,1,0
232,248,150305,1,2
96,136,150657,37,8
112,224,150833,1,0
48,280,151009,1,2
192,168,151361,5,8
200,80,151537,1,0
280,48,151713,1,2
456,96,152065,37,8
408,168,152242,1,0
320,192,152418,1,2
216,336,152770,5,8
232,248,152946,1,0
192,168,153122,2,0,B|88:176|64:80|64:80,2,150
272,120,154002,1,0
272,120,154090,1,0
272,120,154178,1,8
256,32,154354,37,2
344,48,154530,1,0
360,136,154706,1,2
448,160,154882,2,0,B|400:248|312:216|312:216,1,150,8|0
256,192,155586,12,0,158403
88,104,158579,6,0,B|136:104|168:88|168:88,1,75,0|0
248,72,158931,2,0,B|288:64|328:72|328:72,1,75,0|0
400,112,159283,2,0,B|432:80|432:48|432:48,2,75,0|2|0
336,176,159811,2,2,B|256:224|304:312|304:312,1,150,2|0
224,352,160339,1,0
216,272,160515,38,2,B|208:192|272:136|272:136,2,150,2|0|0
120,280,161395,2,0,B|128:240|120:200|120:200,1,75,0|8
64,136,161747,1,8
120,72,161923,2,0,B|160:64|200:72|200:72,1,75,8|2
264,128,162276,2,2,B|272:32|360:32|360:32,1,150,2|0
352,120,162804,1,0
352,120,162980,1,2
472,248,163332,5,4
232,344,163684,1,4
56,160,164036,1,4
352,120,164564,38,0,B|320:152|288:168|288:168,1,75
208,184,164916,1,0
208,184,165004,1,0
208,184,165092,1,0
136,128,165268,1,8
224,96,165444,5,0
280,24,165620,1,8
368,40,165796,2,0,B|464:72|424:160|424:160,1,150,8|0
424,158,166324,2,0,B|376:240|448:296|448:296,1,150,0|2
488,216,166852,2,2,B|312:248|312:248,1,150,2|0
248,256,167381,1,2
248,256,167469,1,0
248,256,167557,2,2,B|144:280|120:192|120:192,1,150,2|0
208,176,168085,37,0
292,151,168261,2,2,B|296:160|272:72|168:96,1,150,2|0
208,176,168789,1,0
248,256,168965,2,2,B|144:280|120:192|120:192,1,150,2|0
112,112,169493,1,0
40,168,169669,2,0,B|40:96|16:16|16:16,2,150,8|8|8
24,256,170549,1,0
24,256,170725,5,2
192,320,171077,2,2,B|262:361|320:304|364:290|388:345|341:384|304:344|304:344,2,225,2|0|2
248,248,172310,2,0,B|344:232|344:232,1,75
360,152,172662,2,0,B|280:168|280:168,1,75
312,80,173014,2,0,B|392:64|392:64,1,75,0|4
160,152,173542,38,0,B|56:176|32:88|32:88,2,150,0|8|0
120,72,174422,2,0,B|160:80|200:72|200:72,1,75,0|8
288,64,174774,1,0
376,32,174950,2,0,B|464:64|440:152|440:152,2,150,8|0|8
360,208,176006,1,0
256,192,176710,8,4,178119
256,112,178647,5,0
344,128,178823,2,0,B|338:234|235:297|158:210|168:120|168:120,2,300,0|0|0
432,96,180407,2,8,B|440:144|456:176|456:176,1,75
480,256,180759,1,8
432,336,180935,2,2,B|352:384|288:320|288:320,2,150,6|2|0
200,344,181992,38,2,B|240:272|208:200|208:200,1,150,2|0
160,120,182520,1,2
248,104,182696,1,2
328,144,182872,1,2
352,232,183048,2,2,B|448:200|440:112|440:112,2,150,2|2|0
463,40,184104,6,2,B|400:40|312:40|314:40,1,150,2|0
48,40,184808,2,2,B|112:40|200:40|198:40,1,150,2|0
256,104,185336,1,2
272,192,185512,1,2
216,256,185688,1,2
136,224,185864,2,2,B|136:304|136:304|112:328|112:328,2,112.5,2|0|2
56,272,186568,2,2,B|56:120|56:120,1,150,2|0
24,40,187097,1,0
112,48,187273,1,8
144,128,187449,37,0
208,64,187625,2,2,B|296:104|344:40|344:40,1,150,8|0
432,32,188153,2,0,B|424:72|432:112|432:112,1,75,0|8
440,192,188505,1,8
352,224,188681,2,2,B|400:304|488:272|488:272,2,150,2|0|2
224,96,189737,6,0,B|128:64|104:152|104:152,1,150,0|8
80,240,190265,1,0
120,320,190441,1,2
208,336,190617,1,0
208,336,190705,1,0
208,336,190793,1,8
288,296,190969,1,2
304,208,191145,2,2,B|376:248|448:208,1,150,8|0
288,120,191850,2,4,B|216:160|144:120,1,150
64,80,192378,38,0,B|48:120|56:152|56:152,1,75
80,240,192730,2,0,B|104:280|104:312|104:312,1,75
184,264,193082,2,0,B|232:264|265:243|265:243,1,75,0|8
344,216,193434,1,8
408,280,193610,2,2,B|472:208|408:144|408:144,1,150,2|0
344,80,194138,1,0
256,96,194314,2,2,B|210:173|312:161|257:235|257:235,2,150,2|4|2
176,256,195370,6,0,B|104:264|24:240|24:240,1,150,0|2
16,152,195898,2,0,B|8:112|16:72|16:72,1,75,0|2
96,48,196250,1,0
160,112,196426,2,2,B|224:144|256:64|312:112|312:112,2,150,2|0|2
272,176,197307,38,0,B|312:184|352:176|352:176,1,75,2|0
368,264,197659,2,0,B|328:256|288:264|288:264,1,75,0|8
208,280,198011,1,0
128,232,198187,1,8
128,232,198539,1,8
72,64,198891,2,2,B|136:104|216:80,1,150,0|0
392,40,199595,5,0
408,128,199771,1,0
344,192,199947,1,0
264,168,200123,1,0
200,216,200299,2,0,B|118:130|68:242|139:359|139:359|333:355|336:231|230:238|230:238,1,525,0|0
256,192,202060,8,4,203468
