osu file format v9

[General]
AudioFilename: Cascada - What Hurts The Most (Topmodelz ReMix) Zcore ver.mp3
AudioLeadIn: 0
PreviewTime: 88165
Countdown: 0
SampleSet: Soft
StackLeniency: 0.5
Mode: 0
LetterboxInBreaks: 1

[Editor]
DistanceSpacing: 1.6
BeatDivisor: 4
GridSize: 8

[Metadata]
Title:What Hurts The Most (Nightcore Remix)
Artist:Cascada
Creator:Lunah
Version:Insane
Source:
Tags:topmodelz trance Rokodo deadbeat cesc armin jericho2442

[Difficulty]
HPDrainRate:7
CircleSize:4
OverallDifficulty:8
ApproachRate:8
SliderMultiplier:2
SliderTickRate:2

[Events]
//Background and Video events
0,0,"background.jpg"
//Break Periods
2,54390,64706
2,110721,132304
//Storyboard Layer 0 (Background)
//Storyboard Layer 1 (Fail)
//Storyboard Layer 2 (Pass)
//Storyboard Layer 3 (Foreground)
Sprite,Foreground,Centre,"sbwarn-slow.png",320,240 S,0,0,,0.7 F,0,154002,154178,0,1 F,0,154178,154354,1,0.2 F,0,154354,154530,0.2,1 F,0,154530,154706,1,0.2 F,0,154706,154882,0.2,1 F,0,154882,155058,1,0.2 F,0,155058,155234,0.2,1 F,0,155234,155404,1,0.2 F,0,155404,155585,0.2,1 M,0,155585,158401,200,120,200,220 F,0,158401,158577,1,0
//Storyboard Sound Samples
//Background Colour Transformations
3,100,163,162,255

[TimingPoints]
9125,352.071353127567,4,2,0,79,1,0
9829,-100,4,2,1,79,0,0
20303,-100,4,2,1,100,0,0
26024,-100,4,2,1,100,0,0
29545,-100,4,2,2,100,0,0
30249,-100,4,2,2,100,0,0
31657,-100,4,1,0,100,0,1
31745,-100,4,1,0,100,0,0
42131,-100,4,1,2,100,0,0
42395,-200,4,2,0,100,0,0
42923,-100,4,1,0,100,0,0
51285,-100,4,1,0,76,0,0
51725,-100,4,1,0,53,0,0
52253,-100,4,1,0,100,0,0
65368,-100,4,1,2,60,0,0
68184,-100,4,1,2,71,0,0
71001,-100,4,1,2,81,0,0
73818,-100,4,1,2,92,0,0
76722,-100,4,1,0,100,0,1
76810,-100,4,1,0,100,0,0
87636,-200,4,1,0,100,0,0
87988,-200,4,1,0,100,0,1
88253,-100,4,1,0,100,0,0
88341,-100,4,1,0,100,0,0
97934,-100,4,1,0,58,0,0
98111,-100,4,1,0,100,0,0
99255,-100,4,1,0,100,0,1
99343,-100,4,1,0,100,0,0
107704,-126.582278481013,4,1,0,100,0,0
108057,-126.582278481013,4,1,0,79,0,0
108409,-126.582278481013,4,1,0,59,0,0
108761,-126.582278481013,4,1,0,42,0,0
109113,-126.582278481013,4,1,0,23,0,0
109465,-126.582278481013,4,1,0,41,0,0
109817,-126.582278481013,4,1,0,0,0,0
110169,-126.582278481013,4,1,0,0,0,0
110521,-100,4,1,0,0,0,1
110697,-100,4,1,0,100,0,0
132790,-100,4,1,0,68,0,0
144232,-100,4,1,0,39,0,0
154090,-100,4,1,0,69,0,0
158403,-100,4,1,0,100,0,1
175300,-100,4,1,0,100,0,0
175564,-100,4,1,0,81,0,0
175916,-100,4,1,0,64,0,0
176268,-100,4,1,0,31,0,0
177060,-100,4,1,0,52,0,0
177236,-100,4,1,0,62,0,0
177412,-100,4,1,0,71,0,0
177588,-100,4,1,0,78,0,0
177852,-100,4,1,0,100,0,0
178116,-100,4,1,0,100,0,1
178205,-100,4,1,0,100,0,0
178469,-100,4,1,0,0,0,0
180845,-100,4,1,0,100,0,0
180933,-100,4,1,0,100,0,1
191847,-200,4,1,0,100,0,0
192199,-200,4,1,0,100,0,1
192463,-100,4,1,0,100,0,1
200913,-100,4,1,0,69,0,1
201265,-100,4,1,0,40,0,1
203290,-100,4,1,0,0,0,0
203466,-100,4,1,0,100,0,1
203554,-100,4,1,0,100,0,0

[Colours]
Combo1 : 255,187,255
Combo2 : 20,0,100
Combo3 : 149,149,253
Combo4 : 128,255,255

[HitObjects]
256,192,7716,8,0,9125
448,192,9829,5,0
368,104,10005,1,2
256,64,10181,1,0
144,104,10357,1,2
64,192,10533,1,0
256,64,10885,2,0,B|256:272,1,200
256,264,11589,1,2
312,32,11941,5,0
192,32,12117,1,2
256,136,12293,2,0,L|248:144|264:144|248:152|264:152|248:160|264:160|248:168|264:168|248:176|264:176|248:184|264:184|248:192|264:192,1,200,0|8
440,56,13349,5,0
80,56,13701,1,2
200,264,14053,1,0
264,160,14230,1,0
328,264,14406,1,2
168,80,14758,2,0,L|264:40|368:88,1,200,0|0
351,80,15286,5,2
264,160,15462,2,0,B|192:160|192:256,1,100,0|2
312,232,15814,2,0,B|384:232|384:304,1,100,0|2
264,312,16166,2,0,B|56:312,1,200,8|0
32,200,16694,1,2
56,80,16870,2,0,B|280:80,1,200
288,192,17398,1,2
360,288,17574,2,0,B|416:280|416:216,2,100
415,217,18278,1,8
136,152,19335,5,10
376,152,19687,1,10
256,360,20039,1,10
56,224,20391,6,0,L|16:256|48:296,2,100
256,96,21095,1,8
256,96,21271,1,0
256,96,21447,1,8
456,224,21799,2,0,L|496:256|464:296,2,100
256,360,22503,1,8
256,240,22679,1,0
256,120,22855,1,8
40,224,23207,6,0,B|48:288|128:296,2,100
472,224,23911,2,0,B|464:288|384:296,2,100,8|0|8
256,16,24616,1,0
40,224,24968,1,0
472,224,25320,1,8
368,280,25496,1,0
368,160,25672,1,8
40,224,26024,6,0,B|40:336,1,100,4|0
40,324,26376,1,8
216,160,26728,2,0,B|216:32,1,100
216,60,27080,1,8
392,224,27432,2,0,B|392:336,1,100,0|0
392,324,27784,1,8
152,320,28136,1,0
152,200,28312,1,0
152,80,28488,1,8
376,32,28840,2,8,L|376:160|480:208,1,200,8|12
256,336,29545,5,8
184,240,29721,1,0
328,240,29897,1,8
256,128,30073,1,0
256,8,30249,1,8
256,8,30425,1,8
256,128,30601,1,8
256,128,30777,1,8
168,208,30953,5,8
168,248,31041,1,8
184,288,31129,1,8
216,320,31217,1,8
256,328,31305,1,8
296,312,31393,1,8
328,288,31481,1,8
336,248,31569,1,8
336,208,31657,5,4
448,168,31833,2,0,B|480:112|424:72,1,100,8|0
312,48,32185,1,0
312,48,32361,1,0
192,48,32537,1,8
192,48,32713,1,0
72,80,32889,2,0,B|16:128|80:200,1,100,0|0
128,264,33241,5,8
128,264,33417,2,0,B|128:336|48:336,1,100,0|0
384,264,33769,1,0
384,264,33946,2,0,B|384:336|464:336,1,100,8|0
256,264,34298,1,0
256,264,34474,6,0,L|256:152,1,100,0|8
136,168,34826,1,0
192,64,35002,1,0
312,64,35178,1,0
376,168,35354,1,8
464,248,35530,6,0,B|424:288|352:272,1,100
48,248,35882,2,0,B|88:288|160:272,1,100,0|8
256,264,36234,1,0
256,144,36410,1,0
160,72,36586,2,0,B|256:0|352:80,1,200,8|0
256,144,37114,1,0
160,208,37290,2,0,B|256:280|352:200,1,200,8|0
343,206,37818,5,0
448,144,37994,2,0,B|368:64,1,100,8|0
256,72,38346,1,0
256,72,38522,1,0
136,88,38698,2,0,B|56:160,1,100,8|0
24,272,39051,1,0
256,328,39403,5,8
480,48,39755,1,8
32,48,40107,1,8
104,280,40459,6,0,L|64:320|24:288,1,100,0|8
408,280,40811,2,0,L|448:320|488:288,1,100,8|8
256,280,41163,1,8
256,280,41339,1,0
256,160,41515,2,0,L|256:16,2,100,8|0|0
256,160,42219,1,0
72,168,42571,6,0,L|80:160|80:176|88:160|88:176|96:168|128:168,1,100,0|4
123,168,43099,1,0
208,80,43275,2,0,B|256:40|296:80,1,100,0|8
256,192,43627,2,0,B|304:232|344:192,1,100
384,80,43980,2,8,B|432:40|472:80,1,100
432,192,44332,6,2,B|432:312|304:312,1,200
184,312,44860,1,8
288,256,45036,2,2,B|408:256|408:128,1,200
168,128,45740,5,0
48,128,45916,1,0
120,32,46092,2,0,B|240:32,1,100,8|0
288,128,46444,2,0,B|400:128,1,100
504,136,46796,1,8
440,240,46972,1,0
360,328,47148,6,2,L|304:304|304:240|224:224,1,200
184,112,47676,1,8
136,224,47852,2,2,B|16:224|16:360,2,200
248,272,48733,6,0,B|312:272|312:344,1,100,0|8
248,112,49085,2,0,B|312:112|312:40,1,100,0|8
432,56,49437,1,0
472,168,49613,1,8
424,280,49789,1,0
376,168,49965,1,8
312,272,50141,1,0
248,168,50317,1,8
216,56,50493,6,0,L|272:56|296:104,1,100,0|8
176,120,50845,2,0,L|152:168|88:160,1,100
304,280,51373,6,0,L|456:280|456:192|344:192|344:128,1,400,0|0
256,192,52429,8,4,54190
56,64,65456,5,0
416,104,65808,1,0
128,320,66160,1,0
344,32,66512,1,0
480,368,66864,5,0
144,248,67216,1,0
464,80,67568,1,0
104,40,67920,1,8
200,112,68096,1,0
88,144,68272,5,0
432,32,68625,1,0
144,248,68977,1,0
496,328,69329,1,0
256,56,69681,5,0
32,344,70033,1,0
384,280,70385,1,0
24,232,70737,1,8
112,152,70913,1,0
0,112,71089,5,0
360,120,71441,1,0
64,320,71793,1,8
304,48,72145,1,0
480,360,72497,5,8
120,368,72849,1,0
360,96,73201,1,8
48,272,73554,1,8
48,152,73730,1,8
160,200,73906,5,12
480,40,74258,1,12
240,312,74610,5,4
400,224,74786,1,4
288,64,74962,1,4
112,160,75138,1,4
112,160,75314,1,0
256,192,75490,8,4,76722
64,216,76898,6,0,B|32:272|88:312,1,100,0|8
200,336,77250,1,0
200,336,77426,1,0
320,336,77602,1,0
320,336,77778,1,8
440,304,77954,2,0,B|496:256|432:184,1,100
384,120,78307,5,0
384,120,78483,2,0,B|384:48|464:48,1,100,8|0
128,120,78835,1,0
128,120,79011,2,0,B|128:48|48:48,1,100,0|8
256,120,79363,1,2
256,120,79539,6,0,L|256:232,1,100
376,216,79891,1,8
320,320,80067,1,0
200,320,80243,1,0
136,216,80419,1,0
48,136,80595,6,0,B|88:96|160:112,1,100,8|0
464,136,80947,2,0,B|424:96|352:112,1,100
256,120,81299,1,8
256,240,81475,1,0
352,304,81651,2,0,B|256:376|160:296,1,200
256,240,82179,1,2
352,168,82355,2,0,B|256:96|160:176,1,200,0|8
169,170,82883,5,0
64,224,83059,2,0,B|144:304,1,100
256,312,83412,1,8
256,312,83588,1,0
376,296,83764,2,0,B|456:224,1,100
432,112,84116,1,8
368,8,84292,1,0
256,56,84468,1,0
32,336,84820,5,8
480,336,85172,1,0
408,104,85524,6,0,L|448:64|488:96,1,100,0|8
104,104,85876,2,0,L|64:64|24:96,1,100,0|8
256,104,86228,1,0
256,104,86404,1,8
256,224,86580,2,0,B|200:296|328:280|248:384,1,150,2|0
256,224,87108,1,0
256,224,87284,1,4
440,216,87636,6,0,L|432:224|432:208|424:224|424:208|416:216|384:216,1,100,0|4
389,216,88165,1,8
304,304,88341,2,0,B|256:344|216:304,1,100,0|8
256,192,88693,2,0,B|208:152|168:192,1,100,0|8
144,312,89045,2,0,B|96:352|56:312,1,100,0|8
80,192,89397,6,2,B|80:72|208:72,1,200
328,72,89925,1,0
224,128,90101,2,2,B|104:128|104:256,1,200
344,256,90805,5,0
464,256,90981,1,8
392,352,91157,2,0,B|272:352,1,100,0|8
224,256,91509,2,0,B|112:256,1,100,0|8
8,248,91861,1,0
72,144,92037,1,8
152,56,92213,6,2,L|208:80|208:144|288:160,1,200
328,272,92741,1,0
376,160,92917,2,2,B|496:160|496:24,2,200
264,112,93798,6,0,B|200:112|200:40,1,100,8|0
264,272,94150,2,0,B|200:272|200:344,1,100,8|0
80,328,94502,1,8
40,216,94678,1,0
88,104,94854,1,8
144,208,95030,1,0
208,104,95206,1,8
264,208,95382,1,0
384,208,95558,6,0,B|448:208|448:144,3,100,8|2|8|2
360,72,96262,1,8
248,24,96438,6,0,B|192:0|128:48,1,100,0|8
136,152,96790,2,0,B|80:176|16:128,2,100,2|8|0
248,112,97318,1,8
336,192,97494,2,0,B|392:232|352:320,1,100,0|8
248,304,97846,2,0,B|192:328|112:288,1,100,2|8
256,192,98199,8,4,99255
123,216,99431,5,0
208,304,99607,2,8,B|256:344|296:304,1,100
256,192,99959,2,0,B|304:152|344:192,1,100
368,312,100311,2,0,B|416:352|456:312,1,100
432,192,100663,6,2,B|432:72|304:72,1,200
184,72,101191,1,0
288,128,101367,2,2,B|408:128|408:256,1,200
168,256,102071,5,0
48,256,102247,1,0
120,352,102423,2,8,B|240:352,1,100
288,256,102775,2,0,B|400:256,1,100
504,248,103128,1,0
440,144,103304,1,0
360,56,103480,6,2,L|304:80|304:144|224:160,1,200
184,272,104008,1,0
136,160,104184,2,2,B|16:160|16:24,2,200
248,112,105064,6,0,B|312:112|312:40,1,100,0|8
248,272,105416,2,0,B|312:272|312:344,1,100,8|0
432,328,105768,1,2
472,216,105944,1,0
424,104,106120,1,2
368,208,106296,5,0
304,104,106472,1,2
248,208,106648,1,0
288,320,106824,2,2,L|232:320|208:272,1,100
96,280,107176,2,2,L|72:328|8:320,2,100
256,192,107704,8,0,110521
256,48,133054,5,0
448,192,133406,1,0
368,280,133582,1,8
256,320,133758,1,0
144,280,133934,1,8
64,192,134110,1,0
144,280,134286,1,8
256,320,134462,2,0,B|256:112,1,200
256,120,135166,1,0
312,352,135518,5,8
192,352,135694,1,0
256,248,135870,2,0,L|232:208|272:208|248:176|248:96,1,200,8|0
248,104,136574,1,0
440,328,136926,1,0
80,328,137278,1,0
200,120,137631,5,8
264,224,137807,1,0
328,120,137983,1,8
168,304,138335,2,0,L|264:344|368:296,1,200
351,304,138863,5,0
264,224,139039,2,0,B|192:224|192:128,1,100,8|0
312,152,139391,2,0,B|384:152|384:80,1,100,8|0
264,72,139743,2,0,B|56:72,1,200,8|0
32,184,140271,1,0
56,304,140447,2,0,B|280:304,1,200,8|0
288,192,140975,1,0
264,72,141151,6,0,B|264:8|344:8,1,100,8|0
408,96,141503,2,0,B|480:96|480:176,1,100,8|0
376,208,141855,2,0,B|376:280|296:280,1,100,8|0
248,184,142207,2,0,B|136:160|120:32,1,200
136,232,143264,5,0
376,232,143616,1,0
256,24,143968,1,0
56,160,144320,6,0,L|16:128|48:88,2,100,4|0|0
256,288,145024,1,8
184,192,145200,1,0
256,96,145376,1,8
456,160,145728,2,0,L|496:128|464:88,2,100
256,24,146432,1,8
328,120,146608,1,0
256,216,146784,1,8
40,160,147136,6,0,B|48:96|128:88,2,100
472,160,147841,2,8,B|464:96|384:88,2,100
376,272,148369,1,0
256,368,148545,1,8
40,160,148897,1,0
472,160,149249,1,8
368,104,149425,1,0
368,224,149601,1,8
40,160,149953,6,0,B|40:48,1,100,4|0
40,60,150305,1,8
216,224,150657,2,0,B|216:352,1,100
216,324,151009,1,8
392,160,151361,2,0,B|392:48,1,100
392,60,151713,1,8
152,64,152065,1,8
152,184,152242,1,0
152,304,152418,1,8
376,352,152770,2,0,L|376:224|480:176,1,200,0|8
256,48,153474,5,0
184,144,153650,1,8
328,144,153826,1,8
256,256,154002,1,8
256,376,154178,5,4
64,224,154530,1,4
256,376,154882,1,4
440,224,155234,1,4
256,192,155586,12,0,158403
256,164,158579,5,0
368,120,158755,1,8
384,240,158931,1,0
320,344,159107,1,8
192,344,159283,1,0
128,240,159459,1,8
144,120,159635,1,0
256,164,159811,5,8
40,344,160163,1,0
256,8,160515,1,0
472,344,160867,1,0
256,8,161219,6,0,L|248:64|200:96,1,100,0|8
120,8,161571,2,0,L|80:48|80:104,1,100,0|8
184,152,161923,2,0,L|176:208|128:240,1,100,0|8
48,160,162276,2,0,L|8:200|8:256,1,100,0|8
96,328,162628,2,0,L|328:328,1,200
456,144,163332,1,0
456,144,163420,1,0
456,144,163508,1,0
352,80,163684,2,0,B|256:16|160:80,1,200
64,296,164388,6,0,L|64:352|8:352,1,100,0|8
448,296,164740,2,0,L|448:352|504:352,1,100,0|8
256,248,165092,2,0,L|256:352,2,100,0|8|0
256,128,165620,1,8
328,32,165796,5,0
360,56,165884,1,0
392,80,165972,1,0
424,104,166060,1,0
392,136,166148,1,0
360,160,166236,1,0
328,192,166324,1,0
360,216,166412,1,0
392,240,166500,1,0
424,264,166588,1,0
392,296,166676,1,0
360,320,166764,1,0
328,344,166852,5,0
208,352,167029,2,0,B|128:288,1,100
240,232,167381,2,8,B|136:152,1,100
264,104,167733,2,0,B|160:24,1,100,0|2
184,43,168085,1,0
88,112,168261,5,2
24,216,168437,1,0
144,216,168613,1,0
88,112,168789,1,0
24,216,168965,1,2
24,216,169141,1,0
144,216,169317,1,0
264,216,169493,1,0
384,216,169669,6,0,B|464:216|464:120,1,100
480,48,170021,2,0,B|424:8|352:64,1,100,0|8
288,120,170373,2,0,B|232:160|160:104,1,100,8|0
104,48,170725,6,0,B|48:8|-24:64,2,100,2|0|2
112,168,171253,1,0
112,168,171341,1,0
112,168,171429,1,0
200,248,171605,2,0,L|160:280|208:328,1,100
312,248,171958,2,0,L|352:280|304:328,2,100
248,152,172486,5,0
168,64,172662,1,0
112,168,172838,1,0
56,272,173014,2,8,B|72:336|152:336,1,100
456,272,173366,2,0,B|440:336|360:336,1,100,0|2
256,256,173718,1,0
360,192,173894,5,2
456,128,174070,1,0
368,48,174246,1,2
280,128,174422,1,0
256,8,174598,1,2
240,128,174774,1,2
144,48,174950,1,2
56,128,175126,1,0
152,192,175302,5,0
176,224,175654,1,0
200,256,176006,1,0
224,288,176358,1,0
384,296,176710,5,0
424,280,176798,1,0
456,248,176886,1,0
480,216,176975,1,0
472,168,177063,1,0
456,128,177151,1,0
416,120,177239,1,0
376,128,177327,1,0
336,144,177415,5,0
296,136,177503,1,0
272,104,177591,1,0
232,88,177679,1,0
192,104,177767,1,0
160,128,177855,1,0
152,168,177943,1,0
168,208,178031,1,0
200,232,178119,1,4
256,192,178471,8,0,180583
448,216,180935,5,0
448,216,181111,6,0,B|480:272|424:312,1,100,0|8
312,336,181463,1,0
312,336,181639,1,0
192,336,181815,1,0
192,336,181992,1,8
72,304,182168,2,0,B|16:256|80:184,1,100
128,120,182520,5,0
128,120,182696,2,0,B|128:48|48:48,1,100,8|0
384,120,183048,1,0
384,120,183224,2,0,B|384:48|464:48,1,100,0|8
256,120,183576,1,0
256,120,183752,6,0,L|256:232,1,100
136,216,184104,1,8
192,320,184280,1,0
312,320,184456,1,0
376,216,184632,1,0
464,136,184808,6,0,B|424:96|352:112,1,100,8|0
48,136,185160,2,0,B|88:96|160:112,1,100
256,120,185512,1,8
256,240,185688,1,0
160,304,185864,2,0,B|256:376|352:296,1,200,0|8
256,240,186392,1,0
160,168,186568,2,0,B|256:96|352:176,1,200,0|8
343,170,187097,5,0
448,224,187273,2,0,B|368:304,1,100
256,312,187625,1,8
256,312,187801,1,0
136,296,187977,2,0,B|56:224,1,100
80,112,188329,1,8
144,8,188505,1,0
256,56,188681,1,0
480,336,189033,5,0
32,336,189385,1,4
104,104,189737,6,0,L|64:64|24:96,1,100,0|8
408,104,190089,2,0,L|448:64|488:96,1,100,0|8
256,104,190441,1,0
256,104,190617,1,0
256,224,190793,2,0,B|256:336,2,100,0|8|0
256,224,191497,1,4
72,216,191850,6,0,L|80:224|80:208|88:224|88:208|96:216|128:216,1,100,0|4
123,216,192378,1,0
208,304,192554,2,0,B|256:344|296:304,1,100
256,192,192906,2,8,B|304:152|344:192,1,100
368,312,193258,2,0,B|416:352|456:312,1,100
432,192,193610,6,2,B|432:72|304:72,1,200
184,72,194138,1,0
288,128,194314,2,2,B|408:128|408:256,1,200
168,256,195018,5,0
48,256,195194,1,0
120,352,195370,2,0,B|240:352,1,100
288,256,195722,2,8,B|400:256,1,100
504,248,196074,1,0
440,144,196250,1,0
360,56,196426,6,2,L|304:80|304:144|224:160,1,200
184,272,196955,1,0
136,160,197131,2,2,B|16:160|16:24,2,200
248,112,198011,6,0,B|312:112|312:40,1,100,0|0
248,272,198363,2,0,B|312:272|312:344,1,100,0|8
432,328,198715,1,8
472,216,198891,1,2
424,104,199067,1,0
368,208,199243,5,2
304,104,199419,1,0
248,208,199595,1,2
232,88,199771,2,0,B|168:88|168:16,1,100,0|2
168,144,200123,2,0,B|104:144|104:216,1,100,0|2
88,328,200475,1,0
0,264,200651,5,0
352,264,201003,1,0
176,56,201355,1,0
256,192,201708,8,4,203468
