osu file format v9

[General]
AudioFilename: Cascada - What Hurts The Most (Topmodelz ReMix) Zcore ver.mp3
AudioLeadIn: 0
PreviewTime: 88165
Countdown: 0
SampleSet: Soft
StackLeniency: 0.5
Mode: 0
LetterboxInBreaks: 1

[Editor]
DistanceSpacing: 1.2
BeatDivisor: 4
GridSize: 8

[Metadata]
Title:What Hurts The Most (Nightcore Remix)
Artist:Cascada
Creator:Lunah
Version:Easy
Source:
Tags:topmodelz trance Rokodo deadbeat cesc armin jericho2442

[Difficulty]
HPDrainRate:1
CircleSize:3
OverallDifficulty:1
ApproachRate:1
SliderMultiplier:0.8
SliderTickRate:2

[Events]
//Background and Video events
0,0,"background.jpg"
//Break Periods
2,54390,63776
2,110721,131374
//Storyboard Layer 0 (Background)
//Storyboard Layer 1 (Fail)
//Storyboard Layer 2 (Pass)
//Storyboard Layer 3 (Foreground)
//Storyboard Sound Samples
//Background Colour Transformations
3,100,163,162,255

[TimingPoints]
9125,352.071353127567,4,2,0,79,1,0
9829,-100,4,2,1,79,0,0
20303,-100,4,2,1,100,0,0
26024,-100,4,2,1,100,0,0
28664,-100,4,2,2,100,0,0
29545,-100,4,2,2,100,0,0
30249,-100,4,2,2,100,0,0
31657,-100,4,1,0,100,0,1
31745,-100,4,1,0,100,0,0
42131,-100,4,1,2,100,0,0
42395,-200,4,2,0,100,0,0
42923,-100,4,1,0,100,0,0
51285,-100,4,1,0,76,0,0
51725,-100,4,1,0,53,0,0
52253,-100,4,1,0,100,0,0
65104,-100,4,1,2,76,0,0
73818,-100,4,1,2,92,0,0
76722,-100,4,1,0,100,0,1
76810,-100,4,1,0,100,0,0
88253,-100,4,1,0,100,0,0
88341,-100,4,1,0,100,0,0
99255,-100,4,1,0,100,0,1
99343,-100,4,1,0,100,0,0
107704,-126.582278481013,4,1,0,100,0,0
132790,-100,4,1,0,68,0,0
144232,-100,4,1,0,39,0,0
158403,-100,4,1,0,100,0,1
175300,-100,4,1,0,100,0,0
175564,-100,4,1,0,81,0,0
175916,-100,4,1,0,64,0,0
176268,-100,4,1,0,42,0,0
177060,-100,4,1,0,52,0,0
177236,-100,4,1,0,62,0,0
177412,-100,4,1,0,71,0,0
177588,-100,4,1,0,78,0,0
177852,-100,4,1,0,100,0,0
178645,-100,4,1,0,0,0,0
180495,-100,4,1,0,100,0,0
180935,-100,4,1,0,78,0,1
191847,-200,4,1,0,100,0,1
192463,-100,4,1,0,100,0,1
200913,-100,4,1,0,69,0,1
201265,-100,4,1,0,40,0,1
203290,-100,4,1,0,100,0,0
203466,-100,4,1,0,100,0,1
203554,-100,4,1,0,100,0,0

[Colours]
Combo1 : 255,187,255
Combo2 : 20,0,100
Combo3 : 149,149,253
Combo4 : 128,255,255

[HitObjects]
80,96,9829,2,0,B|80:192,1,80
160,224,10533,1,2
240,168,10885,1,0
320,112,11237,1,0
368,192,11589,1,0
416,272,11941,2,0,B|304:272,2,80,0|0|8
416,80,13349,6,0,B|416:32|336:32,1,80
272,64,14053,2,0,B|184:112,1,80
120,152,14758,6,0,B|120:216|184:216,1,80,0|0
232,280,15462,1,2
280,200,15814,1,0
336,120,16166,2,0,B|400:120|400:184,1,80
397,160,16870,5,0
304,328,17574,1,0
152,224,18278,1,10
368,144,19335,6,0,B|368:40,2,80,0|0|2
368,240,20391,6,0,B|368:304,2,40,8|0|0
272,240,21095,2,0,B|272:176,2,40,0|2|0
176,240,21799,6,0,B|176:296,2,40,8|0|0
80,240,22503,2,0,B|80:176,2,40,0|2|0
80,336,23207,6,0,B|16:336,2,40,8|0|0
176,336,23911,2,0,B|224:336,2,40,0|2|0
128,256,24616,5,8
256,112,25320,1,10
384,256,26024,6,0,B|432:208,2,40,8|0|0
304,208,26728,2,0,B|256:256,2,40,8|2|0
256,128,27432,6,0,B|304:80,2,40,8|0|0
176,80,28136,2,0,B|128:128,2,40,8|2|0
256,32,28840,5,8
352,32,29193,1,10
416,112,29545,1,8
384,208,29897,1,10
304,272,30249,2,8,B|256:320,8,40,8|8|8|8|8|8|8|8|12
448,144,32361,5,0
272,64,33065,2,0,B|128:64,2,120
368,64,34474,1,8
360,256,35178,1,0
176,208,35882,2,0,B|176:328,2,120
176,112,37290,5,8
368,104,37994,1,0
264,264,38698,2,0,L|256:304|200:320,2,80,0|0|8
176,232,39755,1,0
256,192,40107,8,4,42219
128,80,42923,6,0,B|232:80,1,80
304,80,43627,1,8
408,240,44332,1,2
216,240,45036,1,2
64,256,45740,6,0,L|64:304|8:304,2,80,0|0|8
232,160,47148,1,2
400,72,47852,1,2
400,264,48556,6,0,B|360:352|232:320,1,160
192,264,49613,1,8
144,184,49965,2,0,B|176:96|296:128,1,160,0|8
360,160,51021,1,8
256,192,51373,8,4,54190
96,80,65456,6,0,B|200:80,1,80,0|8
200,176,66160,2,0,B|288:176,1,80,0|8
344,104,66864,2,0,B|408:72,4,40,0|8|0|0|0
416,288,68272,6,0,B|320:256,1,80,0|8
280,336,68977,2,0,B|200:336,1,80,0|8
128,272,69681,2,0,B|64:304,4,40,0|8|0|0|0
224,96,71089,6,0,B|160:48,2,80,0|8|0
304,152,72145,1,8
312,248,72497,2,0,B|392:200,2,80,0|8|0
232,296,73553,1,8
256,192,73906,8,0,76018
80,64,76722,5,4
240,176,77426,1,8
400,64,78130,1,0
400,256,78835,1,8
320,304,79187,2,0,B|296:352|232:320,2,80,0|0|0
208,144,80595,5,8
32,240,81299,1,0
208,336,82003,1,8
304,336,82355,6,0,B|392:336,2,80,0|0|0
208,336,83412,1,8
144,256,83764,1,0
224,200,84116,1,8
160,128,84468,5,0
224,56,84820,2,0,B|296:-8|376:48,1,160,8|0
456,216,86228,1,8
264,216,86932,1,0
392,72,87636,6,0,B|288:72,1,80,8|0
216,72,88341,1,0
288,248,89045,1,10
360,184,89397,2,0,L|392:152|424:184,1,80,2|0
232,120,90453,6,0,B|184:72,2,40
168,192,91157,1,8
328,296,91861,2,0,B|392:296|392:216,1,80,2|2
392,160,92565,1,8
192,160,93270,6,0,B|120:160,2,40
288,160,93974,1,8
400,312,94678,2,0,B|456:296|440:224,1,80
400,168,95382,1,8
336,96,95734,6,0,B|272:24|176:72,1,160
112,120,96790,1,8
256,192,97142,12,0,98551
128,80,99255,6,0,B|224:80,1,80,4|8
304,80,99959,1,0
456,200,100663,1,2
272,264,101367,1,2
88,208,102071,6,0,B|104:256|48:280,2,80,0|8|0
216,64,103480,1,2
392,128,104184,1,2
400,256,104888,6,0,B|368:352|248:312,1,160
192,272,105944,1,8
104,240,106296,2,0,B|144:152|248:192,1,160,0|8
328,224,107352,1,8
256,192,107704,8,4,110521
96,80,133054,5,0
272,176,133758,1,8
432,80,134462,1,0
272,176,135166,5,8
432,288,135870,1,0
240,288,136574,1,8
48,288,137278,2,0,B|48:192|160:192,1,160
344,192,138687,5,8
232,40,139391,1,0
112,192,140095,1,8
232,344,140799,5,0
344,192,141503,1,8
152,192,142207,2,0,B|64:192,1,80
448,192,144320,5,4
64,192,145728,1,0
256,48,147136,1,0
256,336,148545,1,0
256,48,149953,6,0,B|200:48|200:104,1,80
272,152,150657,2,0,B|328:152|328:208,1,80
256,264,151361,2,0,B|200:264|200:320,1,80,0|0
112,336,152065,2,0,B|56:336|56:280,1,80,0|0
32,200,152770,6,0,B|32:120|32:120|136:80,1,160
296,56,154178,1,4
296,248,154882,1,4
256,192,155234,8,0,158403
432,320,159107,5,8
240,320,159811,1,0
80,208,160515,1,8
112,128,160867,1,0
176,64,161219,2,0,B|208:24|264:48,2,80,0|8|0
288,224,162628,5,8
464,144,163332,1,0
288,72,164036,1,8
296,264,164740,6,0,B|384:264,2,80,0|0|0
224,328,165797,1,8
160,264,166149,1,0
224,200,166501,1,8
152,136,166852,6,0,B|224:72|304:128,1,160,4|8
400,288,168261,1,2
208,288,168965,1,2
104,128,169669,6,0,B|272:128,1,160,0|8
448,64,171077,1,2
448,160,171429,1,0
448,256,171781,1,2
352,256,172134,6,0,B|264:256,1,80,0|4
80,256,173190,1,8
240,152,173894,1,0
408,56,174598,1,8
320,224,175302,5,0
304,32,176006,1,0
128,104,176710,2,8,B|72:120|80:192,1,80
128,232,177415,1,8
208,288,177767,6,0,B|280:352|368:280,1,160
256,192,178823,8,0,180231
128,304,180935,6,0,B|232:304,1,80,4|0
304,304,181639,1,8
408,144,182344,1,0
216,144,183048,1,2
64,128,183752,6,0,L|64:80|8:80,2,80,0|0|8
232,224,185160,1,0
400,312,185864,1,2
400,120,186568,6,0,B|360:32|232:64,1,160
192,120,187625,1,8
144,200,187977,2,0,B|176:288|296:256,1,160,0|8
360,224,189033,1,8
256,192,189385,8,4,192202
144,192,192906,6,0,B|80:192,2,40,2|0|2
240,192,193610,1,0
432,192,194314,1,8
272,80,195018,5,0
128,208,195722,2,0,B|80:256,2,40,2|0|2
208,272,196426,1,0
352,144,197131,1,8
464,304,197835,5,0
272,304,198539,2,0,B|176:312|152:208,1,160
144,120,199595,1,8
144,24,199947,2,0,B|248:32|256:128,1,160
256,192,201003,8,4,203468
