osu file format v14

[General]
AudioFilename: 101-cascada_-_what_do_you_want_from_me-zzzz.mp3
AudioLeadIn: 0
PreviewTime: -1
Countdown: 1
SampleSet: Normal
StackLeniency: 0.7
Mode: 0
LetterboxInBreaks: 1
WidescreenStoryboard: 0

[Editor]
Bookmarks: 29949,71776,83549,124239,136529
DistanceSpacing: 1.1
BeatDivisor: 4
GridSize: 32
TimelineZoom: 1

[Metadata]
Title:What Do You Want from Me
TitleUnicode:
Artist:Cascada
ArtistUnicode:
Creator:Tri-Edge
Version:Normal
Source:
Tags:
BeatmapID:20959
BeatmapSetID:3098

[Difficulty]
HPDrainRate:5
CircleSize:5
OverallDifficulty:5
ApproachRate:5
SliderMultiplier:1.4
SliderTickRate:1

[Events]
//Background and Video events
0,0,"58982_420255368.jpg",0,0
//Break Periods
2,71361,83576
2,124327,136582
//Storyboard Layer 0 (Background)
//Storyboard Layer 1 (Fail)
//Storyboard Layer 2 (Pass)
//Storyboard Layer 3 (Foreground)
//Storyboard Layer 4 (Overlay)
//Storyboard Sound Samples

[TimingPoints]
30196,413.793103448276,4,1,0,100,1,0

[HitObjects]
448,192,30196,5,0,0:0:0:0:
352,133,30609,1,4,0:0:0:0:
245,99,31023,1,0,0:0:0:0:
133,96,31437,1,4,0:0:0:0:
245,98,31851,1,0,0:0:0:0:
352,131,32264,1,4,0:0:0:0:
446,190,32678,1,0,0:0:0:0:
426,300,33092,1,4,0:0:0:0:
323,345,33506,5,0,0:0:0:0:
211,352,33920,1,4,0:0:0:0:
102,323,34333,1,0,0:0:0:0:
210,351,34747,1,4,0:0:0:0:
321,344,35161,1,0,0:0:0:0:
423,299,35575,1,4,0:0:0:0:
441,188,35989,5,0,0:0:0:0:
365,105,36402,1,4,0:0:0:0:
255,83,36816,1,0,0:0:0:0:
147,112,37230,1,4,0:0:0:0:
105,216,37644,1,0,0:0:0:0:
210,252,38058,1,4,0:0:0:0:
288,192,38471,1,0,0:0:0:0:
288,192,38885,1,4,0:0:0:0:
288,192,39299,1,0,0:0:0:0:
320,96,39713,1,4,0:0:0:0:
288,192,40127,5,0,0:0:0:0:
288,192,40540,1,4,0:0:0:0:
288,192,40954,1,0,0:0:0:0:
224,128,41368,1,4,0:0:0:0:
224,128,41782,1,0,0:0:0:0:
224,128,42196,1,4,0:0:0:0:
224,224,42609,1,2,0:0:0:0:
160,128,43023,1,0,0:0:0:0:
160,0,43437,5,0,0:0:0:0:
188,48,43644,1,2,0:0:0:0:
160,0,43851,1,0,0:0:0:0:
64,64,44264,1,0,0:0:0:0:
64,128,44471,1,2,0:0:0:0:
64,192,44678,1,0,0:0:0:0:
160,256,45092,5,0,0:0:0:0:
216,257,45299,1,2,0:0:0:0:
160,256,45506,1,0,0:0:0:0:
96,320,45920,1,0,0:0:0:0:
40,323,46127,1,2,0:0:0:0:
96,320,46333,1,0,0:0:0:0:
208,318,46747,5,0,0:0:0:0:
254,286,46954,1,2,0:0:0:0:
308,275,47161,1,0,0:0:0:0:
346,337,47575,5,0,0:0:0:0:
305,304,47782,1,2,0:0:0:0:
262,267,47989,1,0,0:0:0:0:
232,219,48196,1,0,0:0:0:0:
263,172,48402,1,2,0:0:0:0:
315,152,48609,1,0,0:0:0:0:
424,177,49023,5,0,0:0:0:0:
430,121,49230,1,2,0:0:0:0:
427,65,49437,1,0,0:0:0:0:
320,96,49851,1,0,0:0:0:0:
320,96,50058,1,2,0:0:0:0:
320,96,50264,1,0,0:0:0:0:
256,128,50678,5,0,0:0:0:0:
256,128,50885,1,2,0:0:0:0:
256,128,51092,1,0,0:0:0:0:
256,224,51506,1,0,0:0:0:0:
256,224,51713,1,2,0:0:0:0:
256,224,51920,1,0,0:0:0:0:
160,160,52333,5,0,0:0:0:0:
160,160,52540,1,2,0:0:0:0:
160,160,52747,1,0,0:0:0:0:
256,224,53161,1,0,0:0:0:0:
256,224,53368,1,2,0:0:0:0:
256,224,53575,1,0,0:0:0:0:
352,160,53989,5,0,0:0:0:0:
352,160,54196,1,2,0:0:0:0:
352,160,54402,1,0,0:0:0:0:
256,256,54816,1,0,0:0:0:0:
256,256,55023,1,2,0:0:0:0:
256,256,55230,1,0,0:0:0:0:
256,192,55437,12,0,56471,0:0:0:0:
256,224,57092,5,0,0:0:0:0:
256,224,57299,1,0,0:0:0:0:
256,224,57506,1,0,0:0:0:0:
256,224,57713,1,0,0:0:0:0:
256,224,57920,2,0,B|320:288,1,70
320,224,58333,5,0,0:0:0:0:
320,224,58540,1,0,0:0:0:0:
384,224,58954,1,0,0:0:0:0:
352,288,59368,1,0,0:0:0:0:
248,325,59782,2,0,C|324:117,1,210
320,128,60816,5,0,0:0:0:0:
320,128,61230,1,0,0:0:0:0:
224,160,61644,1,0,0:0:0:0:
288,64,62058,2,0,C|320:128,1,70
320,128,62678,1,0,0:0:0:0:
320,128,63092,2,0,C|160:288,1,210
173,277,64127,5,0,0:0:0:0:
256,288,64540,1,0,0:0:0:0:
352,288,64954,1,0,0:0:0:0:
256,288,65368,1,0,0:0:0:0:
256,288,65575,1,0,0:0:0:0:
128,288,65989,5,0,0:0:0:0:
96,128,66609,1,0,0:0:0:0:
96,224,67023,1,0,0:0:0:0:
96,288,67230,1,0,0:0:0:0:
96,160,67644,1,0,0:0:0:0:
256,96,68264,5,0,0:0:0:0:
352,64,68678,1,0,0:0:0:0:
384,96,68885,1,0,0:0:0:0:
384,192,69299,1,0,0:0:0:0:
384,224,69506,1,0,0:0:0:0:
256,192,69920,12,0,71161,0:0:0:0:
192,160,84816,5,0,0:0:0:0:
192,160,85644,1,0,0:0:0:0:
192,160,86058,1,4,0:0:0:0:
288,160,87299,5,0,0:0:0:0:
288,160,87713,1,4,0:0:0:0:
288,288,88954,5,0,0:0:0:0:
288,288,89368,1,4,0:0:0:0:
160,288,90609,5,0,0:0:0:0:
160,288,91023,1,4,0:0:0:0:
256,192,92264,5,0,0:0:0:0:
256,192,92678,1,4,0:0:0:0:
256,192,94954,12,2,96196,0:0:0:0:
224,192,96816,5,2,0:0:0:0:
224,192,97230,1,2,0:0:0:0:
224,192,97644,1,2,0:0:0:0:
128,192,98058,5,0,0:0:0:0:
224,192,98471,1,4,0:0:0:0:
320,192,98885,1,0,0:0:0:0:
224,192,99299,1,4,0:0:0:0:
128,192,99713,1,0,0:0:0:0:
224,192,100127,1,4,0:0:0:0:
128,128,100540,5,0,0:0:0:0:
224,192,100954,1,4,0:0:0:0:
224,64,101368,1,0,0:0:0:0:
320,64,101782,1,4,0:0:0:0:
352,160,102196,1,0,0:0:0:0:
320,64,102609,1,4,0:0:0:0:
256,160,103023,1,0,0:0:0:0:
256,160,103437,1,4,0:0:0:0:
192,256,103851,5,0,0:0:0:0:
256,160,104264,1,4,0:0:0:0:
128,160,104678,1,0,0:0:0:0:
224,96,105092,1,4,0:0:0:0:
192,192,105506,1,0,0:0:0:0:
160,288,105920,1,4,0:0:0:0:
160,288,106333,1,0,0:0:0:0:
128,192,106747,5,4,0:0:0:0:
96,96,107161,1,0,0:0:0:0:
192,64,107575,1,4,0:0:0:0:
288,96,107989,1,0,0:0:0:0:
384,160,108402,1,4,0:0:0:0:
416,256,108816,1,0,0:0:0:0:
288,256,109230,1,4,0:0:0:0:
256,192,109437,12,0,111092,0:0:0:0:
256,192,111299,5,2,0:0:0:0:
256,192,111506,1,0,0:0:0:0:
288,128,111920,1,0,0:0:0:0:
312,176,112127,1,2,0:0:0:0:
288,128,112333,1,0,0:0:0:0:
176,113,112747,5,0,0:0:0:0:
122,128,112954,1,2,0:0:0:0:
176,114,113161,1,0,0:0:0:0:
154,223,113575,1,0,0:0:0:0:
182,271,113782,1,2,0:0:0:0:
182,272,113989,1,0,0:0:0:0:
294,274,114402,5,0,0:0:0:0:
294,274,114609,1,2,0:0:0:0:
350,274,114816,1,0,0:0:0:0:
356,162,115230,1,0,0:0:0:0:
354,106,115437,1,2,0:0:0:0:
356,161,115644,1,0,0:0:0:0:
480,160,116058,1,0,0:0:0:0:
480,160,116264,1,2,0:0:0:0:
480,160,116471,1,0,0:0:0:0:
356,160,116885,5,0,0:0:0:0:
356,160,117092,1,2,0:0:0:0:
356,160,117299,1,0,0:0:0:0:
256,160,117713,1,0,0:0:0:0:
256,160,117920,1,2,0:0:0:0:
256,160,118127,1,0,0:0:0:0:
160,128,118540,5,0,0:0:0:0:
161,184,118747,1,2,0:0:0:0:
160,128,118954,1,0,0:0:0:0:
195,256,119368,1,0,0:0:0:0:
195,256,119575,1,2,0:0:0:0:
194,255,119782,1,0,0:0:0:0:
256,160,120196,5,0,0:0:0:0:
256,160,120402,1,2,0:0:0:0:
256,160,120609,1,0,0:0:0:0:
256,160,121230,2,0,C|96:320,1,210
256,192,122471,12,0,124127,0:0:0:0:
256,192,137782,6,0,C|348:241,1,70
319,226,138402,1,0,0:0:0:0:
320,224,138816,1,0,0:0:0:0:
320,224,139230,2,0,C|96:224,1,210
110,225,140264,5,0,0:0:0:0:
111,226,140678,1,0,0:0:0:0:
111,113,141092,1,0,0:0:0:0:
210,164,141506,1,0,0:0:0:0:
257,194,141713,1,0,0:0:0:0:
159,139,142127,1,0,0:0:0:0:
256,192,142540,2,0,C|64:96,1,210
168,148,143575,5,0,0:0:0:0:
184,256,143989,1,0,0:0:0:0:
264,336,144402,1,0,0:0:0:0:
312,232,144816,2,0,C|376:264,1,70
376,264,145437,1,0,0:0:0:0:
320,192,146058,1,0,0:0:0:0:
320,192,146471,2,0,C|320:96,1,70
320,120,147092,1,0,0:0:0:0:
141,112,147713,5,0,0:0:0:0:
142,224,148127,2,0,C|46:224,1,70
72,224,148747,2,0,C|72:320,1,70
72,294,149368,1,0,0:0:0:0:
256,192,149575,12,0,151023,0:0:0:0:
192,160,151437,5,4,0:0:0:0:
288,160,151851,1,0,0:0:0:0:
288,64,152264,1,4,0:0:0:0:
192,64,152678,1,0,0:0:0:0:
192,160,153092,1,4,0:0:0:0:
288,160,153506,5,0,0:0:0:0:
288,64,153920,1,4,0:0:0:0:
192,64,154333,1,0,0:0:0:0:
96,64,154747,1,4,0:0:0:0:
96,160,155161,1,0,0:0:0:0:
96,256,155575,1,4,0:0:0:0:
96,352,155989,1,0,0:0:0:0:
192,352,156402,1,4,0:0:0:0:
192,256,156816,5,0,0:0:0:0:
192,160,157230,1,4,0:0:0:0:
288,160,157644,1,0,0:0:0:0:
288,256,158058,1,4,0:0:0:0:
384,256,158471,1,0,0:0:0:0:
384,160,158885,1,4,0:0:0:0:
288,160,159299,1,0,0:0:0:0:
288,256,159713,1,4,0:0:0:0:
192,256,160127,1,0,0:0:0:0:
192,160,160540,1,4,0:0:0:0:
192,64,160954,5,0,0:0:0:0:
192,64,161368,1,4,0:0:0:0:
304,64,161782,1,0,0:0:0:0:
304,120,161989,1,4,0:0:0:0:
256,192,162609,12,4,164264,0:0:0:0:
